<?xml version="1.0" standalone="no"?>
<!DOCTYPE svg PUBLIC "-//W3C//DTD SVG 1.1//EN" "http://www.w3.org/Graphics/SVG/1.1/DTD/svg11.dtd" >
<svg xmlns="http://www.w3.org/2000/svg">
<metadata></metadata>
<defs>
<font id="andika_basicregular" horiz-adv-x="1120" >
<font-face units-per-em="2048" ascent="1638" descent="-410" />
<missing-glyph horiz-adv-x="550" />
<glyph unicode="&#xd;" horiz-adv-x="1024" />
<glyph unicode=" "  horiz-adv-x="550" />
<glyph unicode="&#x09;" horiz-adv-x="550" />
<glyph unicode="&#xa0;" horiz-adv-x="550" />
<glyph unicode="!" horiz-adv-x="764" d="M225 110q0 28 10.5 52.5t29 43t43 29t52.5 10.5t52.5 -10.5t43 -29t29 -43t10.5 -52.5t-10.5 -52.5t-29 -43t-43 -29t-52.5 -10.5t-52.5 10.5t-43 29t-29 43t-10.5 52.5zM235 1510h255q-15 -163 -22 -309.5t-10.5 -279.5t-4.5 -252.5t-3 -228.5h-175q-3 109 -4 228.5 t-4.5 252.5t-10.5 279.5t-21 309.5z" />
<glyph unicode="&#x22;" horiz-adv-x="1025" d="M240 1585h205q-11 -92 -18 -168t-11 -141t-6.5 -121.5t-4.5 -109.5h-125q-2 53 -4 109.5t-6 121.5t-11 141t-19 168zM580 1585h205q-11 -92 -18 -168t-11 -141t-6.5 -121.5t-4.5 -109.5h-125q-2 53 -4 109.5t-6 121.5t-11 141t-19 168z" />
<glyph unicode="#" horiz-adv-x="1200" d="M25 575v150h252l67 235h-260v150h303l100 350h150l-100 -350h275l100 350h150l-100 -350h213v-150h-256l-67 -235h264v-150h-307l-107 -375h-150l107 375h-275l-107 -375h-150l107 375h-209zM427 725h275l67 235h-275z" />
<glyph unicode="$" horiz-adv-x="1200" d="M153 124l42 189q84 -74 174 -110t184 -41v487q-8 2 -13 4q-108 32 -176 71t-106.5 84.5t-53 97.5t-14.5 111q0 54 20.5 114t65 112.5t113 91.5t164.5 50v215h130v-213q83 -5 154.5 -24.5t148.5 -56.5l-37 -179q-78 43 -140 66t-126 31v-433q88 -27 155.5 -61.5 t113.5 -80.5t70 -104t24 -131q0 -81 -28 -149t-76.5 -120.5t-115 -87.5t-143.5 -49v-228h-130v220q-62 2 -120 12t-109 26.5t-94.5 38t-76.5 47.5zM365 1030q0 -32 7 -58t27 -49.5t57 -45t97 -43.5v388q-43 -8 -77.5 -27t-59 -44.5t-38 -56.5t-13.5 -64zM683 174 q40 11 74 30.5t59.5 47.5t40 64t14.5 80q0 29 -7 55.5t-27.5 52t-57 50t-96.5 49.5v-429z" />
<glyph unicode="%" horiz-adv-x="1526" d="M100 1078q0 106 22 182t62 125t95 72t120 23q66 0 119.5 -22.5t91.5 -70.5t59 -122t21 -176q0 -111 -22.5 -188t-62 -125t-94.5 -69.5t-121 -21.5t-119.5 21.5t-91.5 69t-58.5 122t-20.5 180.5zM265 1091q0 -75 7.5 -126t23.5 -82t40.5 -44.5t57.5 -13.5q32 0 56.5 13.5 t41 43t25 77.5t8.5 117q0 75 -7.5 125.5t-23.5 81.5t-41 44t-59 13q-33 0 -57 -13t-40 -42.5t-24 -77t-8 -116.5zM291 -25l782 1505h166l-780 -1505h-168zM836 368q0 106 22 182t62 125t95 72t120 23q66 0 119.5 -22.5t91.5 -70.5t59 -122t21 -176q0 -111 -22.5 -188 t-62 -125t-94.5 -69.5t-121 -21.5t-119.5 21.5t-91.5 69t-58.5 122t-20.5 180.5zM1001 381q0 -75 7.5 -126t23.5 -82t40.5 -44.5t57.5 -13.5q32 0 56.5 13.5t41 43t25 77.5t8.5 117q0 75 -7.5 125.5t-23.5 81.5t-41 44t-59 13q-33 0 -57 -13t-40 -42.5t-24 -77t-8 -116.5z " />
<glyph unicode="&#x26;" horiz-adv-x="1222" d="M55 375q0 56 16.5 108t51 106t88 112t126.5 127q-38 49 -71.5 96t-58 92t-38.5 88.5t-14 85.5q0 83 30 139.5t78 91t107.5 49.5t119.5 15q57 0 111 -19t96 -55.5t67.5 -89.5t25.5 -121q0 -42 -17.5 -88.5t-49.5 -95.5t-76 -100t-96 -102q25 -32 49.5 -65.5t49.5 -68.5 q58 -85 109.5 -156t97.5 -131q41 45 71.5 90.5t46.5 86.5l105 -135q-18 -36 -48.5 -80t-72.5 -90q72 -84 125 -131.5t91 -63.5q-14 -12 -34 -28.5t-41.5 -31t-41.5 -25t-33 -10.5q-21 0 -67 46t-115 132q-44 -37 -93 -69.5t-100.5 -56.5t-104.5 -38t-105 -14 q-84 0 -154.5 31t-121.5 85t-80 127t-29 157zM230 380q0 -42 15 -83.5t43.5 -74t70.5 -52.5t96 -20q31 0 66 10t72 28t74.5 42.5t73.5 53.5q-46 62 -97.5 133.5t-108.5 152.5q-26 35 -51.5 69t-51.5 67q-55 -50 -93.5 -93t-62.5 -82t-35 -76t-11 -75zM315 1200 q0 -54 39 -118.5t99 -142.5q84 84 130.5 148.5t46.5 117.5q0 33 -13 60t-34.5 46t-49.5 29t-58 10q-29 0 -57.5 -10.5t-51.5 -30t-37 -47.5t-14 -62z" />
<glyph unicode="'" horiz-adv-x="605" d="M200 1585h205q-11 -92 -18 -168t-11 -141t-6.5 -121.5t-4.5 -109.5h-125q-2 53 -4 109.5t-6 121.5t-11 141t-19 168z" />
<glyph unicode="(" horiz-adv-x="795" d="M115 625q0 164 31.5 315.5t89 282.5t139 237t180.5 180l75 -155q-88 -77 -150 -170.5t-101 -202.5t-56.5 -231t-17.5 -256q0 -130 17.5 -249.5t56.5 -229.5t101 -212.5t150 -198.5l-95 -145q-206 214 -313 472t-107 563z" />
<glyph unicode=")" horiz-adv-x="795" d="M165 -265q84 96 145.5 198.5t101.5 212.5t59 229.5t19 249.5q0 126 -19 247.5t-59 232t-101.5 207t-145.5 173.5l75 155q99 -74 180.5 -180t139 -237t89 -282.5t31.5 -315.5q0 -305 -107 -563t-313 -472z" />
<glyph unicode="*" horiz-adv-x="1028" d="M125 1340l75 125q41 -29 74.5 -52.5t63.5 -43t57 -36.5t55 -33q-1 33 -4 65t-7.5 67.5t-10.5 76.5t-13 91h145q-5 -50 -8.5 -91t-6 -76.5t-4 -67.5t-1.5 -65q28 18 55 36.5t56 40t62 46.5t72 57l70 -125q-46 -21 -83 -39t-69 -34t-61 -31.5t-57 -30.5q29 -15 59 -29 t63 -28t72 -29.5t86 -33.5l-75 -125q-41 29 -74.5 52t-63.5 42.5t-57 36.5t-55 34q1 -33 3.5 -65.5t5.5 -68t8 -76t13 -90.5h-140q4 50 7.5 91t6 77t4 68t2.5 64q-27 -17 -54 -36t-56.5 -40.5t-62.5 -47t-72 -56.5l-70 125l82 38q38 18 70 34t60.5 31.5t57.5 31.5 q-29 15 -59 29t-63.5 28t-72 29t-85.5 34z" />
<glyph unicode="+" horiz-adv-x="1200" d="M155 660v150h370v370h150v-370h370v-150h-370v-375h-150v375h-370z" />
<glyph unicode="," horiz-adv-x="650" d="M185 50v100q5 24 18.5 42.5t32.5 31t41 19.5t43 7q30 0 56.5 -11.5t46 -33t31 -52t11.5 -68.5q0 -92 -43.5 -182t-131.5 -173l-100 40q22 22 45.5 54t43.5 69.5t33 78t13 78.5h-140z" />
<glyph unicode="-" horiz-adv-x="860" d="M80 555v150h700v-150h-700z" />
<glyph unicode="." horiz-adv-x="640" d="M185 110q0 28 10.5 52.5t29 43t43 29t52.5 10.5t52.5 -10.5t43 -29t29 -43t10.5 -52.5t-10.5 -52.5t-29 -43t-43 -29t-52.5 -10.5t-52.5 10.5t-43 29t-29 43t-10.5 52.5z" />
<glyph unicode="/" horiz-adv-x="1000" d="M10 -245l830 1845h150l-830 -1845h-150z" />
<glyph unicode="0" horiz-adv-x="1200" d="M90 720q0 211 40.5 357t111 236.5t165.5 131t203 40.5q109 0 200.5 -39.5t158 -128t104 -230.5t37.5 -347q0 -221 -40.5 -368t-110.5 -235.5t-165 -125t-204 -36.5q-108 0 -200 37t-158.5 123.5t-104 229.5t-37.5 355zM290 745q0 -165 20.5 -279.5t60 -185.5t97.5 -103 t132 -32q72 0 129.5 32t97.5 100.5t61.5 176.5t21.5 261q0 165 -20 279.5t-59 186t-97 103t-134 31.5q-72 0 -129.5 -31.5t-97.5 -100.5t-61.5 -177t-21.5 -261z" />
<glyph unicode="1" horiz-adv-x="1200" d="M210 1268l345 212h170v-1310h315v-170h-820v170h315v1090l-300 -172z" />
<glyph unicode="2" horiz-adv-x="1200" d="M120 0v170q68 49 145.5 113.5t154 138.5t147 154.5t124.5 161.5t86.5 159.5t32.5 147.5q0 70 -24.5 119.5t-64.5 81t-91 45.5t-105 14q-46 0 -95 -13.5t-95.5 -38.5t-89 -59t-75.5 -74l-45 170q30 42 78 77.5t106.5 62t123 41t127.5 14.5q90 0 171.5 -29.5t143.5 -84 t98.5 -132t36.5 -174.5q0 -84 -30.5 -170.5t-81.5 -171t-116 -164.5t-134 -152t-136 -133.5t-122 -108.5h255q74 0 140 0.5t121.5 2t99.5 4.5t74 8v-180h-960z" />
<glyph unicode="3" horiz-adv-x="1200" d="M110 140l25 215q41 -46 88 -84t100.5 -65t113.5 -41.5t128 -14.5q57 0 116 17t106.5 51.5t77.5 86t30 120.5q0 61 -31.5 111.5t-87.5 87t-132 56.5t-164 20h-70v170h70q75 0 142 21t117.5 55t80.5 78t30 91q0 51 -23.5 87.5t-61 60.5t-84 35.5t-91.5 11.5q-58 0 -108 -8 t-95 -26t-87.5 -48t-84.5 -73l-35 170q30 34 73 63.5t94.5 51t110.5 33.5t122 12q93 0 176.5 -24t146.5 -68.5t100 -108.5t37 -144q0 -69 -30 -126.5t-76.5 -101.5t-103.5 -72.5t-110 -39.5q35 -6 76.5 -19t82.5 -34.5t79 -52.5t67.5 -73t47 -95.5t17.5 -120.5 q0 -88 -44.5 -166.5t-119.5 -137t-174 -92.5t-207 -34q-134 0 -245 45.5t-190 119.5z" />
<glyph unicode="4" horiz-adv-x="1200" d="M90 395v155l655 930h190v-930h190v-155h-190v-395h-190v395h-655zM263 550h482v680z" />
<glyph unicode="5" horiz-adv-x="1200" d="M130 80l30 210q50 -41 94.5 -67t88 -41t89 -21t98.5 -6q75 0 137.5 21t107.5 61t70 98.5t25 134.5t-34 129t-86.5 86.5t-116 49t-123.5 15.5q-40 0 -76.5 -3.5t-74 -11t-78 -20t-86.5 -30.5v775h805v-190q-57 12 -114.5 16t-120.5 4h-385v-370q23 3 66.5 6.5t98.5 3.5 q108 0 201.5 -33.5t163.5 -94t110 -144t40 -183.5q0 -117 -40.5 -210t-113 -157.5t-172 -98.5t-216.5 -34q-58 0 -108.5 5.5t-97 18t-91 32.5t-91.5 49z" />
<glyph unicode="6" horiz-adv-x="1200" d="M110 680q0 92 12.5 187.5t41.5 185t75.5 168.5t115 137.5t160 92.5t210.5 34q44 0 83 -4t76 -14.5t73.5 -28t75.5 -43.5l-44 -195q-65 64 -133.5 87t-140.5 23q-83 0 -154.5 -31t-125.5 -100t-87.5 -179t-40.5 -267q74 73 162 117.5t196 44.5q104 0 187.5 -31.5 t142 -87.5t89.5 -134.5t31 -171.5q0 -114 -37.5 -205.5t-105 -156t-162.5 -99t-210 -34.5q-116 0 -207 48.5t-154 139.5t-96 222t-33 295zM307 581q6 -86 28.5 -164t62.5 -137t98 -94.5t134 -35.5q66 0 119.5 22t91.5 60.5t58.5 90.5t20.5 112q0 66 -18 119t-52.5 89.5 t-86 56.5t-118.5 20q-105 0 -190.5 -37.5t-147.5 -101.5z" />
<glyph unicode="7" horiz-adv-x="1200" d="M100 1275v185h990v-160q-222 -304 -377.5 -630t-252.5 -670h-185q41 141 83 265.5t86.5 236.5t92.5 214t100.5 199t110.5 190.5t122 189.5h-390q-141 0 -232 -4t-148 -16z" />
<glyph unicode="8" horiz-adv-x="1200" d="M90 405q0 77 22.5 138t59 108t83.5 82.5t95 61.5q-29 16 -64 41t-65 62t-50.5 88t-20.5 119q0 92 39.5 163t104.5 119t147.5 73t168.5 25t165.5 -25t140.5 -73t97.5 -119t36.5 -163q0 -68 -19.5 -118t-49 -86.5t-63.5 -62t-63 -43.5q41 -21 86 -55.5t82.5 -83t62 -111.5 t24.5 -140q0 -102 -43.5 -181.5t-115 -135t-163.5 -84.5t-188 -29t-187.5 29t-163.5 84.5t-115.5 135t-43.5 181.5zM290 425q0 -66 23 -118t64.5 -88t98 -55t124.5 -19q67 0 123.5 19t98 55t65 88t23.5 118q0 63 -23.5 115t-65 90t-98 59t-123.5 21q-68 0 -124.5 -21 t-98 -59t-64.5 -90t-23 -115zM340 1105q0 -59 20.5 -103.5t56 -75t82.5 -46t101 -15.5t101 15.5t82.5 46t56 75t20.5 103.5q0 55 -20.5 96.5t-56 69t-82.5 41t-101 13.5t-101 -13.5t-82.5 -41t-56 -69t-20.5 -96.5z" />
<glyph unicode="9" horiz-adv-x="1200" d="M112 1002q0 114 41 203.5t110.5 152t161 95t191.5 32.5q116 0 208.5 -51.5t157 -144.5t98.5 -222.5t34 -286.5q0 -92 -12.5 -187.5t-41 -185t-75 -168.5t-114.5 -137.5t-159.5 -92.5t-210.5 -34q-44 0 -83 4t-76 14.5t-73.5 28t-75.5 43.5l44 195q32 -32 65.5 -53.5 t68 -34t69.5 -17.5t71 -5q85 0 157 32t125.5 103t86 185t37.5 278q-72 -72 -164 -117t-194 -45q-104 0 -187 33t-141 89.5t-88.5 132t-30.5 161.5zM306 1036q0 -66 21 -117.5t58 -86.5t87.5 -53.5t110.5 -18.5q50 0 97 11.5t89 32t79 49t66 62.5q-8 79 -29.5 151t-59.5 126 t-94.5 86t-134.5 32q-66 0 -119.5 -20.5t-91.5 -56.5t-58.5 -86.5t-20.5 -110.5z" />
<glyph unicode=":" horiz-adv-x="640" d="M185 110q0 28 10.5 52.5t29 43t43 29t52.5 10.5t52.5 -10.5t43 -29t29 -43t10.5 -52.5t-10.5 -52.5t-29 -43t-43 -29t-52.5 -10.5t-52.5 10.5t-43 29t-29 43t-10.5 52.5zM185 790q0 28 10.5 52.5t29 43t43 29t52.5 10.5t52.5 -10.5t43 -29t29 -43t10.5 -52.5t-10.5 -52.5 t-29 -43t-43 -29t-52.5 -10.5t-52.5 10.5t-43 29t-29 43t-10.5 52.5z" />
<glyph unicode=";" horiz-adv-x="650" d="M185 50v100q5 24 18.5 42.5t32.5 31t41 19.5t43 7q30 0 56.5 -11.5t46 -33t31 -52t11.5 -68.5q0 -92 -43.5 -182t-131.5 -173l-100 40q22 22 45.5 54t43.5 69.5t33 78t13 78.5h-140zM185 790q0 28 10.5 52.5t29 43t43 29t52.5 10.5t52.5 -10.5t43 -29t29 -43t10.5 -52.5 t-10.5 -52.5t-29 -43t-43 -29t-52.5 -10.5t-52.5 10.5t-43 29t-29 43t-10.5 52.5z" />
<glyph unicode="&#x3c;" horiz-adv-x="1200" d="M100 645v170l980 400v-180l-790 -305l790 -305v-180z" />
<glyph unicode="=" horiz-adv-x="1200" d="M120 480v150h960v-150h-960zM120 830v150h960v-150h-960z" />
<glyph unicode="&#x3e;" horiz-adv-x="1200" d="M120 245v180l790 305l-790 305v180l980 -400v-170z" />
<glyph unicode="?" horiz-adv-x="1050" d="M140 1430q25 24 60.5 44t77.5 34.5t88.5 23t93.5 8.5q89 0 158 -21.5t116 -60.5t71.5 -94.5t24.5 -123.5q0 -46 -13.5 -86.5t-36 -78t-52.5 -74t-63 -74.5q-39 -45 -63.5 -87.5t-38 -96t-18.5 -126t-5 -177.5h-185q0 109 8 191t24 145.5t40.5 112.5t57.5 91t59 76.5 t44 64t27.5 56t9.5 53.5q0 22 -9.5 46t-32 43.5t-59.5 32.5t-92 13q-60 0 -125 -27t-122 -87zM315 110q0 28 10.5 52.5t29 43t43 29t52.5 10.5t52.5 -10.5t43 -29t29 -43t10.5 -52.5t-10.5 -52.5t-29 -43t-43 -29t-52.5 -10.5t-52.5 10.5t-43 29t-29 43t-10.5 52.5z" />
<glyph unicode="@" horiz-adv-x="1702" d="M95 574q0 138 29.5 253t82 207.5t125.5 162.5t160 116.5t185.5 70t202.5 23.5q160 0 293.5 -50.5t230 -143.5t150 -224t53.5 -291q0 -125 -31.5 -221t-82.5 -162t-115 -100t-130 -34q-46 0 -78 15.5t-55.5 42.5t-40.5 63.5t-33 77.5q-31 -40 -66.5 -75.5t-74 -62.5 t-80 -43t-85.5 -16q-50 0 -100.5 21.5t-91 65t-65.5 109t-25 154.5q0 93 21 168t56 135q62 102 144.5 153t205.5 51q30 0 67.5 -4.5t77 -12.5t78 -19t71.5 -24v-350q0 -98 8 -158.5t22 -95t33 -46.5t41 -12q25 0 57.5 21.5t60.5 65t47.5 109.5t19.5 155q0 124 -37.5 233.5 t-112.5 191t-186.5 128.5t-258.5 47q-123 0 -236.5 -48t-201 -135.5t-139.5 -210.5t-52 -272q0 -162 49.5 -291t135 -219.5t200 -139t244.5 -48.5q70 0 140.5 20.5t136.5 65.5l105 -109q-38 -26 -85 -47.5t-98.5 -36.5t-105 -23t-104.5 -8q-147 0 -284 52t-243.5 154 t-170.5 252.5t-64 348.5zM603 573q0 -66 12.5 -114t33 -79t46.5 -45.5t53 -14.5q34 0 73 21t77.5 55.5t71.5 79.5t55 94v301q-25 12 -73 22t-104 10q-26 0 -52 -6t-51 -20t-49 -38t-45 -60q-22 -37 -35 -92.5t-13 -113.5z" />
<glyph unicode="A" horiz-adv-x="1395" d="M40 0q13 30 27 63t30.5 74.5t36.5 94.5t46 123l400 1105h215l400 -1105q25 -70 45 -123t37 -94.5t31 -74.5t27 -63h-205l-136 385h-615l-134 -385h-205zM433 540h507l-255 725z" />
<glyph unicode="B" horiz-adv-x="1285" d="M160 0q6 30 9 77t4.5 106t1.5 128v832q0 70 -1.5 130.5t-4.5 108.5t-9 78q33 2 82 4t107.5 3.5t123 2t127.5 0.5q111 0 198 -18t146 -59t90 -108t31 -165q0 -63 -19 -113.5t-52.5 -90t-78 -68.5t-95.5 -48q58 -15 115 -41.5t102.5 -70.5t74 -109.5t28.5 -158.5 q0 -91 -29.5 -169.5t-94 -136.5t-166 -91t-245.5 -33q-77 0 -155.5 1.5t-143.5 3.5q-76 2 -146 5zM365 155q14 -1 38 -2t56 -1.5t70.5 -1t80.5 -0.5q64 0 124.5 13t107 44t75 83t28.5 130q0 139 -84.5 209.5t-260.5 70.5h-235v-545zM365 855h195q80 0 138.5 17t96.5 48 t56.5 74.5t18.5 95.5q0 56 -15.5 98t-49 70.5t-87 42.5t-128.5 14q-29 0 -62 -0.5t-64 -1.5t-57 -1.5t-42 -1.5v-455z" />
<glyph unicode="C" horiz-adv-x="1355" d="M95 710q0 193 56 338.5t149.5 242.5t215.5 145.5t254 48.5q54 0 110 -7t112.5 -23t112.5 -43t110 -67l-60 -180q-47 42 -96 71t-98 46.5t-97.5 25t-93.5 7.5q-105 0 -193 -36.5t-151.5 -109.5t-99.5 -181.5t-36 -252.5q0 -116 31 -222t91 -186.5t147.5 -128.5t200.5 -48 q57 0 115.5 13t114.5 37.5t107 58.5t93 76l40 -195q-44 -41 -103 -71.5t-123.5 -51.5t-130.5 -31.5t-123 -10.5q-152 0 -273 51.5t-206 147t-130.5 231.5t-45.5 305z" />
<glyph unicode="D" horiz-adv-x="1435" d="M160 0q6 30 8.5 77t4 106t2 128.5t0.5 143.5v688q0 70 -1.5 130.5t-4.5 108.5t-9 78q21 1 53.5 2.5t72 2.5t83 2t87 1.5t84.5 1t75 0.5q40 0 91.5 -4.5t108 -17.5t116 -36.5t115 -61.5t104.5 -92t85.5 -128t58 -170.5t21.5 -219.5q0 -149 -33 -262.5t-88.5 -196.5 t-128.5 -139t-153 -90t-162 -48t-155 -14q-24 0 -55.5 0.5t-66.5 1t-72 1.5t-72 2q-82 2 -169 5zM365 165q35 -3 91.5 -6.5t128.5 -3.5q67 0 132.5 13t125 41.5t110.5 73.5t88 107.5t58 144.5t21 185q0 168 -42.5 281t-114.5 181.5t-168.5 98t-204.5 29.5q-25 0 -56 -0.5 t-62.5 -1.5t-59.5 -1.5t-47 -1.5v-1140z" />
<glyph unicode="E" horiz-adv-x="1160" d="M160 0q11 60 13 173.5t2 261.5v590q0 148 -2 261.5t-13 173.5h850v-165h-645v-450h570v-160h-570v-520h264q149 0 250 2t161 13v-180h-880z" />
<glyph unicode="F" horiz-adv-x="1150" d="M160 0q11 60 13 173.5t2 261.5v725q0 67 -1.5 123.5t-4.5 101.5t-9 75h870v-165h-665v-460h580v-160h-580v-240q0 -149 2 -262.5t13 -172.5h-220z" />
<glyph unicode="G" horiz-adv-x="1420" d="M95 720q0 180 53.5 322t146.5 240.5t218.5 150.5t269.5 52q61 0 118.5 -5.5t115 -20.5t117.5 -42.5t126 -71.5l-65 -180q-56 45 -108.5 74.5t-103.5 46t-100.5 23t-99.5 6.5q-114 0 -205.5 -40t-155.5 -114t-98 -179.5t-34 -236.5q0 -138 32.5 -248t93.5 -187.5 t147.5 -118.5t193.5 -41q45 0 84.5 4.5t78.5 15.5t79 29t86 46v335h-350v165h540v-590q-77 -54 -145 -89t-132 -55t-126 -28t-127 -8q-142 0 -261 49t-205.5 144t-135 233.5t-48.5 318.5z" />
<glyph unicode="H" horiz-adv-x="1475" d="M160 0q11 60 13 173.5t2 261.5v590q0 148 -2 261.5t-13 173.5h205v-625h720v625h205q-11 -60 -13 -173.5t-2 -261.5v-590q0 -148 2 -261.5t13 -173.5h-205v675h-720v-675h-205z" />
<glyph unicode="I" horiz-adv-x="975" d="M140 0v145h240v1170h-240v145h675v-145h-245v-1170h245v-145h-675z" />
<glyph unicode="J" horiz-adv-x="965" d="M35 90l45 185q25 -29 56 -51.5t64.5 -37.5t69 -23t70.5 -8q55 0 101 19.5t79 60t51.5 102.5t18.5 148v495q0 73 -0.5 142.5t-2 131t-4.5 114t-8 92.5h205v-925q0 -156 -32 -263t-89.5 -173t-137.5 -95t-176 -29q-36 0 -78.5 6.5t-85.5 20.5t-81 36t-65 52z" />
<glyph unicode="K" horiz-adv-x="1310" d="M160 0q11 60 13 173.5t2 261.5v590q0 148 -2 261.5t-13 173.5h205v-673l560 673h240l-606 -687l671 -773h-245l-620 717v-717h-205z" />
<glyph unicode="L" horiz-adv-x="1080" d="M160 0q11 60 13 173.5t2 261.5v590q0 148 -2 261.5t-13 173.5h205v-1295h224q74 0 140 0.5t122 2t100 4.5t74 8v-180h-865z" />
<glyph unicode="M" horiz-adv-x="1795" d="M160 0q3 25 7 70.5t7.5 106.5t7.5 134.5t8 155t7.5 167t7.5 170.5q12 299 25 656h225l430 -1255l435 1255h220q12 -357 24 -656q3 -85 7 -170.5t8 -167t8 -155t7.5 -134.5t7.5 -106.5t8 -70.5h-185l-28 1198l-412 -1198h-195l-414 1195l-30 -1195h-186z" />
<glyph unicode="N" horiz-adv-x="1500" d="M160 0q11 60 13 173.5t2 261.5v590q0 148 -2 261.5t-13 173.5h180l795 -1157v1157h180q-5 -30 -8 -74t-4.5 -99.5t-2 -121.5t-0.5 -140v-1025h-165l-795 1152v-1152h-180z" />
<glyph unicode="O" horiz-adv-x="1460" d="M95 720q0 120 24.5 223t68 188t103.5 151t130.5 111t149 68.5t159.5 23.5q119 0 229.5 -49t195 -144t135 -233.5t50.5 -318.5t-53.5 -322t-142 -240.5t-201.5 -150.5t-233 -52q-121 0 -232 49t-196 144t-136 233.5t-51 318.5zM290 745q0 -137 30.5 -247t87 -187.5 t135.5 -119t177 -41.5q92 0 170 38.5t134.5 111t88.5 177.5t32 238q0 138 -30.5 248.5t-86.5 187.5t-134.5 118t-173.5 41t-174 -39.5t-136 -113t-88.5 -178t-31.5 -234.5z" />
<glyph unicode="P" horiz-adv-x="1195" d="M160 0q11 60 13 173.5t2 261.5v708q0 70 -1.5 130.5t-4.5 108.5t-9 78q63 2 133 5q60 2 135.5 3.5t156.5 1.5q121 0 219 -27.5t167 -83t106.5 -138t37.5 -191.5q0 -110 -36.5 -198t-105 -149.5t-167 -94.5t-221.5 -33q-55 0 -113 2.5t-107 7.5v-130q0 -149 2 -262.5 t13 -172.5h-220zM365 720q48 -6 98 -8t107 -2q105 0 173.5 24t109 65.5t56.5 96t16 114.5t-17.5 114.5t-58 95.5t-107.5 65.5t-167 24.5q-35 0 -63 -0.5t-52 -1t-47 -1.5t-48 -2v-585z" />
<glyph unicode="Q" horiz-adv-x="1475" d="M95 720q0 120 24.5 223t68 188t103.5 151t130.5 111t149 68.5t159.5 23.5q121 0 231.5 -49t194.5 -144t134 -233.5t50 -318.5q0 -98 -16 -191t-48 -175.5t-81 -151t-115 -117.5q94 -58 184 -97.5t191 -52.5q-9 -14 -23.5 -38t-32.5 -48t-38.5 -41.5t-40.5 -17.5 q-21 0 -57.5 14t-80 35t-90.5 46t-89.5 46t-76.5 35t-51 14q-43 -14 -83 -19.5t-87 -5.5q-121 0 -231.5 49t-194.5 144t-134 233.5t-50 318.5zM290 745q0 -137 30.5 -247t87 -187.5t135.5 -119t177 -41.5q92 0 170 38.5t134.5 111t88.5 177.5t32 238q0 138 -30.5 248.5 t-86.5 187.5t-134.5 118t-173.5 41t-174 -39.5t-136 -113t-88.5 -178t-31.5 -234.5z" />
<glyph unicode="R" horiz-adv-x="1305" d="M160 0q11 60 13 173.5t2 261.5v708q0 70 -1.5 130.5t-4.5 108.5t-9 78q52 2 115 5q54 2 128 3.5t162 1.5q117 0 213.5 -23.5t165.5 -73t107.5 -127.5t38.5 -186q0 -91 -28.5 -161t-75 -120.5t-105.5 -83.5t-120 -50q30 -41 73.5 -100.5t93 -126t100 -135t94.5 -126.5 t77 -100t46 -57h-255l-422 625h-203v-190q0 -74 0.5 -140t2 -122t4.5 -100t8 -73h-220zM365 780h190q170 0 257.5 70t87.5 195q0 64 -19.5 113.5t-61 83t-107 51t-157.5 17.5q-53 0 -101.5 -1.5t-88.5 -3.5v-525z" />
<glyph unicode="S" horiz-adv-x="1175" d="M95 110l45 205q100 -87 206.5 -126t218.5 -39q60 0 116 17t99 49.5t69 80t26 108.5q0 39 -12.5 74.5t-50.5 69.5t-109 67.5t-188 68.5t-191 77t-116 91.5t-57.5 106t-15.5 120.5t26.5 135t83.5 131t146 99.5t214 39.5q58 0 108.5 -5t98 -16t93.5 -28t95 -41l-40 -195 q-54 30 -99.5 50.5t-88.5 34t-86 19.5t-91 6q-60 0 -109.5 -18t-85.5 -48t-55.5 -69t-19.5 -80t11.5 -74.5t46.5 -63t100 -58t172 -59.5q99 -29 175.5 -67.5t128.5 -88.5t79 -114t27 -145q0 -101 -39.5 -183.5t-108 -142t-159.5 -92t-193 -32.5q-72 0 -140.5 10t-129 28 t-111.5 42.5t-89 54.5z" />
<glyph unicode="T" horiz-adv-x="1265" d="M45 1275v185h1155v-185q-60 13 -118.5 16.5t-126.5 3.5h-240v-860q0 -148 3.5 -261.5t16.5 -173.5h-230q13 60 16.5 173.5t3.5 261.5v860h-235q-67 0 -126 -3.5t-119 -16.5z" />
<glyph unicode="U" horiz-adv-x="1440" d="M160 1460h205v-900q0 -98 17 -176.5t57 -134t106 -85t165 -29.5q97 0 162 29.5t104.5 85t56.5 134t17 176.5v900h205q-10 -60 -12.5 -169.5t-2.5 -265.5v-510q0 -122 -32 -221.5t-97.5 -170.5t-165.5 -109.5t-235 -38.5q-137 0 -237.5 38.5t-166.5 109.5t-98.5 170.5 t-32.5 221.5v510q0 148 -2.5 261.5t-12.5 173.5z" />
<glyph unicode="V" horiz-adv-x="1365" d="M35 1460h215l422 -1265l423 1265h215q-14 -31 -28 -64.5t-30.5 -76t-36.5 -97t-45 -127.5l-385 -1095h-225l-390 1095q-26 72 -45.5 126.5t-35.5 97.5t-29 76.5t-25 64.5z" />
<glyph unicode="W" horiz-adv-x="2080" d="M40 1460h220l316 -1274l359 1274h185l364 -1274l311 1274h220q-12 -31 -24 -64.5t-25.5 -76t-29.5 -97t-36 -127.5l-305 -1095h-225l-343 1176l-342 -1176h-225l-305 1095q-20 72 -36 126.5t-29.5 98t-25.5 77t-24 63.5z" />
<glyph unicode="X" horiz-adv-x="1325" d="M40 0q24 32 44 60t44 64t56.5 87t80.5 129l272 441l-207 329q-48 77 -82.5 129.5t-61.5 91t-49.5 68t-46.5 61.5h235l331 -526l319 526h235q-23 -29 -45.5 -58.5t-49.5 -69t-61.5 -93t-81.5 -129.5l-211 -343l272 -431q49 -78 82.5 -129t58 -86.5t44 -62.5t42.5 -58h-230 l-388 614l-372 -614h-230z" />
<glyph unicode="Y" horiz-adv-x="1320" d="M35 1460h230l395 -661l375 661h230q-44 -63 -78 -114.5t-62.5 -97.5t-55 -90t-54.5 -93l-270 -462v-168q0 -148 2 -261.5t13 -173.5h-220q11 60 13 173.5t2 261.5v176l-265 454q-29 49 -56.5 96t-57.5 95t-64.5 98t-76.5 106z" />
<glyph unicode="Z" horiz-adv-x="1230" d="M75 0v125l795 1170h-340q-74 0 -133.5 -0.5t-107.5 -3t-86 -6.5t-68 -10v185h970v-130l-795 -1165h390q147 0 261 4.5t174 15.5v-185h-1060z" />
<glyph unicode="[" horiz-adv-x="790" d="M200 -410v2010h440v-150h-255v-1710h255v-150h-440z" />
<glyph unicode="\" horiz-adv-x="1025" d="M210 1570l150 30l470 -1685l-145 -30z" />
<glyph unicode="]" horiz-adv-x="790" d="M150 -260h255v1710h-255v150h440v-2010h-440v150z" />
<glyph unicode="^" d="M95 850l380 750h170l380 -750h-180l-285 580l-285 -580h-180z" />
<glyph unicode="_" horiz-adv-x="1274" d="M0 -170h1274v-165h-1274v165z" />
<glyph unicode="`" horiz-adv-x="580" d="M0 1600h230l350 -430h-160z" />
<glyph unicode="a" d="M95 255q0 57 19 115.5t65 108t123 85t193 46.5q26 3 65.5 6.5t80 7.5t75 7t49.5 4v75q0 91 -63.5 130.5t-176.5 39.5q-80 0 -158.5 -31.5t-166.5 -93.5q0 16 1 42.5t2 55t3 55t4 42.5q39 16 78.5 32.5t83 29t92.5 20.5t106 8q86 0 156.5 -21.5t120 -59t76.5 -88.5 t27 -111v-390q0 -108 21 -197t54 -173h-180q-9 24 -24 65.5t-26 89.5q-89 -95 -185 -137.5t-190 -42.5q-71 0 -130.5 23t-102.5 61.5t-67.5 89t-24.5 106.5zM280 280q0 -30 12.5 -55.5t35 -44t53.5 -29.5t69 -11t75 6.5t75.5 26t79 56t85.5 96.5v170q-19 -1 -53 -4t-72 -6.5 t-74.5 -7.5t-60.5 -7q-64 -8 -107 -25.5t-69.5 -42.5t-37.5 -56.5t-11 -65.5z" />
<glyph unicode="b" horiz-adv-x="1155" d="M130 1600h200v-775q35 46 76 85t88.5 68t102.5 45.5t118 16.5q76 0 139 -37t109 -103.5t71.5 -158.5t25.5 -201q0 -129 -34.5 -233t-97.5 -178t-152.5 -114t-200.5 -40q-61 0 -118 8.5t-110.5 22t-103.5 29t-98 30.5v1183q0 64 -1.5 128.5t-4.5 123t-9 100.5zM330 185 q37 -15 67.5 -25.5t59.5 -17t57.5 -9.5t60.5 -3q66 0 122 27t96.5 76t63.5 118.5t23 153.5q0 83 -15 150t-43.5 113.5t-70.5 71.5t-96 25q-47 0 -94 -20.5t-89.5 -57.5t-79.5 -88.5t-62 -113.5v-400z" />
<glyph unicode="c" horiz-adv-x="1020" d="M95 490q0 113 36.5 213t104 175t164 118.5t215.5 43.5q100 0 172.5 -23.5t127.5 -61.5l-35 -180q-68 50 -135 75t-145 25q-67 0 -124.5 -25.5t-100 -73.5t-66.5 -118t-24 -158q0 -81 22 -147t63 -113.5t99 -73.5t131 -26q91 0 165 31t140 89l20 -175q-38 -29 -75.5 -49.5 t-78.5 -34t-88 -20t-103 -6.5q-101 0 -189 35.5t-154 102.5t-104 162t-38 215z" />
<glyph unicode="d" horiz-adv-x="1190" d="M105 460q0 133 36.5 240t100.5 182.5t150.5 116.5t187.5 41q32 0 66.5 -7t69 -19t67.5 -27.5t62 -31.5v280q0 121 -5.5 211.5t-19.5 153.5h210v-1070q0 -189 21.5 -317.5t52.5 -212.5h-179q-11 26 -26.5 77.5t-28.5 107.5q-72 -102 -163 -156t-202 -54q-92 0 -165.5 34.5 t-126 98t-80.5 153t-28 199.5zM290 490q0 -175 59.5 -265t190.5 -90q46 0 91.5 23t86 60t73.5 84.5t54 97.5v395q-37 20 -69 34t-63 23t-63 13.5t-70 4.5q-57 0 -109 -26t-92.5 -75t-64.5 -119.5t-24 -159.5z" />
<glyph unicode="e" horiz-adv-x="1095" d="M95 495q0 124 33.5 224.5t95.5 172t151 110t200 38.5q82 0 145 -19.5t109 -54t77 -80.5t49.5 -99t26.5 -110.5t8 -113.5v-39q0 -25 -1 -39h-709q3 -88 27.5 -153t67 -107.5t100 -63.5t125.5 -21q97 0 190 22t185 78l20 -165q-53 -27 -104 -46t-102 -31t-103.5 -17.5 t-110.5 -5.5q-96 0 -183 33.5t-153 99t-105 162.5t-39 225zM288 625h522q0 64 -18.5 113.5t-52 83.5t-79.5 51t-100 17q-110 0 -180 -64.5t-92 -200.5z" />
<glyph unicode="f" horiz-adv-x="750" d="M40 850v145h200v175q0 225 91.5 337.5t253.5 112.5q59 0 116 -18.5t104 -51.5l-46 -150q-38 28 -84 44t-90 16q-39 0 -69 -13.5t-50 -43.5t-30.5 -77.5t-10.5 -115.5v-215h270v-145h-270v-356q0 -73 1.5 -144.5t5 -136t9.5 -119.5t14 -94h-215v850h-200z" />
<glyph unicode="g" horiz-adv-x="1095" d="M30 -200q0 81 59.5 148t186.5 121q-54 31 -75 69t-21 77q0 19 7.5 41.5t22.5 44.5t36.5 42t49.5 36q-83 47 -132 124.5t-49 176.5q0 76 30.5 142t84.5 114.5t127 76t158 27.5q73 0 137.5 -20.5t115.5 -57.5q65 33 141 53t141 25l-10 -160q-40 -2 -82 -8t-89 -20 q22 -38 34 -81t12 -91q0 -77 -30.5 -142t-84.5 -112t-127 -74t-158 -27q-19 0 -36.5 1.5t-34.5 3.5q-55 -23 -77 -48t-22 -47q0 -14 14 -28.5t51 -29t99.5 -27.5t160.5 -25q111 -13 187 -38t122 -61t66 -82.5t20 -103.5q0 -54 -22.5 -100.5t-61 -84.5t-90.5 -68t-111 -50.5 t-122 -31t-123 -10.5q-58 0 -118 8t-116 24.5t-105.5 41.5t-86 59t-58 77t-21.5 95zM215 -180q0 -30 20.5 -62t62 -58.5t104.5 -43t148 -16.5q68 0 128 17.5t105 45.5t71 61.5t26 65.5q0 30 -16 55.5t-54 46t-103 36.5t-162 27q-29 4 -55 7.5t-49 8.5q-75 -27 -119.5 -52 t-68 -49t-31 -46.5t-7.5 -43.5zM285 680q0 -46 17 -85.5t48 -68t73 -45t92 -16.5t92.5 16.5t73 45t47.5 68t17 85.5t-17 85.5t-47.5 68t-73 45t-92.5 16.5t-92 -16.5t-73 -45t-48 -68t-17 -85.5z" />
<glyph unicode="h" horiz-adv-x="1175" d="M130 1600h200v-770q74 105 174 157.5t206 52.5q160 0 245 -104.5t85 -310.5v-625h-185v550q0 94 -12.5 155t-37.5 96.5t-62.5 49.5t-87.5 14q-54 0 -105.5 -25.5t-94.5 -66t-76 -91.5t-49 -102v-580h-185v1130q0 162 -2 283.5t-13 186.5z" />
<glyph unicode="i" horiz-adv-x="565" d="M155 1345q0 28 9 52.5t25.5 43t39.5 29t51 10.5t52 -10.5t41 -29t27 -43t10 -52.5t-10 -52.5t-27 -43t-41 -29t-52 -10.5t-51 10.5t-39.5 29t-25.5 43t-9 52.5zM175 1020h200v-545q0 -48 1.5 -113.5t4 -132.5t6 -128t8.5 -101h-205v530q0 73 -0.5 144t-2 134.5t-4.5 118 t-8 93.5z" />
<glyph unicode="j" horiz-adv-x="595" d="M-190 -405l35 165q16 -12 41 -23t52 -19.5t54 -13t48 -4.5q40 0 73 15.5t57 48.5t37 85t13 126v555q0 73 -0.5 144t-2 134.5t-4.5 118t-8 93.5h200v-995q0 -140 -26.5 -235t-75.5 -152.5t-118.5 -82.5t-154.5 -25q-21 0 -49.5 4.5t-59 12.5t-60 20.5t-51.5 27.5z M185 1345q0 28 9 52.5t25.5 43t39.5 29t51 10.5t52 -10.5t41 -29t27 -43t10 -52.5t-10 -52.5t-27 -43t-41 -29t-52 -10.5t-51 10.5t-39.5 29t-25.5 43t-9 52.5z" />
<glyph unicode="k" horiz-adv-x="1035" d="M130 1600h200v-999l405 419h250l-495 -447l525 -573h-245l-440 520v-520h-185v1130q0 162 -2 283.5t-13 186.5z" />
<glyph unicode="l" horiz-adv-x="565" d="M170 1600h205v-1125q0 -48 1.5 -113t4 -132t6 -128t8.5 -102h-205v1130q0 146 -5 264.5t-15 205.5z" />
<glyph unicode="m" horiz-adv-x="1685" d="M125 1020h180q11 -32 19 -75.5t13 -79.5q46 53 88 87t83.5 53.5t82.5 27t84 7.5q49 0 89 -14t70.5 -37t52.5 -53.5t34 -63.5q47 51 91 83.5t86 51t82.5 26t79.5 7.5q76 0 128 -24.5t83.5 -72.5t45 -119t13.5 -164v-660h-185v550q0 97 -7 158t-23.5 96t-44.5 48t-70 13 q-37 0 -73 -14.5t-69.5 -41t-62 -64.5t-50.5 -85v-660h-185v570q0 93 -7 150.5t-23.5 90t-44.5 43.5t-70 11q-37 0 -74 -15t-70.5 -42.5t-62 -65t-48.5 -82.5v-660h-185v615q0 148 -17 250.5t-33 154.5z" />
<glyph unicode="n" horiz-adv-x="1185" d="M104 1020h180q6 -16 12 -41.5t11 -53.5t9 -55l8 -45q95 114 192 164.5t203 50.5q160 0 245 -104.5t85 -310.5v-625h-185v550q0 94 -12.5 155t-37 96.5t-62 49.5t-88.5 14q-54 0 -105.5 -25.5t-94.5 -66t-76 -91.5t-49 -102v-580h-185v615q0 148 -16.5 250.5t-33.5 154.5z " />
<glyph unicode="o" horiz-adv-x="1140" d="M95 505q0 129 39 228.5t105 168t154 103.5t187 35q103 0 188.5 -35t147 -103.5t95.5 -168t34 -228.5t-39 -228t-105 -166t-154 -101.5t-187 -34.5q-103 0 -188.5 34.5t-147 101.5t-95.5 166t-34 228zM280 505q0 -87 21 -156t59.5 -116.5t91.5 -72.5t118 -25q60 0 113 25 t92.5 72.5t62 116.5t22.5 156q0 88 -21 157.5t-59.5 118t-92 74t-117.5 25.5q-61 0 -114 -25.5t-92 -74t-61.5 -118t-22.5 -157.5z" />
<glyph unicode="p" horiz-adv-x="1170" d="M105 1020h180q11 -26 22 -73.5t18 -116.5q35 46 76.5 85t88 66.5t98 43t107.5 15.5q85 0 155.5 -37.5t120 -105t77 -160t27.5 -202.5q0 -128 -36 -231.5t-97.5 -176.5t-144.5 -112.5t-177 -39.5q-40 0 -75.5 8t-69 22t-66.5 34.5t-69 45.5v-235q0 -60 1.5 -108.5 t4.5 -89.5t8 -75.5t11 -66.5h-210v975q0 93 -1.5 172.5t-6.5 146t-15 120.5t-27 96zM340 260q51 -36 88.5 -59.5t68.5 -37t59.5 -18.5t63.5 -5q53 0 101.5 25t86 72.5t60 115t22.5 152.5q0 83 -15.5 150.5t-45.5 115t-72.5 73.5t-96.5 26q-43 0 -88 -19t-87.5 -56 t-79.5 -92.5t-65 -127.5v-315z" />
<glyph unicode="q" horiz-adv-x="1130" d="M105 435q0 115 30 224t93 193.5t161.5 136t235.5 51.5q45 0 91 -6.5t91 -17.5t88.5 -24.5t84.5 -26.5v-1115q0 -60 1.5 -108.5t4.5 -89.5t8 -75.5t11 -66.5h-210v630q-78 -91 -149 -128t-141 -37q-69 0 -140 27t-129 83.5t-94.5 143.5t-36.5 206zM290 485 q0 -93 20.5 -158t53.5 -105.5t74 -58.5t82 -18q69 0 141 55t134 165v465q-45 17 -99.5 28.5t-100.5 11.5q-82 0 -140 -33.5t-94.5 -88t-53.5 -123.5t-17 -140z" />
<glyph unicode="r" horiz-adv-x="890" d="M105 1020h180q12 -28 21.5 -70.5t16 -94.5t9.5 -111t3 -119v-65q51 141 100 233.5t97.5 147.5t97.5 77t100 22q38 0 70 -7t65 -23l-30 -185q-29 12 -51 16t-54 4q-41 0 -86 -34.5t-88.5 -91.5t-82.5 -129t-68.5 -147.5t-47 -147.5t-17.5 -128q0 -25 0.5 -46t3 -40.5 t6.5 -39t10 -41.5h-205v615q0 148 -16.5 250.5t-33.5 154.5z" />
<glyph unicode="s" horiz-adv-x="965" d="M110 90l50 180q34 -30 76.5 -55t87.5 -43t90.5 -27.5t85.5 -9.5q44 0 80.5 11.5t63 30t41.5 43t15 50.5q0 28 -11.5 52.5t-42 47t-84 43.5t-137.5 42q-91 22 -148.5 52t-90 66t-44.5 78t-12 89q0 23 7.5 54t25 64.5t46 66t71.5 58t101 41.5t134 16q54 0 101.5 -7 t87 -18.5t72.5 -26t59 -28.5l-35 -175q-25 15 -57 31.5t-69.5 30.5t-80 23.5t-88.5 9.5q-55 0 -92.5 -12t-60 -30.5t-32.5 -42t-10 -45.5q0 -26 8 -46t33.5 -37t72.5 -33t126 -34q68 -15 128 -38.5t105 -59.5t71 -86.5t26 -120.5q0 -68 -30 -126t-82 -101.5t-122 -68 t-151 -24.5q-61 0 -117.5 9t-106 25t-90.5 37t-71 44z" />
<glyph unicode="t" horiz-adv-x="835" d="M30 850v145h200v325h185v-325h325v-145h-325v-460q0 -77 7.5 -126t23 -76.5t39.5 -37.5t58 -10q43 0 97 19t120 56v-160q-69 -45 -132 -62.5t-116 -17.5q-59 0 -110 13.5t-89.5 47.5t-60.5 90.5t-22 143.5v580h-200z" />
<glyph unicode="u" horiz-adv-x="1185" d="M135 1020h205v-555q0 -85 8.5 -146.5t28.5 -101t52.5 -58.5t80.5 -19q44 0 94 26.5t95.5 67.5t83 90.5t57.5 95.5v280q0 49 -0.5 88.5t-2.5 75.5t-6 73t-11 83h205v-570q0 -146 16.5 -255.5t48.5 -194.5h-170q-7 17 -15 40t-15.5 49t-14 54.5t-10.5 56.5 q-91 -111 -187.5 -168t-202.5 -57q-320 0 -320 430v295q0 48 -0.5 87t-2.5 75.5t-6 74.5t-11 83z" />
<glyph unicode="v" horiz-adv-x="1070" d="M20 1020h210l305 -820l305 820h210q-21 -43 -43.5 -93t-43 -98t-38.5 -91t-30 -73q-10 -24 -26.5 -65.5t-37 -93t-43.5 -109t-45 -113.5q-53 -132 -113 -284h-190q-58 145 -109 274q-22 55 -45 112t-43.5 109.5t-38 96.5t-29.5 73q-12 30 -30 73.5t-39 91.5t-43 97.5 t-43 92.5z" />
<glyph unicode="w" horiz-adv-x="1550" d="M45 1020h185l210 -805l260 805h150l260 -805l210 805h185q-18 -57 -31.5 -102.5t-25.5 -87t-23.5 -81t-24.5 -84.5l-185 -665h-190l-250 785l-250 -785h-190l-185 665q-11 40 -22.5 79t-24 81t-26.5 90t-32 105z" />
<glyph unicode="x" horiz-adv-x="1085" d="M50 0q41 54 69 90.5t49.5 65.5t40 55t41.5 59l178 258l-158 222q-25 35 -46 63t-44 57t-51.5 64.5t-68.5 85.5h230l260 -361l245 361h225q-39 -50 -66 -85.5t-49 -65t-41.5 -57.5t-43.5 -62l-163 -240l173 -240q27 -38 47 -64.5t42 -54.5t48.5 -63t67.5 -88h-230 l-269 376l-261 -376h-225z" />
<glyph unicode="y" horiz-adv-x="1060" d="M-20 -385l60 160q16 -13 37.5 -26.5t46 -24t50.5 -17.5t51 -7q30 0 59 10.5t58.5 40t60.5 83t66 140.5l-279 691q-28 68 -65 153t-95 202h200l323 -817q19 54 41.5 117.5t46.5 131t48 136t46 131.5q52 148 105 301h200q-26 -58 -47 -107.5t-39 -93t-32.5 -81.5t-26.5 -73 l-240 -665q-52 -144 -102 -235t-101.5 -143.5t-107 -72t-119.5 -19.5q-69 0 -129.5 22t-115.5 63z" />
<glyph unicode="z" horiz-adv-x="1040" d="M105 0v110l575 760h-390q-45 0 -86 -2t-69 -13v165h795v-95l-595 -775h430q44 0 89.5 2t90.5 13v-165h-840z" />
<glyph unicode="{" horiz-adv-x="1000" d="M210 615q0 12 27.5 34t62.5 47t67.5 47.5t42.5 36.5q6 8 9.5 60t7 127t8 162.5t12 166.5t19 139t29.5 80q15 17 50 35t78.5 34.5t90.5 31t86 24.5l40 -140q-25 -9 -58 -21.5t-64.5 -26.5t-56 -28t-31.5 -24q-6 -9 -10.5 -40t-7 -76.5t-4.5 -101t-3 -113t-2 -113t-3 -100 t-4 -74.5t-6 -37q-7 -14 -32.5 -32.5t-53 -37.5t-50.5 -35.5t-24 -24.5q1 -8 24 -24.5t50.5 -35.5t53 -38t32.5 -32q4 -7 6 -37t4 -74.5t3 -100t2 -113t3 -113t4.5 -101t7 -76.5t10.5 -40q7 -11 31.5 -24.5t56 -27.5t64.5 -26.5t58 -21.5l-40 -140q-39 10 -86 24.5t-90.5 31 t-78.5 34.5t-50 35q-18 20 -29.5 80t-19 139t-12 166.5t-8 162.5t-7 127t-9.5 60q-7 9 -24.5 22.5t-39.5 29t-46 32.5t-44 32t-33 28t-13 21z" />
<glyph unicode="|" horiz-adv-x="690" d="M270 -390v1990h150v-1990h-150z" />
<glyph unicode="}" horiz-adv-x="1000" d="M160 -270q25 9 58 21.5t64.5 26.5t55.5 27.5t32 24.5q6 9 10.5 40t7 76.5t4.5 101t3 113t2 113t3 100t4 74.5t6 37q5 9 18.5 20.5t30.5 24t36.5 25.5t35.5 24.5t27 20.5t12 15q-1 5 -12 14.5t-27 21t-35.5 24.5t-36.5 25.5t-30.5 24t-18.5 20.5q-4 7 -6 37t-4 74.5 t-3 100t-2 113t-3 113t-4.5 101t-7 76.5t-10.5 40q-8 10 -32 24t-55.5 28t-64.5 26.5t-58 21.5l40 140q39 -10 86 -24.5t90.5 -31t78.5 -34.5t50 -35q18 -20 29.5 -80t19 -139t12 -166.5t8 -162.5t7 -127t9.5 -60q10 -14 42.5 -36.5t67.5 -47.5t62.5 -47t27.5 -34 q0 -8 -13 -21t-33 -28t-44 -32t-46 -32.5t-39.5 -29t-24.5 -22.5q-6 -8 -9.5 -60t-7 -127t-8 -162.5t-12 -166.5t-19 -139t-29.5 -80q-15 -17 -50 -35t-78.5 -34.5t-90.5 -31t-86 -24.5z" />
<glyph unicode="~" horiz-adv-x="1080" d="M15 520q0 51 16.5 104.5t48.5 96.5t78 70.5t106 27.5q45 0 118.5 -16.5t186.5 -55.5q29 -10 63 -21.5t68.5 -21t68.5 -15.5t64 -6q28 0 48 7t33 20.5t20 34.5t11 50h120q0 -54 -15.5 -106.5t-47 -93.5t-78 -66t-107.5 -25q-32 0 -67.5 6t-71.5 15t-71 20t-65 21 q-54 18 -95.5 32t-75 23.5t-60 14t-50.5 4.5q-31 0 -54.5 -10.5t-39.5 -27t-24 -38.5t-8 -44h-120z" />
<glyph unicode="&#xa1;" horiz-adv-x="764" d="M227 978q0 28 10.5 52.5t28.5 42.5t42.5 28.5t52.5 10.5t52.5 -10.5t42.5 -28.5t28.5 -42.5t10.5 -52.5t-10.5 -52.5t-28.5 -42.5t-42.5 -28.5t-52.5 -10.5t-52.5 10.5t-42.5 28.5t-28.5 42.5t-10.5 52.5zM233 -410q14 163 22 309.5t12 279.5t6 252.5t5 228.5h165 q2 -109 4 -228.5t6 -252.5t12 -279.5t23 -309.5h-255z" />
<glyph unicode="&#xa2;" horiz-adv-x="1200" d="M205 540q0 96 28 182t79.5 154t125.5 114.5t167 63.5v266h130v-259q81 -5 141 -26.5t108 -53.5l-33 -171q-54 39 -106.5 62t-109.5 30v-693q69 8 127.5 36.5t112.5 75.5l19 -166q-60 -45 -120.5 -70t-138.5 -32v-263h-130v263q-85 10 -158 48.5t-127 100.5t-84.5 147.5 t-30.5 190.5zM386 549q0 -65 15 -120t43 -98t69 -72.5t92 -42.5v678q-48 -14 -88 -43t-69.5 -73t-45.5 -101.5t-16 -127.5z" />
<glyph unicode="&#xa3;" horiz-adv-x="1200" d="M145 0v130q30 22 57 50t47.5 61t32.5 71t12 80q0 70 -4.5 145.5t-10.5 152.5h-124v145h113q-4 54 -6 104t-2 96q0 112 28.5 196.5t80.5 141t124.5 84.5t161.5 28q29 0 63 -5t67 -14t64 -22t54 -29l-46 -150q-19 14 -44.5 25t-53.5 19t-55 12t-49 4q-47 0 -85.5 -13.5 t-66 -43.5t-43 -77.5t-15.5 -115.5q0 -53 3 -114t8 -126h309v-145h-297q5 -62 8 -119t3 -106q0 -94 -22.5 -167.5t-80.5 -132.5h203q74 0 140 0.5t122 2t100 4.5t74 8v-180h-870z" />
<glyph unicode="&#xa4;" horiz-adv-x="1200" d="M37 411l211 211q-42 56 -63.5 118t-21.5 134t21.5 139.5t67.5 121.5l-215 215l94 94l215 -215q55 41 120.5 63t137.5 22q71 0 133 -23t115 -64l217 217l94 -94l-213 -213q39 -54 63 -121t24 -139q0 -143 -85 -255l211 -211l-94 -93l-211 211q-56 -45 -119.5 -68.5 t-134.5 -23.5q-77 0 -141 23t-121 69l-211 -211zM294 874q0 -66 23.5 -122t65.5 -96.5t98.5 -63.5t122.5 -23q65 0 120.5 24t95.5 65.5t62.5 97.5t22.5 121q0 64 -23 119.5t-63 96.5t-95.5 65t-119.5 24q-67 0 -123.5 -23t-98 -64t-65 -97.5t-23.5 -123.5z" />
<glyph unicode="&#xa5;" horiz-adv-x="1200" d="M64 1387h201l343 -628l326 628h201q-39 -60 -68.5 -109t-54.5 -92.5t-47.5 -85.5t-47.5 -88l-159 -297h250v-145h-326v-105h326v-145h-326q0 -108 2.5 -190.5t10.5 -129.5h-191q8 47 10 129.5t3 190.5h-317v145h317v105h-317v145h245l-159 297q-25 47 -48.5 91.5 t-50 89.5t-56.5 93t-67 101z" />
<glyph unicode="&#xa6;" horiz-adv-x="1024" d="M440 -390v835h150v-835h-150zM440 775v825h150v-825h-150z" />
<glyph unicode="&#xa7;" horiz-adv-x="1024" d="M110 -355l50 180q34 -30 76.5 -55t87.5 -43t90.5 -27.5t85.5 -9.5q44 0 80.5 13t63 33.5t41.5 46.5t15 52q0 48 -21 89t-60 80.5t-93.5 79.5t-120.5 86q-68 47 -119 90.5t-86 90.5t-52.5 100.5t-17.5 119.5q0 103 52 175t138 110q-98 75 -144 145t-46 144q0 61 20 121.5 t66 109t119 79t180 30.5q54 0 101.5 -7t87 -18.5t72.5 -26t59 -28.5l-35 -175q-25 15 -57 31.5t-69.5 30.5t-80 23.5t-88.5 9.5q-51 0 -88 -12t-61 -31.5t-35 -44.5t-11 -50q0 -38 21 -72t60 -69t93.5 -74t120.5 -87q67 -49 118.5 -92t86.5 -87t52.5 -91t17.5 -103 q0 -107 -51 -189.5t-139 -127.5q98 -80 144 -162t46 -173q0 -68 -30 -128t-82 -105t-122 -71t-151 -26q-61 0 -117.5 9t-106 25t-90.5 37t-71 44zM310 575q0 -31 10 -60.5t34.5 -61t65 -66.5t102.5 -76q39 3 72 18t56.5 37.5t36.5 51.5t13 62q0 28 -9.5 56.5t-32.5 59.5 t-61.5 65t-95.5 74q-42 -1 -77 -13t-60.5 -32.5t-39.5 -49.5t-14 -65z" />
<glyph unicode="&#xa8;" horiz-adv-x="675" d="M0 1345q0 28 9.5 52.5t26.5 43t40 29t51 10.5t51.5 -10.5t40.5 -29t26.5 -43t9.5 -52.5t-9.5 -52.5t-26.5 -43t-40.5 -29t-51.5 -10.5t-51 10.5t-40 29t-26.5 43t-9.5 52.5zM420 1345q0 28 9.5 52.5t26.5 43t40 29t51 10.5t51.5 -10.5t40.5 -29t26.5 -43t9.5 -52.5 t-9.5 -52.5t-26.5 -43t-40.5 -29t-51.5 -10.5t-51 10.5t-40 29t-26.5 43t-9.5 52.5z" />
<glyph unicode="&#xa9;" horiz-adv-x="1515" d="M50 730q0 125 27.5 229.5t76 188.5t115 147t144.5 105.5t165.5 63.5t176.5 21q87 0 173.5 -21t165.5 -63.5t146.5 -105.5t117.5 -147t78.5 -188.5t28.5 -229.5q0 -128 -28.5 -233.5t-78.5 -189t-117.5 -146t-146.5 -104t-165.5 -62t-173.5 -20.5q-90 0 -177 20.5t-165 62 t-144.5 104t-115 146t-76 189.5t-27.5 233zM175 730q0 -156 48.5 -274.5t129.5 -198.5t185.5 -121t216.5 -41t217.5 41t187 121t131 198.5t49.5 274.5t-49.5 274.5t-131 198.5t-187 121t-217.5 41t-216.5 -41t-185.5 -121t-129.5 -198.5t-48.5 -274.5zM355 720 q0 115 35.5 204t93 149t131 91t150.5 31q69 0 132.5 -19.5t132.5 -70.5l-40 -120q-60 55 -113.5 77.5t-111.5 22.5t-110 -23t-91 -67.5t-61.5 -109.5t-22.5 -150q0 -66 20 -129t56.5 -112t88 -79t115.5 -30q70 0 133.5 33t116.5 87l25 -130q-28 -26 -62 -45.5t-71.5 -33 t-76.5 -20t-75 -6.5q-89 0 -162 32.5t-124.5 92t-80 142t-28.5 183.5z" />
<glyph unicode="&#xaa;" horiz-adv-x="697" d="M45 640v100h632v-100h-632zM65 1095q0 69 14.5 125t40.5 100q47 78 110 116.5t155 38.5q23 0 50 -3.5t55.5 -9.5t57 -14t52.5 -18v-260q0 -114 12.5 -191.5t32.5 -128.5h-105q-3 7 -7.5 21.5t-9.5 33t-10 39t-8 41.5q-23 -30 -49.5 -57t-56 -47.5t-60.5 -33t-64 -12.5 q-38 0 -75.5 16t-67.5 48t-48.5 81t-18.5 115zM175 1125q0 -50 9.5 -85t25.5 -57.5t35.5 -32.5t39.5 -10q25 0 54.5 15.5t57.5 41t52.5 59t40.5 69.5v225q-18 8 -53 16.5t-77 8.5q-38 0 -78 -20.5t-72 -74.5q-17 -28 -26 -69.5t-9 -85.5z" />
<glyph unicode="&#xab;" horiz-adv-x="1300" d="M75 512l435 508h185l-390 -508l390 -512h-182zM565 512l435 508h185l-390 -508l390 -512h-182z" />
<glyph unicode="&#xac;" horiz-adv-x="1200" d="M110 650v150h955v-460h-150v310h-805z" />
<glyph unicode="&#xad;" horiz-adv-x="860" d="M80 555v150h700v-150h-700z" />
<glyph unicode="&#xae;" horiz-adv-x="1615" d="M150 730q0 125 27.5 229.5t76 188.5t115 147t144.5 105.5t165.5 63.5t176.5 21q87 0 173.5 -21t165.5 -63.5t146.5 -105.5t117.5 -147t78.5 -188.5t28.5 -229.5q0 -128 -28.5 -233.5t-78.5 -189t-117.5 -146t-146.5 -104t-165.5 -62t-173.5 -20.5q-90 0 -177 20.5 t-165 62t-144.5 104t-115 146t-76 189.5t-27.5 233zM275 730q0 -156 48.5 -274.5t129.5 -198.5t185.5 -121t216.5 -41t217.5 41t187 121t131 198.5t49.5 274.5t-49.5 274.5t-131 198.5t-187 121t-217.5 41t-216.5 -41t-185.5 -121t-129.5 -198.5t-48.5 -274.5zM545 290 q6 38 7 101t1 157v350q0 94 -1 164t-7 108q30 2 69 5q33 2 78.5 3.5t102.5 1.5q72 0 132.5 -15t104.5 -46.5t68.5 -79.5t24.5 -114q0 -55 -18 -96.5t-47.5 -71.5t-66 -48.5t-73.5 -28.5q17 -23 43 -58.5t56 -75.5t61 -81.5t58 -77t47.5 -62t29.5 -35.5h-155l-261 378h-124 v-120q0 -94 1.5 -157t8.5 -101h-140zM675 767h115q102 0 156 38t54 110q0 75 -49.5 118t-160.5 43q-33 0 -61 -1t-54 -3v-305z" />
<glyph unicode="&#xaf;" horiz-adv-x="710" d="M0 1240v150h710v-150h-710z" />
<glyph unicode="&#xb0;" horiz-adv-x="640" d="M70 1235q0 52 19.5 98t53 79.5t79 53t98.5 19.5q52 0 98 -19.5t79.5 -53t53 -79.5t19.5 -98q0 -53 -19.5 -98.5t-53 -79t-79.5 -53t-98 -19.5q-53 0 -98.5 19.5t-79 53t-53 79t-19.5 98.5zM185 1235q0 -28 10.5 -52.5t29 -43t43 -29t52.5 -10.5t52.5 10.5t43 29t29 43 t10.5 52.5t-10.5 52.5t-29 43t-43 29t-52.5 10.5t-52.5 -10.5t-43 -29t-29 -43t-10.5 -52.5z" />
<glyph unicode="&#xb1;" horiz-adv-x="1200" d="M155 200v150h890v-150h-890zM155 835v150h370v380h150v-380h370v-150h-370v-365h-150v365h-370z" />
<glyph unicode="&#xb2;" horiz-adv-x="726" d="M75 710v110q41 29 86.5 67.5t90.5 82.5t86.5 91.5t73 95.5t50 94.5t18.5 88.5t-13 70t-35 44.5t-51 23.5t-61 7q-28 0 -57.5 -8t-58 -22.5t-54 -35t-45.5 -44.5l-30 110q18 25 47.5 46.5t65 37.5t74.5 25t77 9q54 0 103 -17.5t86.5 -50.5t59.5 -80t22 -105 q0 -51 -18 -103t-47.5 -103t-68 -99t-79 -90.5t-80 -78.5t-72.5 -61h145q89 0 156.5 2t103.5 8v-115h-575z" />
<glyph unicode="&#xb3;" horiz-adv-x="722" d="M85 785l15 130q42 -47 103.5 -76t126.5 -29q38 0 71 9.5t57 29.5t38 51t14 75q0 74 -56.5 117t-163.5 43h-45v110h45q45 0 81 10.5t61.5 29t39 43t13.5 52.5q0 30 -11 51t-30 34t-44.5 19t-54.5 6q-24 0 -46 -3t-45 -10.5t-48.5 -21t-55.5 -35.5l-25 105q53 40 108.5 60 t121.5 20q56 0 102 -16.5t79 -45.5t51 -69.5t18 -88.5q0 -37 -14.5 -69t-38.5 -56.5t-55 -40.5q-29 -15 -61 -19q32 -4 66 -20q35 -16 64.5 -45t49 -72t19.5 -98q0 -53 -22.5 -101.5t-62.5 -86t-95 -60t-120 -22.5q-38 0 -73.5 7t-67.5 19t-60 28.5t-49 35.5z" />
<glyph unicode="&#xb4;" horiz-adv-x="0" d="M-750 1170l350 430h230l-420 -430h-160z" />
<glyph unicode="&#xb5;" horiz-adv-x="1185" d="M135 1020h205v-555q0 -85 19.5 -146.5t51 -101t71.5 -58.5t82 -19q37 0 79 26t80.5 67t69.5 90.5t47 96.5v280q0 49 -0.5 88.5t-2.5 75.5t-6 73t-11 83h205v-570q0 -146 16.5 -255.5t48.5 -194.5h-170q-7 17 -15 40t-15.5 49t-14 54.5t-10.5 56.5q-24 -38 -58.5 -77.5 t-76.5 -72.5t-89.5 -54t-95.5 -21q-35 0 -66 9t-57 23.5t-47 33.5t-35 39v-230q0 -60 1.5 -108.5t4.5 -89.5t8 -75.5t11 -66.5h-210v1190q0 48 -0.5 87t-2.5 75.5t-6 74.5t-11 83z" />
<glyph unicode="&#xb6;" horiz-adv-x="1025" d="M50 1113q0 67 18 119t48 90.5t69.5 65t83 42.5t88 23t83.5 7h525v-115h-115v-1345h-135v1345h-160v-1345h-135v765q-34 0 -75 7t-82 23.5t-79.5 43t-68 65t-47.5 90.5t-18 119z" />
<glyph unicode="&#xb7;" horiz-adv-x="679" d="M205 709q0 28 10.5 52.5t28.5 42.5t42.5 28.5t52.5 10.5t52.5 -10.5t42.5 -28.5t28.5 -42.5t10.5 -52.5t-10.5 -52.5t-28.5 -42.5t-42.5 -28.5t-52.5 -10.5t-52.5 10.5t-42.5 28.5t-28.5 42.5t-10.5 52.5z" />
<glyph unicode="&#xb8;" horiz-adv-x="390" d="M0 -440l10 100q22 -16 45 -23t55 -7q22 0 45.5 5t43 17t32.5 31t14 47q-1 39 -28.5 64.5t-68.5 25.5q-24 0 -48 -7.5t-40 -17.5v207h125v-97q10 2 20.5 3.5t27.5 1.5q34 0 63 -12.5t50 -35t32.5 -54t11.5 -68.5q0 -51 -23 -92t-60 -69.5t-82 -43.5t-90 -15 q-39 0 -71.5 11.5t-63.5 28.5z" />
<glyph unicode="&#xb9;" horiz-adv-x="895" d="M145 710v105h235v655l-205 -105l-20 110l240 125h115v-785h230v-105h-595z" />
<glyph unicode="&#xba;" horiz-adv-x="680" d="M45 640v100h590v-100h-590zM55 1155q0 78 23 137.5t62.5 100t92.5 61.5t112 21q62 0 113.5 -21t88.5 -61.5t57.5 -100t20.5 -137.5q0 -77 -23 -137t-62.5 -100.5t-92.5 -61.5t-112 -21q-62 0 -113 21t-88.5 61.5t-58 100.5t-20.5 137zM165 1155q0 -53 13 -94.5t36 -70.5 t55 -44.5t71 -15.5q36 0 68 15.5t56 44.5t37.5 70.5t13.5 94.5t-13 94.5t-36 70.5t-55 44.5t-71 15.5q-36 0 -68 -15.5t-56 -44.5t-37.5 -70.5t-13.5 -94.5z" />
<glyph unicode="&#xbb;" horiz-adv-x="1300" d="M115 0l390 512l-390 508h185l435 -508l-438 -512h-182zM605 0l390 512l-390 508h185l435 -508l-438 -512h-182z" />
<glyph unicode="&#xbc;" horiz-adv-x="1600" d="M105 1475l210 125h115v-785h180v-105h-495v105h185v655l-175 -105zM230 -50l1081 1650h131l-1082 -1650h-130zM865 260v105l390 525h135v-525h130v-105h-130q0 -30 1 -66l3 -72q2 -36 5 -68t6 -54h-150v260h-390zM1000 365h255v355z" />
<glyph unicode="&#xbd;" horiz-adv-x="1600" d="M70 1475l210 125h115v-785h180v-105h-495v105h185v655l-175 -105zM205 -50l1071 1650h131l-1072 -1650h-130zM975 0v110q41 29 86.5 67.5t90.5 82.5t86.5 91.5t73 95.5t50 95t18.5 88q0 42 -13 70t-35 44.5t-51 23.5t-61 7q-28 0 -57.5 -8t-58 -22.5t-54 -35t-45.5 -44.5 l-30 110q18 25 47.5 46.5t65 37.5t74.5 25t77 9q54 0 103 -17.5t86.5 -50.5t59.5 -80t22 -105q0 -51 -18 -103t-47.5 -103t-68 -99t-79 -90.5t-80 -78.5t-72.5 -61h145q89 0 156.5 2t103.5 8v-115h-575z" />
<glyph unicode="&#xbe;" horiz-adv-x="1600" d="M125 785l15 130q42 -47 103.5 -76t126.5 -29q38 0 71 9.5t57 29.5t38 51t14 75q0 74 -56.5 117t-163.5 43h-45v110h45q45 0 81 10.5t61.5 29t39 43t13.5 52.5q0 30 -11 51t-30 34t-44.5 19t-54.5 6q-24 0 -46 -3t-45 -10.5t-48.5 -21t-55.5 -35.5l-25 105q53 40 108.5 60 t121.5 20q56 0 102 -16.5t79 -45.5t51 -69.5t18 -88.5q0 -37 -14.5 -69t-38.5 -56.5t-55 -40.5q-29 -15 -61 -19q32 -4 66 -20q35 -16 64.5 -45t49 -72t19.5 -98q0 -53 -22.5 -101.5t-62.5 -86t-95 -60t-120 -22.5q-38 0 -73.5 7t-67.5 19t-60 28.5t-49 35.5zM230 -50 l1071 1650h131l-1072 -1650h-130zM860 260v105l390 525h135v-525h130v-105h-130q0 -30 1 -66l3 -72q2 -36 5 -68t6 -54h-150v260h-390zM995 365h255v355z" />
<glyph unicode="&#xbf;" horiz-adv-x="1050" d="M140 -110q0 39 8 71.5t26.5 66.5t48.5 73t73 89q30 35 52.5 64.5t38 59.5t25 63.5t14.5 77t7 101t2 134.5h175q0 -123 -4.5 -207t-17.5 -143.5t-38 -103t-65 -86.5q-48 -51 -75.5 -88t-42 -65.5t-18.5 -51.5t-4 -45t9.5 -46t32 -43.5t59.5 -32.5t92 -13q60 0 125 27 t122 87l45 -179q-25 -24 -60.5 -44t-77.5 -34.5t-88.5 -23t-93.5 -8.5q-80 0 -147.5 18.5t-117 56t-77.5 93.5t-28 132zM394 979q0 28 10.5 52.5t28.5 42.5t42.5 28.5t52.5 10.5t52.5 -10.5t42.5 -28.5t28.5 -42.5t10.5 -52.5t-10.5 -52.5t-28.5 -42.5t-42.5 -28.5 t-52.5 -10.5t-52.5 10.5t-42.5 28.5t-28.5 42.5t-10.5 52.5z" />
<glyph unicode="&#xc0;" horiz-adv-x="1395" d="M40 0q13 30 27 63t30.5 74.5t36.5 94.5t46 123l400 1105h215l400 -1105q25 -70 45 -123t37 -94.5t31 -74.5t27 -63h-205l-136 385h-615l-134 -385h-205zM297 2030h230l350 -430h-160zM433 540h507l-255 725z" />
<glyph unicode="&#xc1;" horiz-adv-x="1395" d="M40 0q13 30 27 63t30.5 74.5t36.5 94.5t46 123l400 1105h215l400 -1105q25 -70 45 -123t37 -94.5t31 -74.5t27 -63h-205l-136 385h-615l-134 -385h-205zM433 540h507l-255 725zM507 1600l350 430h230l-420 -430h-160z" />
<glyph unicode="&#xc2;" horiz-adv-x="1395" d="M40 0q13 30 27 63t30.5 74.5t36.5 94.5t46 123l400 1105h215l400 -1105q25 -70 45 -123t37 -94.5t31 -74.5t27 -63h-205l-136 385h-615l-134 -385h-205zM262 1600l340 430h170l340 -430h-150l-275 280l-275 -280h-150zM433 540h507l-255 725z" />
<glyph unicode="&#xc3;" horiz-adv-x="1395" d="M40 0q13 30 27 63t30.5 74.5t36.5 94.5t46 123l400 1105h215l400 -1105q25 -70 45 -123t37 -94.5t31 -74.5t27 -63h-205l-136 385h-615l-134 -385h-205zM332 1635q0 46 13.5 90.5t38 80t60 57.5t80.5 22q21 0 41 -4t40.5 -11.5t43 -17t48.5 -19.5q27 -11 48.5 -20t40 -15 t34.5 -9.5t32 -3.5q35 0 57.5 25t27.5 60h105q0 -48 -13.5 -93t-39 -80t-62.5 -56t-83 -21q-40 0 -80.5 13.5t-86.5 34.5q-58 27 -92.5 39.5t-62.5 12.5q-37 0 -59 -24t-26 -61h-105zM433 540h507l-255 725z" />
<glyph unicode="&#xc4;" horiz-adv-x="1395" d="M40 0q13 30 27 63t30.5 74.5t36.5 94.5t46 123l400 1105h215l400 -1105q25 -70 45 -123t37 -94.5t31 -74.5t27 -63h-205l-136 385h-615l-134 -385h-205zM350 1775q0 28 9.5 52.5t26.5 43t40 29t51 10.5t51.5 -10.5t40.5 -29t26.5 -43t9.5 -52.5t-9.5 -52.5t-26.5 -43 t-40.5 -29t-51.5 -10.5t-51 10.5t-40 29t-26.5 43t-9.5 52.5zM433 540h507l-255 725zM770 1775q0 28 9.5 52.5t26.5 43t40 29t51 10.5t51.5 -10.5t40.5 -29t26.5 -43t9.5 -52.5t-9.5 -52.5t-26.5 -43t-40.5 -29t-51.5 -10.5t-51 10.5t-40 29t-26.5 43t-9.5 52.5z" />
<glyph unicode="&#xc5;" horiz-adv-x="1395" d="M40 0q13 30 27 63t30.5 74.5t36.5 94.5t46 123l400 1105h215l400 -1105q25 -70 45 -123t37 -94.5t31 -74.5t27 -63h-205l-136 385h-615l-134 -385h-205zM433 540h507l-255 725zM472 1815q0 45 16.5 84t46 68.5t68.5 46t84 16.5t84 -16.5t68.5 -46t46 -68.5t16.5 -84 t-16.5 -84t-46 -68.5t-68.5 -46t-84 -16.5t-84 16.5t-68.5 46t-46 68.5t-16.5 84zM587 1815q0 -45 27.5 -72.5t72.5 -27.5t72.5 27.5t27.5 72.5t-27.5 72.5t-72.5 27.5t-72.5 -27.5t-27.5 -72.5z" />
<glyph unicode="&#xc6;" horiz-adv-x="1805" d="M80 0q34 55 62 104.5t53.5 97t49.5 96t50 101.5l515 1061h845v-165h-545v-450h470v-160h-470v-520h164q149 0 250 2t161 13v-180h-780q3 17 5.5 42.5t4 68.5t2.5 109t2 165h-449l-190 -385h-200zM547 540h372q1 135 1 319v436z" />
<glyph unicode="&#xc7;" horiz-adv-x="1355" d="M95 710q0 193 56 338.5t149.5 242.5t215.5 145.5t254 48.5q54 0 110 -7t112.5 -23t112.5 -43t110 -67l-60 -180q-47 42 -96 71t-98 46.5t-97.5 25t-93.5 7.5q-105 0 -193 -36.5t-151.5 -109.5t-99.5 -181.5t-36 -252.5q0 -116 31 -222t91 -186.5t147.5 -128.5t200.5 -48 q57 0 115.5 13t114.5 37.5t107 58.5t93 76l40 -195q-44 -41 -103 -71.5t-123.5 -51.5t-130.5 -31.5t-123 -10.5v-70q10 2 20.5 3.5t27.5 1.5q34 0 63 -12.5t50 -35t32.5 -54t11.5 -68.5q0 -51 -23 -92t-60 -69.5t-82 -43.5t-90 -15q-39 0 -71.5 11.5t-63.5 28.5l10 100 q22 -16 45 -23t55 -7q22 0 45.5 5t43 17t32.5 31t14 47q-1 39 -28.5 64.5t-68.5 25.5q-24 0 -48 -7.5t-40 -17.5v190q-124 20 -222 79t-166.5 152.5t-105 218t-36.5 275.5z" />
<glyph unicode="&#xc8;" horiz-adv-x="1160" d="M160 0q11 60 13 173.5t2 261.5v590q0 148 -2 261.5t-13 173.5h850v-165h-645v-450h570v-160h-570v-520h264q149 0 250 2t161 13v-180h-880zM210 2030h230l350 -430h-160z" />
<glyph unicode="&#xc9;" horiz-adv-x="1160" d="M160 0q11 60 13 173.5t2 261.5v590q0 148 -2 261.5t-13 173.5h850v-165h-645v-450h570v-160h-570v-520h264q149 0 250 2t161 13v-180h-880zM420 1600l350 430h230l-420 -430h-160z" />
<glyph unicode="&#xca;" horiz-adv-x="1160" d="M160 0q11 60 13 173.5t2 261.5v590q0 148 -2 261.5t-13 173.5h850v-165h-645v-450h570v-160h-570v-520h264q149 0 250 2t161 13v-180h-880zM175 1600l340 430h170l340 -430h-150l-275 280l-275 -280h-150z" />
<glyph unicode="&#xcb;" horiz-adv-x="1160" d="M160 0q11 60 13 173.5t2 261.5v590q0 148 -2 261.5t-13 173.5h850v-165h-645v-450h570v-160h-570v-520h264q149 0 250 2t161 13v-180h-880zM263 1775q0 28 9.5 52.5t26.5 43t40 29t51 10.5t51.5 -10.5t40.5 -29t26.5 -43t9.5 -52.5t-9.5 -52.5t-26.5 -43t-40.5 -29 t-51.5 -10.5t-51 10.5t-40 29t-26.5 43t-9.5 52.5zM683 1775q0 28 9.5 52.5t26.5 43t40 29t51 10.5t51.5 -10.5t40.5 -29t26.5 -43t9.5 -52.5t-9.5 -52.5t-26.5 -43t-40.5 -29t-51.5 -10.5t-51 10.5t-40 29t-26.5 43t-9.5 52.5z" />
<glyph unicode="&#xcc;" horiz-adv-x="975" d="M87 2030h230l350 -430h-160zM140 0v145h240v1170h-240v145h675v-145h-245v-1170h245v-145h-675z" />
<glyph unicode="&#xcd;" horiz-adv-x="975" d="M140 0v145h240v1170h-240v145h675v-145h-245v-1170h245v-145h-675zM297 1600l350 430h230l-420 -430h-160z" />
<glyph unicode="&#xce;" horiz-adv-x="975" d="M52 1600l340 430h170l340 -430h-150l-275 280l-275 -280h-150zM140 0v145h240v1170h-240v145h675v-145h-245v-1170h245v-145h-675z" />
<glyph unicode="&#xcf;" horiz-adv-x="975" d="M140 0v145h240v1170h-240v145h675v-145h-245v-1170h245v-145h-675zM140 1775q0 28 9.5 52.5t26.5 43t40 29t51 10.5t51.5 -10.5t40.5 -29t26.5 -43t9.5 -52.5t-9.5 -52.5t-26.5 -43t-40.5 -29t-51.5 -10.5t-51 10.5t-40 29t-26.5 43t-9.5 52.5zM560 1775q0 28 9.5 52.5 t26.5 43t40 29t51 10.5t51.5 -10.5t40.5 -29t26.5 -43t9.5 -52.5t-9.5 -52.5t-26.5 -43t-40.5 -29t-51.5 -10.5t-51 10.5t-40 29t-26.5 43t-9.5 52.5z" />
<glyph unicode="&#xd0;" horiz-adv-x="1435" d="M0 690v145h175v308q0 70 -1.5 130.5t-4.5 108.5t-9 78q21 1 53.5 2.5t72 2.5t83 2t87 1.5t84.5 1t75 0.5q40 0 91.5 -4.5t108 -17.5t116 -36.5t115 -61.5t104.5 -92t85.5 -128t58 -170.5t21.5 -219.5q0 -149 -33 -262.5t-88.5 -196.5t-128.5 -139t-153 -90t-162 -48 t-155 -14q-24 0 -55.5 0.5t-66.5 1t-72 1.5t-72 2q-82 2 -169 5q6 30 8.5 77t4 106t2 128.5t0.5 143.5v235h-175zM365 165q35 -3 91.5 -6.5t128.5 -3.5q67 0 132.5 13t125 41.5t110.5 73.5t88 107.5t58 144.5t21 185q0 168 -42.5 281t-114.5 181.5t-168.5 98t-204.5 29.5 q-25 0 -56 -0.5t-62.5 -1.5t-59.5 -1.5t-47 -1.5v-470h380v-145h-380v-525z" />
<glyph unicode="&#xd1;" horiz-adv-x="1500" d="M160 0q11 60 13 173.5t2 261.5v590q0 148 -2 261.5t-13 173.5h180l795 -1157v1157h180q-5 -30 -8 -74t-4.5 -99.5t-2 -121.5t-0.5 -140v-1025h-165l-795 1152v-1152h-180zM382 1635q0 46 13.5 90.5t38 80t60 57.5t80.5 22q21 0 41 -4t40.5 -11.5t43 -17t48.5 -19.5 q27 -11 48.5 -20t40 -15t34.5 -9.5t32 -3.5q35 0 57.5 25t27.5 60h105q0 -48 -13.5 -93t-39 -80t-62.5 -56t-83 -21q-40 0 -80.5 13.5t-86.5 34.5q-58 27 -92.5 39.5t-62.5 12.5q-37 0 -59 -24t-26 -61h-105z" />
<glyph unicode="&#xd2;" horiz-adv-x="1460" d="M95 720q0 120 24.5 223t68 188t103.5 151t130.5 111t149 68.5t159.5 23.5q119 0 229.5 -49t195 -144t135 -233.5t50.5 -318.5t-53.5 -322t-142 -240.5t-201.5 -150.5t-233 -52q-121 0 -232 49t-196 144t-136 233.5t-51 318.5zM290 745q0 -137 30.5 -247t87 -187.5 t135.5 -119t177 -41.5q92 0 170 38.5t134.5 111t88.5 177.5t32 238q0 138 -30.5 248.5t-86.5 187.5t-134.5 118t-173.5 41t-174 -39.5t-136 -113t-88.5 -178t-31.5 -234.5zM327 2030h230l350 -430h-160z" />
<glyph unicode="&#xd3;" horiz-adv-x="1460" d="M95 720q0 120 24.5 223t68 188t103.5 151t130.5 111t149 68.5t159.5 23.5q119 0 229.5 -49t195 -144t135 -233.5t50.5 -318.5t-53.5 -322t-142 -240.5t-201.5 -150.5t-233 -52q-121 0 -232 49t-196 144t-136 233.5t-51 318.5zM290 745q0 -137 30.5 -247t87 -187.5 t135.5 -119t177 -41.5q92 0 170 38.5t134.5 111t88.5 177.5t32 238q0 138 -30.5 248.5t-86.5 187.5t-134.5 118t-173.5 41t-174 -39.5t-136 -113t-88.5 -178t-31.5 -234.5zM537 1600l350 430h230l-420 -430h-160z" />
<glyph unicode="&#xd4;" horiz-adv-x="1460" d="M95 720q0 120 24.5 223t68 188t103.5 151t130.5 111t149 68.5t159.5 23.5q119 0 229.5 -49t195 -144t135 -233.5t50.5 -318.5t-53.5 -322t-142 -240.5t-201.5 -150.5t-233 -52q-121 0 -232 49t-196 144t-136 233.5t-51 318.5zM290 745q0 -137 30.5 -247t87 -187.5 t135.5 -119t177 -41.5q92 0 170 38.5t134.5 111t88.5 177.5t32 238q0 138 -30.5 248.5t-86.5 187.5t-134.5 118t-173.5 41t-174 -39.5t-136 -113t-88.5 -178t-31.5 -234.5zM292 1600l340 430h170l340 -430h-150l-275 280l-275 -280h-150z" />
<glyph unicode="&#xd5;" horiz-adv-x="1460" d="M95 720q0 120 24.5 223t68 188t103.5 151t130.5 111t149 68.5t159.5 23.5q119 0 229.5 -49t195 -144t135 -233.5t50.5 -318.5t-53.5 -322t-142 -240.5t-201.5 -150.5t-233 -52q-121 0 -232 49t-196 144t-136 233.5t-51 318.5zM290 745q0 -137 30.5 -247t87 -187.5 t135.5 -119t177 -41.5q92 0 170 38.5t134.5 111t88.5 177.5t32 238q0 138 -30.5 248.5t-86.5 187.5t-134.5 118t-173.5 41t-174 -39.5t-136 -113t-88.5 -178t-31.5 -234.5zM362 1635q0 46 13.5 90.5t38 80t60 57.5t80.5 22q21 0 41 -4t40.5 -11.5t43 -17t48.5 -19.5 q27 -11 48.5 -20t40 -15t34.5 -9.5t32 -3.5q35 0 57.5 25t27.5 60h105q0 -48 -13.5 -93t-39 -80t-62.5 -56t-83 -21q-40 0 -80.5 13.5t-86.5 34.5q-58 27 -92.5 39.5t-62.5 12.5q-37 0 -59 -24t-26 -61h-105z" />
<glyph unicode="&#xd6;" horiz-adv-x="1460" d="M95 720q0 120 24.5 223t68 188t103.5 151t130.5 111t149 68.5t159.5 23.5q119 0 229.5 -49t195 -144t135 -233.5t50.5 -318.5t-53.5 -322t-142 -240.5t-201.5 -150.5t-233 -52q-121 0 -232 49t-196 144t-136 233.5t-51 318.5zM290 745q0 -137 30.5 -247t87 -187.5 t135.5 -119t177 -41.5q92 0 170 38.5t134.5 111t88.5 177.5t32 238q0 138 -30.5 248.5t-86.5 187.5t-134.5 118t-173.5 41t-174 -39.5t-136 -113t-88.5 -178t-31.5 -234.5zM380 1775q0 28 9.5 52.5t26.5 43t40 29t51 10.5t51.5 -10.5t40.5 -29t26.5 -43t9.5 -52.5 t-9.5 -52.5t-26.5 -43t-40.5 -29t-51.5 -10.5t-51 10.5t-40 29t-26.5 43t-9.5 52.5zM800 1775q0 28 9.5 52.5t26.5 43t40 29t51 10.5t51.5 -10.5t40.5 -29t26.5 -43t9.5 -52.5t-9.5 -52.5t-26.5 -43t-40.5 -29t-51.5 -10.5t-51 10.5t-40 29t-26.5 43t-9.5 52.5z" />
<glyph unicode="&#xd7;" horiz-adv-x="1200" d="M198 1021l106 106l298 -299l294 294l106 -106l-294 -294l289 -288l-106 -106l-289 288l-293 -293l-106 106l293 293z" />
<glyph unicode="&#xd8;" horiz-adv-x="1460" d="M95 720q0 120 24.5 223t68 188t103.5 151t130.5 111t149 68.5t159.5 23.5q71 0 138.5 -17.5t129.5 -51.5l62 114h146l-101 -189q52 -47 95.5 -108.5t74.5 -136.5t48 -164.5t17 -191.5q0 -180 -53.5 -322t-142 -240.5t-201.5 -150.5t-233 -52q-159 0 -296 82l-71 -132 h-148l115 213q-98 95 -156.5 241t-58.5 341zM290 745q0 -137 29.5 -245t85.5 -186l508 944q-86 52 -193 52q-95 0 -174 -39.5t-136 -113t-88.5 -178t-31.5 -234.5zM500 217q94 -67 220 -67q92 0 170 38.5t134.5 111t88.5 177.5t32 238q0 148 -34.5 262.5t-97.5 192.5z" />
<glyph unicode="&#xd9;" horiz-adv-x="1440" d="M160 1460h205v-900q0 -98 17 -176.5t57 -134t106 -85t165 -29.5q97 0 162 29.5t104.5 85t56.5 134t17 176.5v900h205q-10 -60 -12.5 -169.5t-2.5 -265.5v-510q0 -122 -32 -221.5t-97.5 -170.5t-165.5 -109.5t-235 -38.5q-137 0 -237.5 38.5t-166.5 109.5t-98.5 170.5 t-32.5 221.5v510q0 148 -2.5 261.5t-12.5 173.5zM317 2030h230l350 -430h-160z" />
<glyph unicode="&#xda;" horiz-adv-x="1440" d="M160 1460h205v-900q0 -98 17 -176.5t57 -134t106 -85t165 -29.5q97 0 162 29.5t104.5 85t56.5 134t17 176.5v900h205q-10 -60 -12.5 -169.5t-2.5 -265.5v-510q0 -122 -32 -221.5t-97.5 -170.5t-165.5 -109.5t-235 -38.5q-137 0 -237.5 38.5t-166.5 109.5t-98.5 170.5 t-32.5 221.5v510q0 148 -2.5 261.5t-12.5 173.5zM527 1600l350 430h230l-420 -430h-160z" />
<glyph unicode="&#xdb;" horiz-adv-x="1440" d="M160 1460h205v-900q0 -98 17 -176.5t57 -134t106 -85t165 -29.5q97 0 162 29.5t104.5 85t56.5 134t17 176.5v900h205q-10 -60 -12.5 -169.5t-2.5 -265.5v-510q0 -122 -32 -221.5t-97.5 -170.5t-165.5 -109.5t-235 -38.5q-137 0 -237.5 38.5t-166.5 109.5t-98.5 170.5 t-32.5 221.5v510q0 148 -2.5 261.5t-12.5 173.5zM282 1600l340 430h170l340 -430h-150l-275 280l-275 -280h-150z" />
<glyph unicode="&#xdc;" horiz-adv-x="1440" d="M160 1460h205v-900q0 -98 17 -176.5t57 -134t106 -85t165 -29.5q97 0 162 29.5t104.5 85t56.5 134t17 176.5v900h205q-10 -60 -12.5 -169.5t-2.5 -265.5v-510q0 -122 -32 -221.5t-97.5 -170.5t-165.5 -109.5t-235 -38.5q-137 0 -237.5 38.5t-166.5 109.5t-98.5 170.5 t-32.5 221.5v510q0 148 -2.5 261.5t-12.5 173.5zM370 1775q0 28 9.5 52.5t26.5 43t40 29t51 10.5t51.5 -10.5t40.5 -29t26.5 -43t9.5 -52.5t-9.5 -52.5t-26.5 -43t-40.5 -29t-51.5 -10.5t-51 10.5t-40 29t-26.5 43t-9.5 52.5zM790 1775q0 28 9.5 52.5t26.5 43t40 29t51 10.5 t51.5 -10.5t40.5 -29t26.5 -43t9.5 -52.5t-9.5 -52.5t-26.5 -43t-40.5 -29t-51.5 -10.5t-51 10.5t-40 29t-26.5 43t-9.5 52.5z" />
<glyph unicode="&#xdd;" horiz-adv-x="1320" d="M35 1460h230l395 -661l375 661h230q-44 -63 -78 -114.5t-62.5 -97.5t-55 -90t-54.5 -93l-270 -462v-168q0 -148 2 -261.5t13 -173.5h-220q11 60 13 173.5t2 261.5v176l-265 454q-29 49 -56.5 96t-57.5 95t-64.5 98t-76.5 106zM470 1600l350 430h230l-420 -430h-160z" />
<glyph unicode="&#xde;" horiz-adv-x="1196" d="M160 0q11 60 13 173.5t2 261.5v708q0 70 -1.5 130.5t-4.5 108.5t-9 78h205v-263q51 1 106 2t115 1q121 0 219 -27.5t167 -83t106.5 -138t37.5 -191.5q0 -110 -36.5 -198t-105 -149.5t-167 -94.5t-221.5 -33q-55 0 -113.5 2.5t-107.5 7.5q0 -62 2 -118q1 -24 2 -49 t2.5 -48.5t3.5 -44t5 -35.5h-220zM365 450q48 -6 98 -8t107 -2q105 0 173.5 24t109 65.5t56.5 96t16 114.5t-17.5 114.5t-58 95.5t-107.5 65.5t-167 24.5q-35 0 -63 -0.5t-52 -1t-47 -1.5t-48 -2v-585z" />
<glyph unicode="&#xdf;" horiz-adv-x="1238" d="M130 0q8 39 14 94t9.5 119.5t5 136t1.5 144.5v626q0 135 39 230t103 155t147 87.5t170 27.5q115 0 202 -28.5t145.5 -75.5t87.5 -107.5t29 -124.5q0 -80 -24 -131.5t-59.5 -85.5t-77 -56.5t-77 -44.5t-59.5 -49.5t-24 -71.5q0 -39 17.5 -66t44.5 -48t61 -38.5t67 -36.5 q38 -23 79 -52t74.5 -68.5t55.5 -90.5t22 -117q0 -83 -29 -148.5t-81 -111t-123.5 -69.5t-156.5 -24q-36 0 -74.5 6.5t-73.5 16.5t-65 23t-49 27l50 180q18 -18 42.5 -35t52.5 -29.5t58 -20.5t59 -8q46 0 85.5 12.5t68 36t44.5 57.5t16 78q0 34 -14 63.5t-38 55.5t-56 47.5 t-67 39.5q-44 22 -88.5 50.5t-80.5 67t-58.5 88t-22.5 114.5q0 62 23.5 104t59 72t76.5 53.5t76.5 49t59 58.5t23.5 82q0 43 -22.5 79t-58 62t-79 40.5t-85.5 14.5q-52 0 -107 -15t-100 -50t-74 -92.5t-29 -142.5v-1160h-215z" />
<glyph unicode="&#xe0;" d="M95 255q0 57 19 115.5t65 108t123 85t193 46.5q26 3 65.5 6.5t80 7.5t75 7t49.5 4v75q0 91 -63.5 130.5t-176.5 39.5q-80 0 -158.5 -31.5t-166.5 -93.5q0 16 1 42.5t2 55t3 55t4 42.5q39 16 78.5 32.5t83 29t92.5 20.5t106 8q86 0 156.5 -21.5t120 -59t76.5 -88.5 t27 -111v-390q0 -108 21 -197t54 -173h-180q-9 24 -24 65.5t-26 89.5q-89 -95 -185 -137.5t-190 -42.5q-71 0 -130.5 23t-102.5 61.5t-67.5 89t-24.5 106.5zM150 1600h230l350 -430h-160zM280 280q0 -30 12.5 -55.5t35 -44t53.5 -29.5t69 -11t75 6.5t75.5 26t79 56 t85.5 96.5v170q-19 -1 -53 -4t-72 -6.5t-74.5 -7.5t-60.5 -7q-64 -8 -107 -25.5t-69.5 -42.5t-37.5 -56.5t-11 -65.5z" />
<glyph unicode="&#xe1;" d="M95 255q0 57 19 115.5t65 108t123 85t193 46.5q26 3 65.5 6.5t80 7.5t75 7t49.5 4v75q0 91 -63.5 130.5t-176.5 39.5q-80 0 -158.5 -31.5t-166.5 -93.5q0 16 1 42.5t2 55t3 55t4 42.5q39 16 78.5 32.5t83 29t92.5 20.5t106 8q86 0 156.5 -21.5t120 -59t76.5 -88.5 t27 -111v-390q0 -108 21 -197t54 -173h-180q-9 24 -24 65.5t-26 89.5q-89 -95 -185 -137.5t-190 -42.5q-71 0 -130.5 23t-102.5 61.5t-67.5 89t-24.5 106.5zM280 280q0 -30 12.5 -55.5t35 -44t53.5 -29.5t69 -11t75 6.5t75.5 26t79 56t85.5 96.5v170q-19 -1 -53 -4t-72 -6.5 t-74.5 -7.5t-60.5 -7q-64 -8 -107 -25.5t-69.5 -42.5t-37.5 -56.5t-11 -65.5zM360 1170l350 430h230l-420 -430h-160z" />
<glyph unicode="&#xe2;" d="M95 255q0 57 19 115.5t65 108t123 85t193 46.5q26 3 65.5 6.5t80 7.5t75 7t49.5 4v75q0 91 -63.5 130.5t-176.5 39.5q-80 0 -158.5 -31.5t-166.5 -93.5q0 16 1 42.5t2 55t3 55t4 42.5q39 16 78.5 32.5t83 29t92.5 20.5t106 8q86 0 156.5 -21.5t120 -59t76.5 -88.5 t27 -111v-390q0 -108 21 -197t54 -173h-180q-9 24 -24 65.5t-26 89.5q-89 -95 -185 -137.5t-190 -42.5q-71 0 -130.5 23t-102.5 61.5t-67.5 89t-24.5 106.5zM115 1170l340 430h170l340 -430h-150l-275 280l-275 -280h-150zM280 280q0 -30 12.5 -55.5t35 -44t53.5 -29.5 t69 -11t75 6.5t75.5 26t79 56t85.5 96.5v170q-19 -1 -53 -4t-72 -6.5t-74.5 -7.5t-60.5 -7q-64 -8 -107 -25.5t-69.5 -42.5t-37.5 -56.5t-11 -65.5z" />
<glyph unicode="&#xe3;" d="M95 255q0 57 19 115.5t65 108t123 85t193 46.5q26 3 65.5 6.5t80 7.5t75 7t49.5 4v75q0 91 -63.5 130.5t-176.5 39.5q-80 0 -158.5 -31.5t-166.5 -93.5q0 16 1 42.5t2 55t3 55t4 42.5q39 16 78.5 32.5t83 29t92.5 20.5t106 8q86 0 156.5 -21.5t120 -59t76.5 -88.5 t27 -111v-390q0 -108 21 -197t54 -173h-180q-9 24 -24 65.5t-26 89.5q-89 -95 -185 -137.5t-190 -42.5q-71 0 -130.5 23t-102.5 61.5t-67.5 89t-24.5 106.5zM185 1205q0 46 13.5 90.5t38 80t60 57.5t80.5 22q21 0 41 -4t40.5 -11.5t43 -17t48.5 -19.5q27 -11 48.5 -20 t40 -15t34.5 -9.5t32 -3.5q35 0 57.5 25t27.5 60h105q0 -48 -13.5 -93t-39 -80t-62.5 -56t-83 -21q-40 0 -80.5 13.5t-86.5 34.5q-58 27 -92.5 39.5t-62.5 12.5q-37 0 -59 -24t-26 -61h-105zM280 280q0 -30 12.5 -55.5t35 -44t53.5 -29.5t69 -11t75 6.5t75.5 26t79 56 t85.5 96.5v170q-19 -1 -53 -4t-72 -6.5t-74.5 -7.5t-60.5 -7q-64 -8 -107 -25.5t-69.5 -42.5t-37.5 -56.5t-11 -65.5z" />
<glyph unicode="&#xe4;" d="M95 255q0 57 19 115.5t65 108t123 85t193 46.5q26 3 65.5 6.5t80 7.5t75 7t49.5 4v75q0 91 -63.5 130.5t-176.5 39.5q-80 0 -158.5 -31.5t-166.5 -93.5q0 16 1 42.5t2 55t3 55t4 42.5q39 16 78.5 32.5t83 29t92.5 20.5t106 8q86 0 156.5 -21.5t120 -59t76.5 -88.5 t27 -111v-390q0 -108 21 -197t54 -173h-180q-9 24 -24 65.5t-26 89.5q-89 -95 -185 -137.5t-190 -42.5q-71 0 -130.5 23t-102.5 61.5t-67.5 89t-24.5 106.5zM203 1345q0 28 9.5 52.5t26.5 43t40 29t51 10.5t51.5 -10.5t40.5 -29t26.5 -43t9.5 -52.5t-9.5 -52.5t-26.5 -43 t-40.5 -29t-51.5 -10.5t-51 10.5t-40 29t-26.5 43t-9.5 52.5zM280 280q0 -30 12.5 -55.5t35 -44t53.5 -29.5t69 -11t75 6.5t75.5 26t79 56t85.5 96.5v170q-19 -1 -53 -4t-72 -6.5t-74.5 -7.5t-60.5 -7q-64 -8 -107 -25.5t-69.5 -42.5t-37.5 -56.5t-11 -65.5zM623 1345 q0 28 9.5 52.5t26.5 43t40 29t51 10.5t51.5 -10.5t40.5 -29t26.5 -43t9.5 -52.5t-9.5 -52.5t-26.5 -43t-40.5 -29t-51.5 -10.5t-51 10.5t-40 29t-26.5 43t-9.5 52.5z" />
<glyph unicode="&#xe5;" d="M95 255q0 57 19 115.5t65 108t123 85t193 46.5q26 3 65.5 6.5t80 7.5t75 7t49.5 4v75q0 91 -63.5 130.5t-176.5 39.5q-80 0 -158.5 -31.5t-166.5 -93.5q0 16 1 42.5t2 55t3 55t4 42.5q39 16 78.5 32.5t83 29t92.5 20.5t106 8q86 0 156.5 -21.5t120 -59t76.5 -88.5 t27 -111v-390q0 -108 21 -197t54 -173h-180q-9 24 -24 65.5t-26 89.5q-89 -95 -185 -137.5t-190 -42.5q-71 0 -130.5 23t-102.5 61.5t-67.5 89t-24.5 106.5zM280 280q0 -30 12.5 -55.5t35 -44t53.5 -29.5t69 -11t75 6.5t75.5 26t79 56t85.5 96.5v170q-19 -1 -53 -4t-72 -6.5 t-74.5 -7.5t-60.5 -7q-64 -8 -107 -25.5t-69.5 -42.5t-37.5 -56.5t-11 -65.5zM325 1385q0 45 16.5 84t46 68.5t68.5 46t84 16.5t84 -16.5t68.5 -46t46 -68.5t16.5 -84t-16.5 -84t-46 -68.5t-68.5 -46t-84 -16.5t-84 16.5t-68.5 46t-46 68.5t-16.5 84zM440 1385 q0 -45 27.5 -72.5t72.5 -27.5t72.5 27.5t27.5 72.5t-27.5 72.5t-72.5 27.5t-72.5 -27.5t-27.5 -72.5z" />
<glyph unicode="&#xe6;" horiz-adv-x="1745" d="M95 255q0 57 19 114t64 105.5t120 84.5t187 51q26 3 65.5 5.5t80 4t75 3t49.5 2.5v85q0 45 -19.5 77.5t-54 53t-82.5 30t-104 9.5q-40 0 -74.5 -8t-69 -24t-71 -39t-80.5 -54q0 16 1 42.5t2 55t3 55t4 42.5q39 16 74 32.5t73 29t82 20.5t101 8q51 0 100.5 -11t94 -32.5 t82 -54.5t63.5 -77q68 83 162 129t203 46q77 0 136.5 -19.5t103.5 -53.5t73.5 -80t48 -99t26 -110t7.5 -113v-80h-710q3 -88 29.5 -153t70.5 -107.5t103 -63.5t127 -21q48 0 94 5t91 17t89.5 31t90.5 47l20 -165q-53 -27 -102 -46t-98.5 -31t-100.5 -17.5t-109 -5.5 q-62 0 -120.5 14t-111 41.5t-96.5 69t-77 96.5q-11 -13 -22.5 -25.5t-22.5 -25.5q-44 -47 -89.5 -79.5t-91 -52.5t-92 -29t-92.5 -9q-71 0 -130.5 23t-102.5 61.5t-67.5 89t-24.5 106.5zM280 280q0 -30 12.5 -55.5t35 -44t53.5 -29.5t69 -11t75 6.5t74 26t75.5 56t80.5 96.5 q5 6 9 11.5t6 13.5q-7 31 -11 65t-4 70q-19 -1 -53 -2t-72 -2.5t-74.5 -4t-60.5 -6.5q-63 -11 -104 -29.5t-66 -42.5t-35 -54t-10 -64zM940 625h520q0 64 -18.5 113.5t-50 83.5t-73 51t-88.5 17q-110 0 -187.5 -64.5t-102.5 -200.5z" />
<glyph unicode="&#xe7;" horiz-adv-x="1020" d="M95 490q0 113 36.5 213t104 175t164 118.5t215.5 43.5q100 0 172.5 -23.5t127.5 -61.5l-35 -180q-68 50 -135 75t-145 25q-67 0 -124.5 -25.5t-100 -73.5t-66.5 -118t-24 -158q0 -81 22 -147t63 -113.5t99 -73.5t131 -26q91 0 165 31t140 89l20 -175q-38 -29 -75.5 -49.5 t-78.5 -34t-88 -20t-103 -6.5q-5 0 -10 0.5t-10 0.5v-71q10 2 20.5 3.5t27.5 1.5q34 0 63 -12.5t50 -35t32.5 -54t11.5 -68.5q0 -51 -23 -92t-60 -69.5t-82 -43.5t-90 -15q-39 0 -71.5 11.5t-63.5 28.5l10 100q22 -16 45 -23t55 -7q22 0 45.5 5t43 17t32.5 31t14 47 q-1 39 -28.5 64.5t-68.5 25.5q-24 0 -48 -7.5t-40 -17.5v201q-74 21 -136.5 64.5t-107.5 106.5t-70.5 144.5t-25.5 178.5z" />
<glyph unicode="&#xe8;" horiz-adv-x="1095" d="M95 495q0 124 33.5 224.5t95.5 172t151 110t200 38.5q82 0 145 -19.5t109 -54t77 -80.5t49.5 -99t26.5 -110.5t8 -113.5v-39q0 -25 -1 -39h-709q3 -88 27.5 -153t67 -107.5t100 -63.5t125.5 -21q97 0 190 22t185 78l20 -165q-53 -27 -104 -46t-102 -31t-103.5 -17.5 t-110.5 -5.5q-96 0 -183 33.5t-153 99t-105 162.5t-39 225zM179 1600h230l350 -430h-160zM288 625h522q0 64 -18.5 113.5t-52 83.5t-79.5 51t-100 17q-110 0 -180 -64.5t-92 -200.5z" />
<glyph unicode="&#xe9;" horiz-adv-x="1095" d="M95 495q0 124 33.5 224.5t95.5 172t151 110t200 38.5q82 0 145 -19.5t109 -54t77 -80.5t49.5 -99t26.5 -110.5t8 -113.5v-39q0 -25 -1 -39h-709q3 -88 27.5 -153t67 -107.5t100 -63.5t125.5 -21q97 0 190 22t185 78l20 -165q-53 -27 -104 -46t-102 -31t-103.5 -17.5 t-110.5 -5.5q-96 0 -183 33.5t-153 99t-105 162.5t-39 225zM288 625h522q0 64 -18.5 113.5t-52 83.5t-79.5 51t-100 17q-110 0 -180 -64.5t-92 -200.5zM389 1170l350 430h230l-420 -430h-160z" />
<glyph unicode="&#xea;" horiz-adv-x="1095" d="M95 495q0 124 33.5 224.5t95.5 172t151 110t200 38.5q82 0 145 -19.5t109 -54t77 -80.5t49.5 -99t26.5 -110.5t8 -113.5v-39q0 -25 -1 -39h-709q3 -88 27.5 -153t67 -107.5t100 -63.5t125.5 -21q97 0 190 22t185 78l20 -165q-53 -27 -104 -46t-102 -31t-103.5 -17.5 t-110.5 -5.5q-96 0 -183 33.5t-153 99t-105 162.5t-39 225zM144 1170l340 430h170l340 -430h-150l-275 280l-275 -280h-150zM288 625h522q0 64 -18.5 113.5t-52 83.5t-79.5 51t-100 17q-110 0 -180 -64.5t-92 -200.5z" />
<glyph unicode="&#xeb;" horiz-adv-x="1095" d="M95 495q0 124 33.5 224.5t95.5 172t151 110t200 38.5q82 0 145 -19.5t109 -54t77 -80.5t49.5 -99t26.5 -110.5t8 -113.5v-39q0 -25 -1 -39h-709q3 -88 27.5 -153t67 -107.5t100 -63.5t125.5 -21q97 0 190 22t185 78l20 -165q-53 -27 -104 -46t-102 -31t-103.5 -17.5 t-110.5 -5.5q-96 0 -183 33.5t-153 99t-105 162.5t-39 225zM232 1345q0 28 9.5 52.5t26.5 43t40 29t51 10.5t51.5 -10.5t40.5 -29t26.5 -43t9.5 -52.5t-9.5 -52.5t-26.5 -43t-40.5 -29t-51.5 -10.5t-51 10.5t-40 29t-26.5 43t-9.5 52.5zM288 625h522q0 64 -18.5 113.5 t-52 83.5t-79.5 51t-100 17q-110 0 -180 -64.5t-92 -200.5zM652 1345q0 28 9.5 52.5t26.5 43t40 29t51 10.5t51.5 -10.5t40.5 -29t26.5 -43t9.5 -52.5t-9.5 -52.5t-26.5 -43t-40.5 -29t-51.5 -10.5t-51 10.5t-40 29t-26.5 43t-9.5 52.5z" />
<glyph unicode="&#xec;" horiz-adv-x="530" d="M-125 1600h230l350 -430h-160zM155 1020h200v-545q0 -48 1.5 -113.5t4 -132.5t6 -128t8.5 -101h-205v530q0 73 -0.5 144t-2 134.5t-4.5 118t-8 93.5z" />
<glyph unicode="&#xed;" horiz-adv-x="530" d="M85 1170l350 430h230l-420 -430h-160zM155 1020h200v-545q0 -48 1.5 -113.5t4 -132.5t6 -128t8.5 -101h-205v530q0 73 -0.5 144t-2 134.5t-4.5 118t-8 93.5z" />
<glyph unicode="&#xee;" horiz-adv-x="530" d="M-160 1170l340 430h170l340 -430h-150l-275 280l-275 -280h-150zM155 1020h200v-545q0 -48 1.5 -113.5t4 -132.5t6 -128t8.5 -101h-205v530q0 73 -0.5 144t-2 134.5t-4.5 118t-8 93.5z" />
<glyph unicode="&#xef;" horiz-adv-x="530" d="M-72 1345q0 28 9.5 52.5t26.5 43t40 29t51 10.5t51.5 -10.5t40.5 -29t26.5 -43t9.5 -52.5t-9.5 -52.5t-26.5 -43t-40.5 -29t-51.5 -10.5t-51 10.5t-40 29t-26.5 43t-9.5 52.5zM155 1020h200v-545q0 -48 1.5 -113.5t4 -132.5t6 -128t8.5 -101h-205v530q0 73 -0.5 144 t-2 134.5t-4.5 118t-8 93.5zM348 1345q0 28 9.5 52.5t26.5 43t40 29t51 10.5t51.5 -10.5t40.5 -29t26.5 -43t9.5 -52.5t-9.5 -52.5t-26.5 -43t-40.5 -29t-51.5 -10.5t-51 10.5t-40 29t-26.5 43t-9.5 52.5z" />
<glyph unicode="&#xf0;" horiz-adv-x="1160" d="M95 487q0 81 18.5 150.5t50 126.5t73.5 101t90 74t99 45.5t100 15.5q60 0 105.5 -8.5t83 -25t70 -41.5t67.5 -57q-31 102 -87 203t-128 192l-233 -145l-83 108l225 139q-54 54 -111.5 96.5t-115.5 70.5l174 88q51 -31 100.5 -72.5t97.5 -92.5l220 136l85 -105l-217 -135 q58 -76 108 -164t86 -183t56.5 -195.5t20.5 -202.5q0 -158 -33.5 -276.5t-96.5 -197t-154 -118t-206 -39.5q-103 0 -188.5 33t-147 97.5t-95.5 160.5t-34 221zM280 487q0 -84 21 -149.5t59.5 -110.5t91.5 -68.5t118 -23.5q68 0 121.5 25t91 71t57.5 111t20 145 q0 84 -21 149.5t-59.5 111t-92 69t-117.5 23.5q-68 0 -122 -25t-91.5 -71t-57 -111.5t-19.5 -145.5z" />
<glyph unicode="&#xf1;" horiz-adv-x="1185" d="M104 1020h180q6 -16 12 -41.5t11 -53.5t9 -55l8 -45q95 114 192 164.5t203 50.5q160 0 245 -104.5t85 -310.5v-625h-185v550q0 94 -12.5 155t-37 96.5t-62 49.5t-88.5 14q-54 0 -105.5 -25.5t-94.5 -66t-76 -91.5t-49 -102v-580h-185v615q0 148 -16.5 250.5t-33.5 154.5z M244 1205q0 46 13.5 90.5t38 80t60 57.5t80.5 22q21 0 41 -4t40.5 -11.5t43 -17t48.5 -19.5q27 -11 48.5 -20t40 -15t34.5 -9.5t32 -3.5q35 0 57.5 25t27.5 60h105q0 -48 -13.5 -93t-39 -80t-62.5 -56t-83 -21q-40 0 -80.5 13.5t-86.5 34.5q-58 27 -92.5 39.5t-62.5 12.5 q-37 0 -59 -24t-26 -61h-105z" />
<glyph unicode="&#xf2;" horiz-adv-x="1140" d="M95 505q0 129 39 228.5t105 168t154 103.5t187 35q103 0 188.5 -35t147 -103.5t95.5 -168t34 -228.5t-39 -228t-105 -166t-154 -101.5t-187 -34.5q-103 0 -188.5 34.5t-147 101.5t-95.5 166t-34 228zM180 1600h230l350 -430h-160zM280 505q0 -87 21 -156t59.5 -116.5 t91.5 -72.5t118 -25q60 0 113 25t92.5 72.5t62 116.5t22.5 156q0 88 -21 157.5t-59.5 118t-92 74t-117.5 25.5q-61 0 -114 -25.5t-92 -74t-61.5 -118t-22.5 -157.5z" />
<glyph unicode="&#xf3;" horiz-adv-x="1140" d="M95 505q0 129 39 228.5t105 168t154 103.5t187 35q103 0 188.5 -35t147 -103.5t95.5 -168t34 -228.5t-39 -228t-105 -166t-154 -101.5t-187 -34.5q-103 0 -188.5 34.5t-147 101.5t-95.5 166t-34 228zM280 505q0 -87 21 -156t59.5 -116.5t91.5 -72.5t118 -25q60 0 113 25 t92.5 72.5t62 116.5t22.5 156q0 88 -21 157.5t-59.5 118t-92 74t-117.5 25.5q-61 0 -114 -25.5t-92 -74t-61.5 -118t-22.5 -157.5zM390 1170l350 430h230l-420 -430h-160z" />
<glyph unicode="&#xf4;" horiz-adv-x="1140" d="M95 505q0 129 39 228.5t105 168t154 103.5t187 35q103 0 188.5 -35t147 -103.5t95.5 -168t34 -228.5t-39 -228t-105 -166t-154 -101.5t-187 -34.5q-103 0 -188.5 34.5t-147 101.5t-95.5 166t-34 228zM145 1170l340 430h170l340 -430h-150l-275 280l-275 -280h-150z M280 505q0 -87 21 -156t59.5 -116.5t91.5 -72.5t118 -25q60 0 113 25t92.5 72.5t62 116.5t22.5 156q0 88 -21 157.5t-59.5 118t-92 74t-117.5 25.5q-61 0 -114 -25.5t-92 -74t-61.5 -118t-22.5 -157.5z" />
<glyph unicode="&#xf5;" horiz-adv-x="1140" d="M95 505q0 129 39 228.5t105 168t154 103.5t187 35q103 0 188.5 -35t147 -103.5t95.5 -168t34 -228.5t-39 -228t-105 -166t-154 -101.5t-187 -34.5q-103 0 -188.5 34.5t-147 101.5t-95.5 166t-34 228zM215 1205q0 46 13.5 90.5t38 80t60 57.5t80.5 22q21 0 41 -4 t40.5 -11.5t43 -17t48.5 -19.5q27 -11 48.5 -20t40 -15t34.5 -9.5t32 -3.5q35 0 57.5 25t27.5 60h105q0 -48 -13.5 -93t-39 -80t-62.5 -56t-83 -21q-40 0 -80.5 13.5t-86.5 34.5q-58 27 -92.5 39.5t-62.5 12.5q-37 0 -59 -24t-26 -61h-105zM280 505q0 -87 21 -156 t59.5 -116.5t91.5 -72.5t118 -25q60 0 113 25t92.5 72.5t62 116.5t22.5 156q0 88 -21 157.5t-59.5 118t-92 74t-117.5 25.5q-61 0 -114 -25.5t-92 -74t-61.5 -118t-22.5 -157.5z" />
<glyph unicode="&#xf6;" horiz-adv-x="1140" d="M95 505q0 129 39 228.5t105 168t154 103.5t187 35q103 0 188.5 -35t147 -103.5t95.5 -168t34 -228.5t-39 -228t-105 -166t-154 -101.5t-187 -34.5q-103 0 -188.5 34.5t-147 101.5t-95.5 166t-34 228zM233 1345q0 28 9.5 52.5t26.5 43t40 29t51 10.5t51.5 -10.5t40.5 -29 t26.5 -43t9.5 -52.5t-9.5 -52.5t-26.5 -43t-40.5 -29t-51.5 -10.5t-51 10.5t-40 29t-26.5 43t-9.5 52.5zM280 505q0 -87 21 -156t59.5 -116.5t91.5 -72.5t118 -25q60 0 113 25t92.5 72.5t62 116.5t22.5 156q0 88 -21 157.5t-59.5 118t-92 74t-117.5 25.5q-61 0 -114 -25.5 t-92 -74t-61.5 -118t-22.5 -157.5zM653 1345q0 28 9.5 52.5t26.5 43t40 29t51 10.5t51.5 -10.5t40.5 -29t26.5 -43t9.5 -52.5t-9.5 -52.5t-26.5 -43t-40.5 -29t-51.5 -10.5t-51 10.5t-40 29t-26.5 43t-9.5 52.5z" />
<glyph unicode="&#xf7;" horiz-adv-x="1200" d="M155 650v150h890v-150h-890zM458 407q0 28 11.5 53.5t31 44t45 29.5t54.5 11q28 0 53 -11t44 -29.5t29.5 -44t10.5 -53.5q0 -29 -10.5 -54t-29.5 -44.5t-44 -30.5t-53 -11q-29 0 -54.5 11t-45 30.5t-31 44.5t-11.5 54zM458 1045q0 28 11.5 53.5t31 44.5t45 30t54.5 11 q28 0 53 -11t44 -30t29.5 -44.5t10.5 -53.5q0 -29 -10.5 -54t-29.5 -44t-44 -30t-53 -11q-29 0 -54.5 11t-45 30t-31 44t-11.5 54z" />
<glyph unicode="&#xf8;" horiz-adv-x="1140" d="M95 507q0 129 39 228.5t105 167t154 102.5t187 35q92 0 171 -29l51 94h146l-84 -155q85 -66 133 -177t48 -266q0 -129 -39 -228.5t-105 -167t-154 -102t-187 -34.5q-55 0 -104.5 10t-94.5 29l-48 -89h-148l86 160q-74 68 -115 173.5t-41 248.5zM280 507 q0 -78 16.5 -140.5t47.5 -110.5l326 606q-47 18 -100 18q-61 0 -114 -25.5t-92 -73.5t-61.5 -117t-22.5 -157zM442 165q55 -30 128 -30q60 0 113 25.5t92.5 73.5t62 117t22.5 156q0 90 -22 160t-62 118z" />
<glyph unicode="&#xf9;" horiz-adv-x="1185" d="M135 1020h205v-555q0 -85 8.5 -146.5t28.5 -101t52.5 -58.5t80.5 -19q44 0 94 26.5t95.5 67.5t83 90.5t57.5 95.5v280q0 49 -0.5 88.5t-2.5 75.5t-6 73t-11 83h205v-570q0 -146 16.5 -255.5t48.5 -194.5h-170q-7 17 -15 40t-15.5 49t-14 54.5t-10.5 56.5 q-91 -111 -187.5 -168t-202.5 -57q-320 0 -320 430v295q0 48 -0.5 87t-2.5 75.5t-6 74.5t-11 83zM199 1600h230l350 -430h-160z" />
<glyph unicode="&#xfa;" horiz-adv-x="1185" d="M135 1020h205v-555q0 -85 8.5 -146.5t28.5 -101t52.5 -58.5t80.5 -19q44 0 94 26.5t95.5 67.5t83 90.5t57.5 95.5v280q0 49 -0.5 88.5t-2.5 75.5t-6 73t-11 83h205v-570q0 -146 16.5 -255.5t48.5 -194.5h-170q-7 17 -15 40t-15.5 49t-14 54.5t-10.5 56.5 q-91 -111 -187.5 -168t-202.5 -57q-320 0 -320 430v295q0 48 -0.5 87t-2.5 75.5t-6 74.5t-11 83zM409 1170l350 430h230l-420 -430h-160z" />
<glyph unicode="&#xfb;" horiz-adv-x="1185" d="M135 1020h205v-555q0 -85 8.5 -146.5t28.5 -101t52.5 -58.5t80.5 -19q44 0 94 26.5t95.5 67.5t83 90.5t57.5 95.5v280q0 49 -0.5 88.5t-2.5 75.5t-6 73t-11 83h205v-570q0 -146 16.5 -255.5t48.5 -194.5h-170q-7 17 -15 40t-15.5 49t-14 54.5t-10.5 56.5 q-91 -111 -187.5 -168t-202.5 -57q-320 0 -320 430v295q0 48 -0.5 87t-2.5 75.5t-6 74.5t-11 83zM164 1170l340 430h170l340 -430h-150l-275 280l-275 -280h-150z" />
<glyph unicode="&#xfc;" horiz-adv-x="1185" d="M135 1020h205v-555q0 -85 8.5 -146.5t28.5 -101t52.5 -58.5t80.5 -19q44 0 94 26.5t95.5 67.5t83 90.5t57.5 95.5v280q0 49 -0.5 88.5t-2.5 75.5t-6 73t-11 83h205v-570q0 -146 16.5 -255.5t48.5 -194.5h-170q-7 17 -15 40t-15.5 49t-14 54.5t-10.5 56.5 q-91 -111 -187.5 -168t-202.5 -57q-320 0 -320 430v295q0 48 -0.5 87t-2.5 75.5t-6 74.5t-11 83zM252 1345q0 28 9.5 52.5t26.5 43t40 29t51 10.5t51.5 -10.5t40.5 -29t26.5 -43t9.5 -52.5t-9.5 -52.5t-26.5 -43t-40.5 -29t-51.5 -10.5t-51 10.5t-40 29t-26.5 43t-9.5 52.5z M672 1345q0 28 9.5 52.5t26.5 43t40 29t51 10.5t51.5 -10.5t40.5 -29t26.5 -43t9.5 -52.5t-9.5 -52.5t-26.5 -43t-40.5 -29t-51.5 -10.5t-51 10.5t-40 29t-26.5 43t-9.5 52.5z" />
<glyph unicode="&#xfd;" horiz-adv-x="1060" d="M-20 -385l60 160q16 -13 37.5 -26.5t46 -24t50.5 -17.5t51 -7q30 0 59 10.5t58.5 40t60.5 83t66 140.5l-279 691q-28 68 -65 153t-95 202h200l323 -817q19 54 41.5 117.5t46.5 131t48 136t46 131.5q52 148 105 301h200q-26 -58 -47 -107.5t-39 -93t-32.5 -81.5t-26.5 -73 l-240 -665q-52 -144 -102 -235t-101.5 -143.5t-107 -72t-119.5 -19.5q-69 0 -129.5 22t-115.5 63zM355 1170l350 430h230l-420 -430h-160z" />
<glyph unicode="&#xfe;" horiz-adv-x="1170" d="M135 1600h205v-751q29 37 67 71.5t83.5 61t97 42.5t107.5 16q85 0 155.5 -37.5t120 -105t77 -160t27.5 -202.5q0 -128 -36 -231.5t-97.5 -176.5t-144.5 -112.5t-177 -39.5q-40 0 -75.5 8t-69 22t-66.5 34.5t-69 45.5v-235q0 -60 1.5 -108.5t4.5 -89.5t8 -75.5t11 -66.5 h-210v1620q0 146 -5 264.5t-15 205.5zM340 260q51 -36 88.5 -59.5t68.5 -37t59.5 -18.5t63.5 -5q53 0 101.5 25t86 72.5t60 115t22.5 152.5q0 83 -15.5 150.5t-45.5 115t-72.5 73.5t-96.5 26q-43 0 -88 -19t-87.5 -56t-79.5 -92.5t-65 -127.5v-315z" />
<glyph unicode="&#xff;" horiz-adv-x="1060" d="M-20 -385l60 160q16 -13 37.5 -26.5t46 -24t50.5 -17.5t51 -7q30 0 59 10.5t58.5 40t60.5 83t66 140.5l-279 691q-28 68 -65 153t-95 202h200l323 -817q19 54 41.5 117.5t46.5 131t48 136t46 131.5q52 148 105 301h200q-26 -58 -47 -107.5t-39 -93t-32.5 -81.5t-26.5 -73 l-240 -665q-52 -144 -102 -235t-101.5 -143.5t-107 -72t-119.5 -19.5q-69 0 -129.5 22t-115.5 63zM198 1345q0 28 9.5 52.5t26.5 43t40 29t51 10.5t51.5 -10.5t40.5 -29t26.5 -43t9.5 -52.5t-9.5 -52.5t-26.5 -43t-40.5 -29t-51.5 -10.5t-51 10.5t-40 29t-26.5 43t-9.5 52.5 zM618 1345q0 28 9.5 52.5t26.5 43t40 29t51 10.5t51.5 -10.5t40.5 -29t26.5 -43t9.5 -52.5t-9.5 -52.5t-26.5 -43t-40.5 -29t-51.5 -10.5t-51 10.5t-40 29t-26.5 43t-9.5 52.5z" />
<glyph unicode="&#x100;" horiz-adv-x="1395" d="M40 0q13 30 27 63t30.5 74.5t36.5 94.5t46 123l400 1105h215l400 -1105q25 -70 45 -123t37 -94.5t31 -74.5t27 -63h-205l-136 385h-615l-134 -385h-205zM312 1670v150h750v-150h-750zM433 540h507l-255 725z" />
<glyph unicode="&#x101;" d="M95 255q0 57 19 115.5t65 108t123 85t193 46.5q26 3 65.5 6.5t80 7.5t75 7t49.5 4v75q0 91 -63.5 130.5t-176.5 39.5q-80 0 -158.5 -31.5t-166.5 -93.5q0 16 1 42.5t2 55t3 55t4 42.5q39 16 78.5 32.5t83 29t92.5 20.5t106 8q86 0 156.5 -21.5t120 -59t76.5 -88.5 t27 -111v-390q0 -108 21 -197t54 -173h-180q-9 24 -24 65.5t-26 89.5q-89 -95 -185 -137.5t-190 -42.5q-71 0 -130.5 23t-102.5 61.5t-67.5 89t-24.5 106.5zM165 1240v150h750v-150h-750zM280 280q0 -30 12.5 -55.5t35 -44t53.5 -29.5t69 -11t75 6.5t75.5 26t79 56 t85.5 96.5v170q-19 -1 -53 -4t-72 -6.5t-74.5 -7.5t-60.5 -7q-64 -8 -107 -25.5t-69.5 -42.5t-37.5 -56.5t-11 -65.5z" />
<glyph unicode="&#x102;" horiz-adv-x="1395" d="M40 0q13 30 27 63t30.5 74.5t36.5 94.5t46 123l400 1105h215l400 -1105q25 -70 45 -123t37 -94.5t31 -74.5t27 -63h-205l-136 385h-615l-134 -385h-205zM312 1980h120q6 -51 28.5 -96t56.5 -79.5t77.5 -54.5t92.5 -20t92 20t76 54.5t55 79.5t30 96h122q0 -73 -26 -144.5 t-74.5 -128.5t-118 -92t-156.5 -35q-88 0 -157.5 35t-118 92t-74 128.5t-25.5 144.5zM433 540h507l-255 725z" />
<glyph unicode="&#x103;" d="M95 255q0 57 19 115.5t65 108t123 85t193 46.5q26 3 65.5 6.5t80 7.5t75 7t49.5 4v75q0 91 -63.5 130.5t-176.5 39.5q-80 0 -158.5 -31.5t-166.5 -93.5q0 16 1 42.5t2 55t3 55t4 42.5q39 16 78.5 32.5t83 29t92.5 20.5t106 8q86 0 156.5 -21.5t120 -59t76.5 -88.5 t27 -111v-390q0 -108 21 -197t54 -173h-180q-9 24 -24 65.5t-26 89.5q-89 -95 -185 -137.5t-190 -42.5q-71 0 -130.5 23t-102.5 61.5t-67.5 89t-24.5 106.5zM165 1550h120q6 -51 28.5 -96t56.5 -79.5t77.5 -54.5t92.5 -20t92 20t76 54.5t55 79.5t30 96h122q0 -73 -26 -144.5 t-74.5 -128.5t-118 -92t-156.5 -35q-88 0 -157.5 35t-118 92t-74 128.5t-25.5 144.5zM280 280q0 -30 12.5 -55.5t35 -44t53.5 -29.5t69 -11t75 6.5t75.5 26t79 56t85.5 96.5v170q-19 -1 -53 -4t-72 -6.5t-74.5 -7.5t-60.5 -7q-64 -8 -107 -25.5t-69.5 -42.5t-37.5 -56.5 t-11 -65.5z" />
<glyph unicode="&#x106;" horiz-adv-x="1355" d="M95 710q0 193 56 338.5t149.5 242.5t215.5 145.5t254 48.5q54 0 110 -7t112.5 -23t112.5 -43t110 -67l-60 -180q-47 42 -96 71t-98 46.5t-97.5 25t-93.5 7.5q-105 0 -193 -36.5t-151.5 -109.5t-99.5 -181.5t-36 -252.5q0 -116 31 -222t91 -186.5t147.5 -128.5t200.5 -48 q57 0 115.5 13t114.5 37.5t107 58.5t93 76l40 -195q-44 -41 -103 -71.5t-123.5 -51.5t-130.5 -31.5t-123 -10.5q-152 0 -273 51.5t-206 147t-130.5 231.5t-45.5 305zM570 1600l350 430h230l-420 -430h-160z" />
<glyph unicode="&#x107;" horiz-adv-x="1020" d="M95 490q0 113 36.5 213t104 175t164 118.5t215.5 43.5q100 0 172.5 -23.5t127.5 -61.5l-35 -180q-68 50 -135 75t-145 25q-67 0 -124.5 -25.5t-100 -73.5t-66.5 -118t-24 -158q0 -81 22 -147t63 -113.5t99 -73.5t131 -26q91 0 165 31t140 89l20 -175q-38 -29 -75.5 -49.5 t-78.5 -34t-88 -20t-103 -6.5q-101 0 -189 35.5t-154 102.5t-104 162t-38 215zM390 1170l350 430h230l-420 -430h-160z" />
<glyph unicode="&#x108;" horiz-adv-x="1355" d="M95 710q0 193 56 338.5t149.5 242.5t215.5 145.5t254 48.5q54 0 110 -7t112.5 -23t112.5 -43t110 -67l-60 -180q-47 42 -96 71t-98 46.5t-97.5 25t-93.5 7.5q-105 0 -193 -36.5t-151.5 -109.5t-99.5 -181.5t-36 -252.5q0 -116 31 -222t91 -186.5t147.5 -128.5t200.5 -48 q57 0 115.5 13t114.5 37.5t107 58.5t93 76l40 -195q-44 -41 -103 -71.5t-123.5 -51.5t-130.5 -31.5t-123 -10.5q-152 0 -273 51.5t-206 147t-130.5 231.5t-45.5 305zM325 1600l340 430h170l340 -430h-150l-275 280l-275 -280h-150z" />
<glyph unicode="&#x109;" horiz-adv-x="1020" d="M95 490q0 113 36.5 213t104 175t164 118.5t215.5 43.5q100 0 172.5 -23.5t127.5 -61.5l-35 -180q-68 50 -135 75t-145 25q-67 0 -124.5 -25.5t-100 -73.5t-66.5 -118t-24 -158q0 -81 22 -147t63 -113.5t99 -73.5t131 -26q91 0 165 31t140 89l20 -175q-38 -29 -75.5 -49.5 t-78.5 -34t-88 -20t-103 -6.5q-101 0 -189 35.5t-154 102.5t-104 162t-38 215zM145 1170l340 430h170l340 -430h-150l-275 280l-275 -280h-150z" />
<glyph unicode="&#x10a;" horiz-adv-x="1355" d="M95 710q0 193 56 338.5t149.5 242.5t215.5 145.5t254 48.5q54 0 110 -7t112.5 -23t112.5 -43t110 -67l-60 -180q-47 42 -96 71t-98 46.5t-97.5 25t-93.5 7.5q-105 0 -193 -36.5t-151.5 -109.5t-99.5 -181.5t-36 -252.5q0 -116 31 -222t91 -186.5t147.5 -128.5t200.5 -48 q57 0 115.5 13t114.5 37.5t107 58.5t93 76l40 -195q-44 -41 -103 -71.5t-123.5 -51.5t-130.5 -31.5t-123 -10.5q-152 0 -273 51.5t-206 147t-130.5 231.5t-45.5 305zM615 1775q0 28 10.5 52.5t29 43t43 29t52.5 10.5t52.5 -10.5t43 -29t29 -43t10.5 -52.5t-10.5 -52.5 t-29 -43t-43 -29t-52.5 -10.5t-52.5 10.5t-43 29t-29 43t-10.5 52.5z" />
<glyph unicode="&#x10b;" horiz-adv-x="1020" d="M95 490q0 113 36.5 213t104 175t164 118.5t215.5 43.5q100 0 172.5 -23.5t127.5 -61.5l-35 -180q-68 50 -135 75t-145 25q-67 0 -124.5 -25.5t-100 -73.5t-66.5 -118t-24 -158q0 -81 22 -147t63 -113.5t99 -73.5t131 -26q91 0 165 31t140 89l20 -175q-38 -29 -75.5 -49.5 t-78.5 -34t-88 -20t-103 -6.5q-101 0 -189 35.5t-154 102.5t-104 162t-38 215zM435 1345q0 28 10.5 52.5t29 43t43 29t52.5 10.5t52.5 -10.5t43 -29t29 -43t10.5 -52.5t-10.5 -52.5t-29 -43t-43 -29t-52.5 -10.5t-52.5 10.5t-43 29t-29 43t-10.5 52.5z" />
<glyph unicode="&#x10c;" horiz-adv-x="1355" d="M95 710q0 193 56 338.5t149.5 242.5t215.5 145.5t254 48.5q54 0 110 -7t112.5 -23t112.5 -43t110 -67l-60 -180q-47 42 -96 71t-98 46.5t-97.5 25t-93.5 7.5q-105 0 -193 -36.5t-151.5 -109.5t-99.5 -181.5t-36 -252.5q0 -116 31 -222t91 -186.5t147.5 -128.5t200.5 -48 q57 0 115.5 13t114.5 37.5t107 58.5t93 76l40 -195q-44 -41 -103 -71.5t-123.5 -51.5t-130.5 -31.5t-123 -10.5q-152 0 -273 51.5t-206 147t-130.5 231.5t-45.5 305zM325 2030h150l275 -280l275 280h150l-340 -430h-170z" />
<glyph unicode="&#x10d;" horiz-adv-x="1020" d="M95 490q0 113 36.5 213t104 175t164 118.5t215.5 43.5q100 0 172.5 -23.5t127.5 -61.5l-35 -180q-68 50 -135 75t-145 25q-67 0 -124.5 -25.5t-100 -73.5t-66.5 -118t-24 -158q0 -81 22 -147t63 -113.5t99 -73.5t131 -26q91 0 165 31t140 89l20 -175q-38 -29 -75.5 -49.5 t-78.5 -34t-88 -20t-103 -6.5q-101 0 -189 35.5t-154 102.5t-104 162t-38 215zM145 1600h150l275 -280l275 280h150l-340 -430h-170z" />
<glyph unicode="&#x10e;" horiz-adv-x="1435" d="M160 0q6 30 8.5 77t4 106t2 128.5t0.5 143.5v688q0 70 -1.5 130.5t-4.5 108.5t-9 78q21 1 53.5 2.5t72 2.5t83 2t87 1.5t84.5 1t75 0.5q40 0 91.5 -4.5t108 -17.5t116 -36.5t115 -61.5t104.5 -92t85.5 -128t58 -170.5t21.5 -219.5q0 -149 -33 -262.5t-88.5 -196.5 t-128.5 -139t-153 -90t-162 -48t-155 -14q-24 0 -55.5 0.5t-66.5 1t-72 1.5t-72 2q-82 2 -169 5zM290 2030h150l275 -280l275 280h150l-340 -430h-170zM365 165q35 -3 91.5 -6.5t128.5 -3.5q67 0 132.5 13t125 41.5t110.5 73.5t88 107.5t58 144.5t21 185q0 168 -42.5 281 t-114.5 181.5t-168.5 98t-204.5 29.5q-25 0 -56 -0.5t-62.5 -1.5t-59.5 -1.5t-47 -1.5v-1140z" />
<glyph unicode="&#x110;" horiz-adv-x="1435" d="M0 690v145h175v308q0 70 -1.5 130.5t-4.5 108.5t-9 78q21 1 53.5 2.5t72 2.5t83 2t87 1.5t84.5 1t75 0.5q40 0 91.5 -4.5t108 -17.5t116 -36.5t115 -61.5t104.5 -92t85.5 -128t58 -170.5t21.5 -219.5q0 -149 -33 -262.5t-88.5 -196.5t-128.5 -139t-153 -90t-162 -48 t-155 -14q-24 0 -55.5 0.5t-66.5 1t-72 1.5t-72 2q-82 2 -169 5q6 30 8.5 77t4 106t2 128.5t0.5 143.5v235h-175zM365 165q35 -3 91.5 -6.5t128.5 -3.5q67 0 132.5 13t125 41.5t110.5 73.5t88 107.5t58 144.5t21 185q0 168 -42.5 281t-114.5 181.5t-168.5 98t-204.5 29.5 q-25 0 -56 -0.5t-62.5 -1.5t-59.5 -1.5t-47 -1.5v-470h380v-145h-380v-525z" />
<glyph unicode="&#x111;" horiz-adv-x="1190" d="M105 460q0 133 36.5 240t100.5 182.5t150.5 116.5t187.5 41q32 0 66.5 -7t69 -19t67.5 -27.5t62 -31.5v220h-280v135h279q-2 93 -7 164.5t-17 125.5h210v-290h160v-135h-160v-645q0 -189 21.5 -317.5t53.5 -212.5h-180q-11 26 -26.5 77.5t-28.5 107.5q-72 -102 -163 -156 t-202 -54q-92 0 -165.5 34.5t-126 98t-80.5 153t-28 199.5zM290 490q0 -175 59.5 -265t190.5 -90q46 0 91.5 23t86 60t73.5 84.5t54 97.5v395q-37 20 -69 34t-63 23t-63 13.5t-70 4.5q-57 0 -109 -26t-92.5 -75t-64.5 -119.5t-24 -159.5z" />
<glyph unicode="&#x112;" horiz-adv-x="1160" d="M160 0q11 60 13 173.5t2 261.5v590q0 148 -2 261.5t-13 173.5h850v-165h-645v-450h570v-160h-570v-520h264q149 0 250 2t161 13v-180h-880zM225 1670v150h750v-150h-750z" />
<glyph unicode="&#x113;" horiz-adv-x="1095" d="M95 495q0 124 33.5 224.5t95.5 172t151 110t200 38.5q82 0 145 -19.5t109 -54t77 -80.5t49.5 -99t26.5 -110.5t8 -113.5v-39q0 -25 -1 -39h-709q3 -88 27.5 -153t67 -107.5t100 -63.5t125.5 -21q97 0 190 22t185 78l20 -165q-53 -27 -104 -46t-102 -31t-103.5 -17.5 t-110.5 -5.5q-96 0 -183 33.5t-153 99t-105 162.5t-39 225zM194 1240v150h750v-150h-750zM288 625h522q0 64 -18.5 113.5t-52 83.5t-79.5 51t-100 17q-110 0 -180 -64.5t-92 -200.5z" />
<glyph unicode="&#x114;" horiz-adv-x="1160" d="M160 0q11 60 13 173.5t2 261.5v590q0 148 -2 261.5t-13 173.5h850v-165h-645v-450h570v-160h-570v-520h264q149 0 250 2t161 13v-180h-880zM225 1980h120q6 -51 28.5 -96t56.5 -79.5t77.5 -54.5t92.5 -20t92 20t76 54.5t55 79.5t30 96h122q0 -73 -26 -144.5t-74.5 -128.5 t-118 -92t-156.5 -35q-88 0 -157.5 35t-118 92t-74 128.5t-25.5 144.5z" />
<glyph unicode="&#x115;" horiz-adv-x="1095" d="M95 495q0 124 33.5 224.5t95.5 172t151 110t200 38.5q82 0 145 -19.5t109 -54t77 -80.5t49.5 -99t26.5 -110.5t8 -113.5v-39q0 -25 -1 -39h-709q3 -88 27.5 -153t67 -107.5t100 -63.5t125.5 -21q97 0 190 22t185 78l20 -165q-53 -27 -104 -46t-102 -31t-103.5 -17.5 t-110.5 -5.5q-96 0 -183 33.5t-153 99t-105 162.5t-39 225zM194 1550h120q6 -51 28.5 -96t56.5 -79.5t77.5 -54.5t92.5 -20t92 20t76 54.5t55 79.5t30 96h122q0 -73 -26 -144.5t-74.5 -128.5t-118 -92t-156.5 -35q-88 0 -157.5 35t-118 92t-74 128.5t-25.5 144.5zM288 625 h522q0 64 -18.5 113.5t-52 83.5t-79.5 51t-100 17q-110 0 -180 -64.5t-92 -200.5z" />
<glyph unicode="&#x116;" horiz-adv-x="1160" d="M160 0q11 60 13 173.5t2 261.5v590q0 148 -2 261.5t-13 173.5h850v-165h-645v-450h570v-160h-570v-520h264q149 0 250 2t161 13v-180h-880zM465 1775q0 28 10.5 52.5t29 43t43 29t52.5 10.5t52.5 -10.5t43 -29t29 -43t10.5 -52.5t-10.5 -52.5t-29 -43t-43 -29 t-52.5 -10.5t-52.5 10.5t-43 29t-29 43t-10.5 52.5z" />
<glyph unicode="&#x117;" horiz-adv-x="1095" d="M95 495q0 124 33.5 224.5t95.5 172t151 110t200 38.5q82 0 145 -19.5t109 -54t77 -80.5t49.5 -99t26.5 -110.5t8 -113.5v-39q0 -25 -1 -39h-709q3 -88 27.5 -153t67 -107.5t100 -63.5t125.5 -21q97 0 190 22t185 78l20 -165q-53 -27 -104 -46t-102 -31t-103.5 -17.5 t-110.5 -5.5q-96 0 -183 33.5t-153 99t-105 162.5t-39 225zM288 625h522q0 64 -18.5 113.5t-52 83.5t-79.5 51t-100 17q-110 0 -180 -64.5t-92 -200.5zM434 1345q0 28 10.5 52.5t29 43t43 29t52.5 10.5t52.5 -10.5t43 -29t29 -43t10.5 -52.5t-10.5 -52.5t-29 -43t-43 -29 t-52.5 -10.5t-52.5 10.5t-43 29t-29 43t-10.5 52.5z" />
<glyph unicode="&#x11a;" horiz-adv-x="1160" d="M160 0q11 60 13 173.5t2 261.5v590q0 148 -2 261.5t-13 173.5h850v-165h-645v-450h570v-160h-570v-520h264q149 0 250 2t161 13v-180h-880zM175 2030h150l275 -280l275 280h150l-340 -430h-170z" />
<glyph unicode="&#x11b;" horiz-adv-x="1095" d="M95 495q0 124 33.5 224.5t95.5 172t151 110t200 38.5q82 0 145 -19.5t109 -54t77 -80.5t49.5 -99t26.5 -110.5t8 -113.5v-39q0 -25 -1 -39h-709q3 -88 27.5 -153t67 -107.5t100 -63.5t125.5 -21q97 0 190 22t185 78l20 -165q-53 -27 -104 -46t-102 -31t-103.5 -17.5 t-110.5 -5.5q-96 0 -183 33.5t-153 99t-105 162.5t-39 225zM144 1600h150l275 -280l275 280h150l-340 -430h-170zM288 625h522q0 64 -18.5 113.5t-52 83.5t-79.5 51t-100 17q-110 0 -180 -64.5t-92 -200.5z" />
<glyph unicode="&#x11c;" horiz-adv-x="1420" d="M95 720q0 180 53.5 322t146.5 240.5t218.5 150.5t269.5 52q61 0 118.5 -5.5t115 -20.5t117.5 -42.5t126 -71.5l-65 -180q-56 45 -108.5 74.5t-103.5 46t-100.5 23t-99.5 6.5q-114 0 -205.5 -40t-155.5 -114t-98 -179.5t-34 -236.5q0 -138 32.5 -248t93.5 -187.5 t147.5 -118.5t193.5 -41q45 0 84.5 4.5t78.5 15.5t79 29t86 46v335h-350v165h540v-590q-77 -54 -145 -89t-132 -55t-126 -28t-127 -8q-142 0 -261 49t-205.5 144t-135 233.5t-48.5 318.5zM320 1600l340 430h170l340 -430h-150l-275 280l-275 -280h-150z" />
<glyph unicode="&#x11d;" horiz-adv-x="1095" d="M30 -200q0 81 59.5 148t186.5 121q-54 31 -75 69t-21 77q0 19 7.5 41.5t22.5 44.5t36.5 42t49.5 36q-83 47 -132 124.5t-49 176.5q0 76 30.5 142t84.5 114.5t127 76t158 27.5q73 0 137.5 -20.5t115.5 -57.5q65 33 141 53t141 25l-10 -160q-40 -2 -82 -8t-89 -20 q22 -38 34 -81t12 -91q0 -77 -30.5 -142t-84.5 -112t-127 -74t-158 -27q-19 0 -36.5 1.5t-34.5 3.5q-55 -23 -77 -48t-22 -47q0 -14 14 -28.5t51 -29t99.5 -27.5t160.5 -25q111 -13 187 -38t122 -61t66 -82.5t20 -103.5q0 -54 -22.5 -100.5t-61 -84.5t-90.5 -68t-111 -50.5 t-122 -31t-123 -10.5q-58 0 -118 8t-116 24.5t-105.5 41.5t-86 59t-58 77t-21.5 95zM90 1170l340 430h170l340 -430h-150l-275 280l-275 -280h-150zM215 -180q0 -30 20.5 -62t62 -58.5t104.5 -43t148 -16.5q68 0 128 17.5t105 45.5t71 61.5t26 65.5q0 30 -16 55.5t-54 46 t-103 36.5t-162 27q-29 4 -55 7.5t-49 8.5q-75 -27 -119.5 -52t-68 -49t-31 -46.5t-7.5 -43.5zM285 680q0 -46 17 -85.5t48 -68t73 -45t92 -16.5t92.5 16.5t73 45t47.5 68t17 85.5t-17 85.5t-47.5 68t-73 45t-92.5 16.5t-92 -16.5t-73 -45t-48 -68t-17 -85.5z" />
<glyph unicode="&#x11e;" horiz-adv-x="1420" d="M95 720q0 180 53.5 322t146.5 240.5t218.5 150.5t269.5 52q61 0 118.5 -5.5t115 -20.5t117.5 -42.5t126 -71.5l-65 -180q-56 45 -108.5 74.5t-103.5 46t-100.5 23t-99.5 6.5q-114 0 -205.5 -40t-155.5 -114t-98 -179.5t-34 -236.5q0 -138 32.5 -248t93.5 -187.5 t147.5 -118.5t193.5 -41q45 0 84.5 4.5t78.5 15.5t79 29t86 46v335h-350v165h540v-590q-77 -54 -145 -89t-132 -55t-126 -28t-127 -8q-142 0 -261 49t-205.5 144t-135 233.5t-48.5 318.5zM370 1980h120q6 -51 28.5 -96t56.5 -79.5t77.5 -54.5t92.5 -20t92 20t76 54.5 t55 79.5t30 96h122q0 -73 -26 -144.5t-74.5 -128.5t-118 -92t-156.5 -35q-88 0 -157.5 35t-118 92t-74 128.5t-25.5 144.5z" />
<glyph unicode="&#x11f;" horiz-adv-x="1095" d="M30 -200q0 81 59.5 148t186.5 121q-54 31 -75 69t-21 77q0 19 7.5 41.5t22.5 44.5t36.5 42t49.5 36q-83 47 -132 124.5t-49 176.5q0 76 30.5 142t84.5 114.5t127 76t158 27.5q73 0 137.5 -20.5t115.5 -57.5q65 33 141 53t141 25l-10 -160q-40 -2 -82 -8t-89 -20 q22 -38 34 -81t12 -91q0 -77 -30.5 -142t-84.5 -112t-127 -74t-158 -27q-19 0 -36.5 1.5t-34.5 3.5q-55 -23 -77 -48t-22 -47q0 -14 14 -28.5t51 -29t99.5 -27.5t160.5 -25q111 -13 187 -38t122 -61t66 -82.5t20 -103.5q0 -54 -22.5 -100.5t-61 -84.5t-90.5 -68t-111 -50.5 t-122 -31t-123 -10.5q-58 0 -118 8t-116 24.5t-105.5 41.5t-86 59t-58 77t-21.5 95zM140 1550h120q6 -51 28.5 -96t56.5 -79.5t77.5 -54.5t92.5 -20t92 20t76 54.5t55 79.5t30 96h122q0 -73 -26 -144.5t-74.5 -128.5t-118 -92t-156.5 -35q-88 0 -157.5 35t-118 92t-74 128.5 t-25.5 144.5zM215 -180q0 -30 20.5 -62t62 -58.5t104.5 -43t148 -16.5q68 0 128 17.5t105 45.5t71 61.5t26 65.5q0 30 -16 55.5t-54 46t-103 36.5t-162 27q-29 4 -55 7.5t-49 8.5q-75 -27 -119.5 -52t-68 -49t-31 -46.5t-7.5 -43.5zM285 680q0 -46 17 -85.5t48 -68t73 -45 t92 -16.5t92.5 16.5t73 45t47.5 68t17 85.5t-17 85.5t-47.5 68t-73 45t-92.5 16.5t-92 -16.5t-73 -45t-48 -68t-17 -85.5z" />
<glyph unicode="&#x120;" horiz-adv-x="1420" d="M95 720q0 180 53.5 322t146.5 240.5t218.5 150.5t269.5 52q61 0 118.5 -5.5t115 -20.5t117.5 -42.5t126 -71.5l-65 -180q-56 45 -108.5 74.5t-103.5 46t-100.5 23t-99.5 6.5q-114 0 -205.5 -40t-155.5 -114t-98 -179.5t-34 -236.5q0 -138 32.5 -248t93.5 -187.5 t147.5 -118.5t193.5 -41q45 0 84.5 4.5t78.5 15.5t79 29t86 46v335h-350v165h540v-590q-77 -54 -145 -89t-132 -55t-126 -28t-127 -8q-142 0 -261 49t-205.5 144t-135 233.5t-48.5 318.5zM610 1775q0 28 10.5 52.5t29 43t43 29t52.5 10.5t52.5 -10.5t43 -29t29 -43 t10.5 -52.5t-10.5 -52.5t-29 -43t-43 -29t-52.5 -10.5t-52.5 10.5t-43 29t-29 43t-10.5 52.5z" />
<glyph unicode="&#x121;" horiz-adv-x="1095" d="M30 -200q0 81 59.5 148t186.5 121q-54 31 -75 69t-21 77q0 19 7.5 41.5t22.5 44.5t36.5 42t49.5 36q-83 47 -132 124.5t-49 176.5q0 76 30.5 142t84.5 114.5t127 76t158 27.5q73 0 137.5 -20.5t115.5 -57.5q65 33 141 53t141 25l-10 -160q-40 -2 -82 -8t-89 -20 q22 -38 34 -81t12 -91q0 -77 -30.5 -142t-84.5 -112t-127 -74t-158 -27q-19 0 -36.5 1.5t-34.5 3.5q-55 -23 -77 -48t-22 -47q0 -14 14 -28.5t51 -29t99.5 -27.5t160.5 -25q111 -13 187 -38t122 -61t66 -82.5t20 -103.5q0 -54 -22.5 -100.5t-61 -84.5t-90.5 -68t-111 -50.5 t-122 -31t-123 -10.5q-58 0 -118 8t-116 24.5t-105.5 41.5t-86 59t-58 77t-21.5 95zM215 -180q0 -30 20.5 -62t62 -58.5t104.5 -43t148 -16.5q68 0 128 17.5t105 45.5t71 61.5t26 65.5q0 30 -16 55.5t-54 46t-103 36.5t-162 27q-29 4 -55 7.5t-49 8.5q-75 -27 -119.5 -52 t-68 -49t-31 -46.5t-7.5 -43.5zM285 680q0 -46 17 -85.5t48 -68t73 -45t92 -16.5t92.5 16.5t73 45t47.5 68t17 85.5t-17 85.5t-47.5 68t-73 45t-92.5 16.5t-92 -16.5t-73 -45t-48 -68t-17 -85.5zM380 1345q0 28 10.5 52.5t29 43t43 29t52.5 10.5t52.5 -10.5t43 -29t29 -43 t10.5 -52.5t-10.5 -52.5t-29 -43t-43 -29t-52.5 -10.5t-52.5 10.5t-43 29t-29 43t-10.5 52.5z" />
<glyph unicode="&#x124;" horiz-adv-x="1475" d="M160 0q11 60 13 173.5t2 261.5v590q0 148 -2 261.5t-13 173.5h205v-625h720v625h205q-11 -60 -13 -173.5t-2 -261.5v-590q0 -148 2 -261.5t13 -173.5h-205v675h-720v-675h-205zM300 1600l340 430h170l340 -430h-150l-275 280l-275 -280h-150z" />
<glyph unicode="&#x125;" horiz-adv-x="1175" d="M130 1600h200v-770q74 105 174 157.5t206 52.5q160 0 245 -104.5t85 -310.5v-625h-185v550q0 94 -12.5 155t-37.5 96.5t-62.5 49.5t-87.5 14q-54 0 -105.5 -25.5t-94.5 -66t-76 -91.5t-49 -102v-580h-185v1130q0 162 -2 283.5t-13 186.5zM160 1705l340 430h170l340 -430 h-150l-275 280l-275 -280h-150z" />
<glyph unicode="&#x128;" horiz-adv-x="975" d="M122 1635q0 46 13.5 90.5t38 80t60 57.5t80.5 22q21 0 41 -4t40.5 -11.5t43 -17t48.5 -19.5q27 -11 48.5 -20t40 -15t34.5 -9.5t32 -3.5q35 0 57.5 25t27.5 60h105q0 -48 -13.5 -93t-39 -80t-62.5 -56t-83 -21q-40 0 -80.5 13.5t-86.5 34.5q-58 27 -92.5 39.5t-62.5 12.5 q-37 0 -59 -24t-26 -61h-105zM140 0v145h240v1170h-240v145h675v-145h-245v-1170h245v-145h-675z" />
<glyph unicode="&#x129;" horiz-adv-x="530" d="M-89 1205q0 46 13.5 90.5t38 80t60 57.5t80.5 22q21 0 41 -4t40.5 -11.5t43 -17t48.5 -19.5q27 -11 48.5 -20t40 -15t34.5 -9.5t32 -3.5q35 0 57.5 25t27.5 60h105q0 -48 -13.5 -93t-39 -80t-62.5 -56t-83 -21q-40 0 -80.5 13.5t-86.5 34.5q-58 27 -92.5 39.5t-62.5 12.5 q-37 0 -59 -24t-26 -61h-105zM155 1020h200v-545q0 -48 1.5 -113.5t4 -132.5t6 -128t8.5 -101h-205v530q0 73 -0.5 144t-2 134.5t-4.5 118t-8 93.5z" />
<glyph unicode="&#x12a;" horiz-adv-x="975" d="M140 0v145h240v1170h-240v145h675v-145h-245v-1170h245v-145h-675zM212 1670v150h530v-150h-530z" />
<glyph unicode="&#x12b;" horiz-adv-x="530" d="M0 1240v150h530v-150h-530zM155 1020h200v-545q0 -48 1.5 -113.5t4 -132.5t6 -128t8.5 -101h-205v530q0 73 -0.5 144t-2 134.5t-4.5 118t-8 93.5z" />
<glyph unicode="&#x12c;" horiz-adv-x="975" d="M102 1980h120q6 -51 28.5 -96t56.5 -79.5t77.5 -54.5t92.5 -20t92 20t76 54.5t55 79.5t30 96h122q0 -73 -26 -144.5t-74.5 -128.5t-118 -92t-156.5 -35q-88 0 -157.5 35t-118 92t-74 128.5t-25.5 144.5zM140 0v145h240v1170h-240v145h675v-145h-245v-1170h245v-145h-675z " />
<glyph unicode="&#x12d;" horiz-adv-x="530" d="M-110 1550h120q6 -51 28.5 -96t56.5 -79.5t77.5 -54.5t92.5 -20t92 20t76 54.5t55 79.5t30 96h122q0 -73 -26 -144.5t-74.5 -128.5t-118 -92t-156.5 -35q-88 0 -157.5 35t-118 92t-74 128.5t-25.5 144.5zM155 1020h200v-545q0 -48 1.5 -113.5t4 -132.5t6 -128t8.5 -101 h-205v530q0 73 -0.5 144t-2 134.5t-4.5 118t-8 93.5z" />
<glyph unicode="&#x130;" horiz-adv-x="975" d="M140 0v145h240v1170h-240v145h675v-145h-245v-1170h245v-145h-675zM342 1775q0 28 10.5 52.5t29 43t43 29t52.5 10.5t52.5 -10.5t43 -29t29 -43t10.5 -52.5t-10.5 -52.5t-29 -43t-43 -29t-52.5 -10.5t-52.5 10.5t-43 29t-29 43t-10.5 52.5z" />
<glyph unicode="&#x131;" horiz-adv-x="530" d="M155 1020h200v-545q0 -48 1.5 -113.5t4 -132.5t6 -128t8.5 -101h-205v530q0 73 -0.5 144t-2 134.5t-4.5 118t-8 93.5z" />
<glyph unicode="&#x132;" horiz-adv-x="1940" d="M140 0v145h240v1170h-240v145h675v-145h-245v-1170h245v-145h-675zM1010 90l45 185q25 -29 56 -51.5t64.5 -37.5t69 -23t70.5 -8q55 0 101 19.5t79 60t51.5 102.5t18.5 148v495q0 73 -0.5 142.5t-2 131t-4.5 114t-8 92.5h205v-925q0 -156 -32 -263t-89.5 -173t-137.5 -95 t-176 -29q-36 0 -78.5 6.5t-85.5 20.5t-81 36t-65 52z" />
<glyph unicode="&#x133;" horiz-adv-x="1160" d="M155 1345q0 28 9 52.5t25.5 43t39.5 29t51 10.5t52 -10.5t41 -29t27 -43t10 -52.5t-10 -52.5t-27 -43t-41 -29t-52 -10.5t-51 10.5t-39.5 29t-25.5 43t-9 52.5zM175 1020h200v-545q0 -48 1.5 -113.5t4 -132.5t6 -128t8.5 -101h-205v530q0 73 -0.5 144t-2 134.5t-4.5 118 t-8 93.5zM375 -405l35 165q16 -12 41 -23t52 -19.5t54 -13t48 -4.5q40 0 73 15.5t57 48.5t37 85t13 126v555q0 73 -0.5 144t-2 134.5t-4.5 118t-8 93.5h200v-995q0 -140 -26.5 -235t-75.5 -152.5t-118.5 -82.5t-154.5 -25q-21 0 -49.5 4.5t-59 12.5t-60 20.5t-51.5 27.5z M750 1345q0 28 9 52.5t25.5 43t39.5 29t51 10.5t52 -10.5t41 -29t27 -43t10 -52.5t-10 -52.5t-27 -43t-41 -29t-52 -10.5t-51 10.5t-39.5 29t-25.5 43t-9 52.5z" />
<glyph unicode="&#x139;" horiz-adv-x="1080" d="M160 0q11 60 13 173.5t2 261.5v590q0 148 -2 261.5t-13 173.5h205v-1295h224q74 0 140 0.5t122 2t100 4.5t74 8v-180h-865zM412 1600l350 430h230l-420 -430h-160z" />
<glyph unicode="&#x13a;" horiz-adv-x="565" d="M102 1705l350 430h230l-420 -430h-160zM170 1600h205v-1125q0 -48 1.5 -113t4 -132t6 -128t8.5 -102h-205v1130q0 146 -5 264.5t-15 205.5z" />
<glyph unicode="&#x141;" horiz-adv-x="1130" d="M50 635l175 109v281q0 148 -2 261.5t-13 173.5h205v-597l315 197l60 -145l-375 -235v-515h224q74 0 140 0.5t122 2t100 4.5t74 8v-180h-865q11 60 13 173.5t2 261.5v127l-115 -72z" />
<glyph unicode="&#x142;" horiz-adv-x="860" d="M100 655l240 166v309q0 146 -5 264.5t-15 205.5h205v-651l175 121l60 -145l-235 -163v-287q0 -48 1.5 -113t4 -132t6 -128t8.5 -102h-205v634l-180 -124z" />
<glyph unicode="&#x143;" horiz-adv-x="1500" d="M160 0q11 60 13 173.5t2 261.5v590q0 148 -2 261.5t-13 173.5h180l795 -1157v1157h180q-5 -30 -8 -74t-4.5 -99.5t-2 -121.5t-0.5 -140v-1025h-165l-795 1152v-1152h-180zM557 1600l350 430h230l-420 -430h-160z" />
<glyph unicode="&#x144;" horiz-adv-x="1185" d="M104 1020h180q6 -16 12 -41.5t11 -53.5t9 -55l8 -45q95 114 192 164.5t203 50.5q160 0 245 -104.5t85 -310.5v-625h-185v550q0 94 -12.5 155t-37 96.5t-62 49.5t-88.5 14q-54 0 -105.5 -25.5t-94.5 -66t-76 -91.5t-49 -102v-580h-185v615q0 148 -16.5 250.5t-33.5 154.5z M419 1170l350 430h230l-420 -430h-160z" />
<glyph unicode="&#x147;" horiz-adv-x="1500" d="M160 0q11 60 13 173.5t2 261.5v590q0 148 -2 261.5t-13 173.5h180l795 -1157v1157h180q-5 -30 -8 -74t-4.5 -99.5t-2 -121.5t-0.5 -140v-1025h-165l-795 1152v-1152h-180zM312 2030h150l275 -280l275 280h150l-340 -430h-170z" />
<glyph unicode="&#x148;" horiz-adv-x="1185" d="M104 1020h180q6 -16 12 -41.5t11 -53.5t9 -55l8 -45q95 114 192 164.5t203 50.5q160 0 245 -104.5t85 -310.5v-625h-185v550q0 94 -12.5 155t-37 96.5t-62 49.5t-88.5 14q-54 0 -105.5 -25.5t-94.5 -66t-76 -91.5t-49 -102v-580h-185v615q0 148 -16.5 250.5t-33.5 154.5z M174 1600h150l275 -280l275 280h150l-340 -430h-170z" />
<glyph unicode="&#x14a;" horiz-adv-x="1466" d="M135 1455h185q7 -23 14.5 -59t14 -75.5t12.5 -77t9 -63.5q60 81 122.5 139t126.5 95t129.5 54t131.5 17q93 0 166.5 -37.5t124 -112t77.5 -185.5t27 -258v-747q0 -159 -30 -275t-85.5 -191.5t-135.5 -112t-179 -36.5q-31 0 -60.5 5t-55.5 12.5t-46.5 16t-32.5 16.5 l65 155q25 -19 66.5 -27t88.5 -8q40 0 78.5 21.5t69 67t49 117.5t18.5 174v705q0 134 -12 229t-42 155t-82.5 88t-133.5 28q-48 0 -94 -19.5t-88.5 -53t-81 -77.5t-69.5 -93.5t-54.5 -101t-37.5 -100.5v-840h-205q11 60 13 170.5t2 259.5v450q0 105 -6 194t-16 161 t-21.5 127.5t-21.5 92.5z" />
<glyph unicode="&#x14b;" horiz-adv-x="1185" d="M105 1020h180q6 -16 12 -41.5t11 -53.5t9 -55l8 -45q96 114 193 164.5t202 50.5q80 0 141.5 -26.5t103.5 -84t63.5 -149t21.5 -220.5v-450q0 -169 -29.5 -280.5t-82.5 -178t-127.5 -94t-165.5 -27.5q-45 0 -96.5 14.5t-93.5 40.5l65 150q23 -17 61.5 -28.5t78.5 -11.5 q48 0 86 15.5t64.5 54.5t40.5 107t14 173v440q0 120 -12.5 194.5t-37.5 116t-62.5 55.5t-87.5 14q-54 0 -105.5 -25.5t-94.5 -66t-76 -91.5t-49 -102v-580h-185v615q0 148 -17 250.5t-33 154.5z" />
<glyph unicode="&#x14c;" horiz-adv-x="1460" d="M95 720q0 120 24.5 223t68 188t103.5 151t130.5 111t149 68.5t159.5 23.5q119 0 229.5 -49t195 -144t135 -233.5t50.5 -318.5t-53.5 -322t-142 -240.5t-201.5 -150.5t-233 -52q-121 0 -232 49t-196 144t-136 233.5t-51 318.5zM290 745q0 -137 30.5 -247t87 -187.5 t135.5 -119t177 -41.5q92 0 170 38.5t134.5 111t88.5 177.5t32 238q0 138 -30.5 248.5t-86.5 187.5t-134.5 118t-173.5 41t-174 -39.5t-136 -113t-88.5 -178t-31.5 -234.5zM342 1670v150h750v-150h-750z" />
<glyph unicode="&#x14d;" horiz-adv-x="1140" d="M95 505q0 129 39 228.5t105 168t154 103.5t187 35q103 0 188.5 -35t147 -103.5t95.5 -168t34 -228.5t-39 -228t-105 -166t-154 -101.5t-187 -34.5q-103 0 -188.5 34.5t-147 101.5t-95.5 166t-34 228zM195 1240v150h750v-150h-750zM280 505q0 -87 21 -156t59.5 -116.5 t91.5 -72.5t118 -25q60 0 113 25t92.5 72.5t62 116.5t22.5 156q0 88 -21 157.5t-59.5 118t-92 74t-117.5 25.5q-61 0 -114 -25.5t-92 -74t-61.5 -118t-22.5 -157.5z" />
<glyph unicode="&#x14e;" horiz-adv-x="1460" d="M95 720q0 120 24.5 223t68 188t103.5 151t130.5 111t149 68.5t159.5 23.5q119 0 229.5 -49t195 -144t135 -233.5t50.5 -318.5t-53.5 -322t-142 -240.5t-201.5 -150.5t-233 -52q-121 0 -232 49t-196 144t-136 233.5t-51 318.5zM290 745q0 -137 30.5 -247t87 -187.5 t135.5 -119t177 -41.5q92 0 170 38.5t134.5 111t88.5 177.5t32 238q0 138 -30.5 248.5t-86.5 187.5t-134.5 118t-173.5 41t-174 -39.5t-136 -113t-88.5 -178t-31.5 -234.5zM342 1980h120q6 -51 28.5 -96t56.5 -79.5t77.5 -54.5t92.5 -20t92 20t76 54.5t55 79.5t30 96h122 q0 -73 -26 -144.5t-74.5 -128.5t-118 -92t-156.5 -35q-88 0 -157.5 35t-118 92t-74 128.5t-25.5 144.5z" />
<glyph unicode="&#x14f;" horiz-adv-x="1140" d="M95 505q0 129 39 228.5t105 168t154 103.5t187 35q103 0 188.5 -35t147 -103.5t95.5 -168t34 -228.5t-39 -228t-105 -166t-154 -101.5t-187 -34.5q-103 0 -188.5 34.5t-147 101.5t-95.5 166t-34 228zM195 1550h120q6 -51 28.5 -96t56.5 -79.5t77.5 -54.5t92.5 -20t92 20 t76 54.5t55 79.5t30 96h122q0 -73 -26 -144.5t-74.5 -128.5t-118 -92t-156.5 -35q-88 0 -157.5 35t-118 92t-74 128.5t-25.5 144.5zM280 505q0 -87 21 -156t59.5 -116.5t91.5 -72.5t118 -25q60 0 113 25t92.5 72.5t62 116.5t22.5 156q0 88 -21 157.5t-59.5 118t-92 74 t-117.5 25.5q-61 0 -114 -25.5t-92 -74t-61.5 -118t-22.5 -157.5z" />
<glyph unicode="&#x150;" horiz-adv-x="1460" d="M95 720q0 120 24.5 223t68 188t103.5 151t130.5 111t149 68.5t159.5 23.5q119 0 229.5 -49t195 -144t135 -233.5t50.5 -318.5t-53.5 -322t-142 -240.5t-201.5 -150.5t-233 -52q-121 0 -232 49t-196 144t-136 233.5t-51 318.5zM290 745q0 -137 30.5 -247t87 -187.5 t135.5 -119t177 -41.5q92 0 170 38.5t134.5 111t88.5 177.5t32 238q0 138 -30.5 248.5t-86.5 187.5t-134.5 118t-173.5 41t-174 -39.5t-136 -113t-88.5 -178t-31.5 -234.5zM407 1580l240 450h210l-310 -450h-140zM747 1580l240 450h210l-310 -450h-140z" />
<glyph unicode="&#x151;" horiz-adv-x="1140" d="M95 505q0 129 39 228.5t105 168t154 103.5t187 35q103 0 188.5 -35t147 -103.5t95.5 -168t34 -228.5t-39 -228t-105 -166t-154 -101.5t-187 -34.5q-103 0 -188.5 34.5t-147 101.5t-95.5 166t-34 228zM260 1150l240 450h210l-310 -450h-140zM280 505q0 -87 21 -156 t59.5 -116.5t91.5 -72.5t118 -25q60 0 113 25t92.5 72.5t62 116.5t22.5 156q0 88 -21 157.5t-59.5 118t-92 74t-117.5 25.5q-61 0 -114 -25.5t-92 -74t-61.5 -118t-22.5 -157.5zM600 1150l240 450h210l-310 -450h-140z" />
<glyph unicode="&#x152;" horiz-adv-x="1950" d="M95 720q0 180 49 322t131 240.5t190 150.5t225 52q61 0 114.5 -14t100 -39t86 -59.5t72.5 -76.5q-1 20 -2 44t-3 46.5t-4 42t-4 31.5h750v-165h-545v-450h470v-160h-470v-520h164q149 0 250 2t161 13v-180h-780q5 27 8 72t5 93q-39 -43 -84.5 -78t-95.5 -60t-103.5 -38.5 t-109.5 -13.5q-117 0 -221.5 49t-183 144t-124.5 233.5t-46 318.5zM290 745q0 -137 27 -247t78 -187.5t123 -119t162 -41.5q92 0 165 38.5t124 111t78.5 177.5t27.5 238q0 138 -26 248.5t-76.5 187.5t-124 118t-168.5 41q-87 0 -159 -39.5t-123.5 -113t-79.5 -178 t-28 -234.5z" />
<glyph unicode="&#x153;" horiz-adv-x="1860" d="M95 507q0 129 39 228.5t105 167t154 102.5t187 35q122 0 218.5 -48.5t157.5 -142.5q63 91 159.5 141t224.5 50q82 0 145 -19.5t109 -54t77 -80.5t49.5 -99t26.5 -110.5t8 -113.5v-39q0 -25 -1 -39h-709q3 -88 27.5 -153t67 -107.5t100 -63.5t125.5 -21q97 0 190 22 t185 78l20 -165q-53 -27 -104 -46t-102 -31t-103.5 -17.5t-110.5 -5.5q-59 0 -114.5 12.5t-105.5 37t-93.5 61.5t-76.5 86q-67 -97 -169 -147t-221 -50q-103 0 -188.5 34.5t-147 102t-95.5 167t-34 228.5zM280 507q0 -87 21 -156t59.5 -117t91.5 -73.5t118 -25.5 q60 0 113 25.5t92.5 73.5t62 117t22.5 156q0 88 -21 157t-59.5 117t-92 73.5t-117.5 25.5q-61 0 -114 -25.5t-92 -73.5t-61.5 -117t-22.5 -157zM1053 625h522q0 64 -18.5 113.5t-52 83.5t-79.5 51t-100 17q-110 0 -180 -64.5t-92 -200.5z" />
<glyph unicode="&#x154;" horiz-adv-x="1305" d="M160 0q11 60 13 173.5t2 261.5v708q0 70 -1.5 130.5t-4.5 108.5t-9 78q52 2 115 5q54 2 128 3.5t162 1.5q117 0 213.5 -23.5t165.5 -73t107.5 -127.5t38.5 -186q0 -91 -28.5 -161t-75 -120.5t-105.5 -83.5t-120 -50q30 -41 73.5 -100.5t93 -126t100 -135t94.5 -126.5 t77 -100t46 -57h-255l-422 625h-203v-190q0 -74 0.5 -140t2 -122t4.5 -100t8 -73h-220zM365 780h190q170 0 257.5 70t87.5 195q0 64 -19.5 113.5t-61 83t-107 51t-157.5 17.5q-53 0 -101.5 -1.5t-88.5 -3.5v-525zM430 1600l350 430h230l-420 -430h-160z" />
<glyph unicode="&#x155;" horiz-adv-x="890" d="M105 1020h180q12 -28 21.5 -70.5t16 -94.5t9.5 -111t3 -119v-65q51 141 100 233.5t97.5 147.5t97.5 77t100 22q38 0 70 -7t65 -23l-30 -185q-29 12 -51 16t-54 4q-41 0 -86 -34.5t-88.5 -91.5t-82.5 -129t-68.5 -147.5t-47 -147.5t-17.5 -128q0 -25 0.5 -46t3 -40.5 t6.5 -39t10 -41.5h-205v615q0 148 -16.5 250.5t-33.5 154.5zM275 1170l350 430h230l-420 -430h-160z" />
<glyph unicode="&#x158;" horiz-adv-x="1305" d="M160 0q11 60 13 173.5t2 261.5v708q0 70 -1.5 130.5t-4.5 108.5t-9 78q52 2 115 5q54 2 128 3.5t162 1.5q117 0 213.5 -23.5t165.5 -73t107.5 -127.5t38.5 -186q0 -91 -28.5 -161t-75 -120.5t-105.5 -83.5t-120 -50q30 -41 73.5 -100.5t93 -126t100 -135t94.5 -126.5 t77 -100t46 -57h-255l-422 625h-203v-190q0 -74 0.5 -140t2 -122t4.5 -100t8 -73h-220zM185 2030h150l275 -280l275 280h150l-340 -430h-170zM365 780h190q170 0 257.5 70t87.5 195q0 64 -19.5 113.5t-61 83t-107 51t-157.5 17.5q-53 0 -101.5 -1.5t-88.5 -3.5v-525z" />
<glyph unicode="&#x159;" horiz-adv-x="890" d="M30 1600h150l275 -280l275 280h150l-340 -430h-170zM105 1020h180q12 -28 21.5 -70.5t16 -94.5t9.5 -111t3 -119v-65q51 141 100 233.5t97.5 147.5t97.5 77t100 22q38 0 70 -7t65 -23l-30 -185q-29 12 -51 16t-54 4q-41 0 -86 -34.5t-88.5 -91.5t-82.5 -129t-68.5 -147.5 t-47 -147.5t-17.5 -128q0 -25 0.5 -46t3 -40.5t6.5 -39t10 -41.5h-205v615q0 148 -16.5 250.5t-33.5 154.5z" />
<glyph unicode="&#x15a;" horiz-adv-x="1175" d="M95 110l45 205q100 -87 206.5 -126t218.5 -39q60 0 116 17t99 49.5t69 80t26 108.5q0 39 -12.5 74.5t-50.5 69.5t-109 67.5t-188 68.5t-191 77t-116 91.5t-57.5 106t-15.5 120.5t26.5 135t83.5 131t146 99.5t214 39.5q58 0 108.5 -5t98 -16t93.5 -28t95 -41l-40 -195 q-54 30 -99.5 50.5t-88.5 34t-86 19.5t-91 6q-60 0 -109.5 -18t-85.5 -48t-55.5 -69t-19.5 -80t11.5 -74.5t46.5 -63t100 -58t172 -59.5q99 -29 175.5 -67.5t128.5 -88.5t79 -114t27 -145q0 -101 -39.5 -183.5t-108 -142t-159.5 -92t-193 -32.5q-72 0 -140.5 10t-129 28 t-111.5 42.5t-89 54.5zM400 1600l350 430h230l-420 -430h-160z" />
<glyph unicode="&#x15b;" horiz-adv-x="965" d="M110 90l50 180q34 -30 76.5 -55t87.5 -43t90.5 -27.5t85.5 -9.5q44 0 80.5 11.5t63 30t41.5 43t15 50.5q0 28 -11.5 52.5t-42 47t-84 43.5t-137.5 42q-91 22 -148.5 52t-90 66t-44.5 78t-12 89q0 23 7.5 54t25 64.5t46 66t71.5 58t101 41.5t134 16q54 0 101.5 -7 t87 -18.5t72.5 -26t59 -28.5l-35 -175q-25 15 -57 31.5t-69.5 30.5t-80 23.5t-88.5 9.5q-55 0 -92.5 -12t-60 -30.5t-32.5 -42t-10 -45.5q0 -26 8 -46t33.5 -37t72.5 -33t126 -34q68 -15 128 -38.5t105 -59.5t71 -86.5t26 -120.5q0 -68 -30 -126t-82 -101.5t-122 -68 t-151 -24.5q-61 0 -117.5 9t-106 25t-90.5 37t-71 44zM315 1170l350 430h230l-420 -430h-160z" />
<glyph unicode="&#x15c;" horiz-adv-x="1175" d="M95 110l45 205q100 -87 206.5 -126t218.5 -39q60 0 116 17t99 49.5t69 80t26 108.5q0 39 -12.5 74.5t-50.5 69.5t-109 67.5t-188 68.5t-191 77t-116 91.5t-57.5 106t-15.5 120.5t26.5 135t83.5 131t146 99.5t214 39.5q58 0 108.5 -5t98 -16t93.5 -28t95 -41l-40 -195 q-54 30 -99.5 50.5t-88.5 34t-86 19.5t-91 6q-60 0 -109.5 -18t-85.5 -48t-55.5 -69t-19.5 -80t11.5 -74.5t46.5 -63t100 -58t172 -59.5q99 -29 175.5 -67.5t128.5 -88.5t79 -114t27 -145q0 -101 -39.5 -183.5t-108 -142t-159.5 -92t-193 -32.5q-72 0 -140.5 10t-129 28 t-111.5 42.5t-89 54.5zM155 1600l340 430h170l340 -430h-150l-275 280l-275 -280h-150z" />
<glyph unicode="&#x15d;" horiz-adv-x="965" d="M70 1170l340 430h170l340 -430h-150l-275 280l-275 -280h-150zM110 90l50 180q34 -30 76.5 -55t87.5 -43t90.5 -27.5t85.5 -9.5q44 0 80.5 11.5t63 30t41.5 43t15 50.5q0 28 -11.5 52.5t-42 47t-84 43.5t-137.5 42q-91 22 -148.5 52t-90 66t-44.5 78t-12 89q0 23 7.5 54 t25 64.5t46 66t71.5 58t101 41.5t134 16q54 0 101.5 -7t87 -18.5t72.5 -26t59 -28.5l-35 -175q-25 15 -57 31.5t-69.5 30.5t-80 23.5t-88.5 9.5q-55 0 -92.5 -12t-60 -30.5t-32.5 -42t-10 -45.5q0 -26 8 -46t33.5 -37t72.5 -33t126 -34q68 -15 128 -38.5t105 -59.5t71 -86.5 t26 -120.5q0 -68 -30 -126t-82 -101.5t-122 -68t-151 -24.5q-61 0 -117.5 9t-106 25t-90.5 37t-71 44z" />
<glyph unicode="&#x160;" horiz-adv-x="1175" d="M95 110l45 205q100 -87 206.5 -126t218.5 -39q60 0 116 17t99 49.5t69 80t26 108.5q0 39 -12.5 74.5t-50.5 69.5t-109 67.5t-188 68.5t-191 77t-116 91.5t-57.5 106t-15.5 120.5t26.5 135t83.5 131t146 99.5t214 39.5q58 0 108.5 -5t98 -16t93.5 -28t95 -41l-40 -195 q-54 30 -99.5 50.5t-88.5 34t-86 19.5t-91 6q-60 0 -109.5 -18t-85.5 -48t-55.5 -69t-19.5 -80t11.5 -74.5t46.5 -63t100 -58t172 -59.5q99 -29 175.5 -67.5t128.5 -88.5t79 -114t27 -145q0 -101 -39.5 -183.5t-108 -142t-159.5 -92t-193 -32.5q-72 0 -140.5 10t-129 28 t-111.5 42.5t-89 54.5zM155 2030h150l275 -280l275 280h150l-340 -430h-170z" />
<glyph unicode="&#x161;" horiz-adv-x="965" d="M70 1600h150l275 -280l275 280h150l-340 -430h-170zM110 90l50 180q34 -30 76.5 -55t87.5 -43t90.5 -27.5t85.5 -9.5q44 0 80.5 11.5t63 30t41.5 43t15 50.5q0 28 -11.5 52.5t-42 47t-84 43.5t-137.5 42q-91 22 -148.5 52t-90 66t-44.5 78t-12 89q0 23 7.5 54t25 64.5 t46 66t71.5 58t101 41.5t134 16q54 0 101.5 -7t87 -18.5t72.5 -26t59 -28.5l-35 -175q-25 15 -57 31.5t-69.5 30.5t-80 23.5t-88.5 9.5q-55 0 -92.5 -12t-60 -30.5t-32.5 -42t-10 -45.5q0 -26 8 -46t33.5 -37t72.5 -33t126 -34q68 -15 128 -38.5t105 -59.5t71 -86.5 t26 -120.5q0 -68 -30 -126t-82 -101.5t-122 -68t-151 -24.5q-61 0 -117.5 9t-106 25t-90.5 37t-71 44z" />
<glyph unicode="&#x164;" horiz-adv-x="1265" d="M45 1275v185h1155v-185q-60 13 -118.5 16.5t-126.5 3.5h-240v-860q0 -148 3.5 -261.5t16.5 -173.5h-230q13 60 16.5 173.5t3.5 261.5v860h-235q-67 0 -126 -3.5t-119 -16.5zM197 2030h150l275 -280l275 280h150l-340 -430h-170z" />
<glyph unicode="&#x168;" horiz-adv-x="1440" d="M160 1460h205v-900q0 -98 17 -176.5t57 -134t106 -85t165 -29.5q97 0 162 29.5t104.5 85t56.5 134t17 176.5v900h205q-10 -60 -12.5 -169.5t-2.5 -265.5v-510q0 -122 -32 -221.5t-97.5 -170.5t-165.5 -109.5t-235 -38.5q-137 0 -237.5 38.5t-166.5 109.5t-98.5 170.5 t-32.5 221.5v510q0 148 -2.5 261.5t-12.5 173.5zM352 1635q0 46 13.5 90.5t38 80t60 57.5t80.5 22q21 0 41 -4t40.5 -11.5t43 -17t48.5 -19.5q27 -11 48.5 -20t40 -15t34.5 -9.5t32 -3.5q35 0 57.5 25t27.5 60h105q0 -48 -13.5 -93t-39 -80t-62.5 -56t-83 -21 q-40 0 -80.5 13.5t-86.5 34.5q-58 27 -92.5 39.5t-62.5 12.5q-37 0 -59 -24t-26 -61h-105z" />
<glyph unicode="&#x169;" horiz-adv-x="1185" d="M135 1020h205v-555q0 -85 8.5 -146.5t28.5 -101t52.5 -58.5t80.5 -19q44 0 94 26.5t95.5 67.5t83 90.5t57.5 95.5v280q0 49 -0.5 88.5t-2.5 75.5t-6 73t-11 83h205v-570q0 -146 16.5 -255.5t48.5 -194.5h-170q-7 17 -15 40t-15.5 49t-14 54.5t-10.5 56.5 q-91 -111 -187.5 -168t-202.5 -57q-320 0 -320 430v295q0 48 -0.5 87t-2.5 75.5t-6 74.5t-11 83zM234 1205q0 46 13.5 90.5t38 80t60 57.5t80.5 22q21 0 41 -4t40.5 -11.5t43 -17t48.5 -19.5q27 -11 48.5 -20t40 -15t34.5 -9.5t32 -3.5q35 0 57.5 25t27.5 60h105 q0 -48 -13.5 -93t-39 -80t-62.5 -56t-83 -21q-40 0 -80.5 13.5t-86.5 34.5q-58 27 -92.5 39.5t-62.5 12.5q-37 0 -59 -24t-26 -61h-105z" />
<glyph unicode="&#x16a;" horiz-adv-x="1440" d="M160 1460h205v-900q0 -98 17 -176.5t57 -134t106 -85t165 -29.5q97 0 162 29.5t104.5 85t56.5 134t17 176.5v900h205q-10 -60 -12.5 -169.5t-2.5 -265.5v-510q0 -122 -32 -221.5t-97.5 -170.5t-165.5 -109.5t-235 -38.5q-137 0 -237.5 38.5t-166.5 109.5t-98.5 170.5 t-32.5 221.5v510q0 148 -2.5 261.5t-12.5 173.5zM332 1670v150h750v-150h-750z" />
<glyph unicode="&#x16b;" horiz-adv-x="1185" d="M135 1020h205v-555q0 -85 8.5 -146.5t28.5 -101t52.5 -58.5t80.5 -19q44 0 94 26.5t95.5 67.5t83 90.5t57.5 95.5v280q0 49 -0.5 88.5t-2.5 75.5t-6 73t-11 83h205v-570q0 -146 16.5 -255.5t48.5 -194.5h-170q-7 17 -15 40t-15.5 49t-14 54.5t-10.5 56.5 q-91 -111 -187.5 -168t-202.5 -57q-320 0 -320 430v295q0 48 -0.5 87t-2.5 75.5t-6 74.5t-11 83zM214 1240v150h750v-150h-750z" />
<glyph unicode="&#x16c;" horiz-adv-x="1440" d="M160 1460h205v-900q0 -98 17 -176.5t57 -134t106 -85t165 -29.5q97 0 162 29.5t104.5 85t56.5 134t17 176.5v900h205q-10 -60 -12.5 -169.5t-2.5 -265.5v-510q0 -122 -32 -221.5t-97.5 -170.5t-165.5 -109.5t-235 -38.5q-137 0 -237.5 38.5t-166.5 109.5t-98.5 170.5 t-32.5 221.5v510q0 148 -2.5 261.5t-12.5 173.5zM332 1980h120q6 -51 28.5 -96t56.5 -79.5t77.5 -54.5t92.5 -20t92 20t76 54.5t55 79.5t30 96h122q0 -73 -26 -144.5t-74.5 -128.5t-118 -92t-156.5 -35q-88 0 -157.5 35t-118 92t-74 128.5t-25.5 144.5z" />
<glyph unicode="&#x16d;" horiz-adv-x="1185" d="M135 1020h205v-555q0 -85 8.5 -146.5t28.5 -101t52.5 -58.5t80.5 -19q44 0 94 26.5t95.5 67.5t83 90.5t57.5 95.5v280q0 49 -0.5 88.5t-2.5 75.5t-6 73t-11 83h205v-570q0 -146 16.5 -255.5t48.5 -194.5h-170q-7 17 -15 40t-15.5 49t-14 54.5t-10.5 56.5 q-91 -111 -187.5 -168t-202.5 -57q-320 0 -320 430v295q0 48 -0.5 87t-2.5 75.5t-6 74.5t-11 83zM214 1550h120q6 -51 28.5 -96t56.5 -79.5t77.5 -54.5t92.5 -20t92 20t76 54.5t55 79.5t30 96h122q0 -73 -26 -144.5t-74.5 -128.5t-118 -92t-156.5 -35q-88 0 -157.5 35 t-118 92t-74 128.5t-25.5 144.5z" />
<glyph unicode="&#x16e;" horiz-adv-x="1440" d="M160 1460h205v-900q0 -98 17 -176.5t57 -134t106 -85t165 -29.5q97 0 162 29.5t104.5 85t56.5 134t17 176.5v900h205q-10 -60 -12.5 -169.5t-2.5 -265.5v-510q0 -122 -32 -221.5t-97.5 -170.5t-165.5 -109.5t-235 -38.5q-137 0 -237.5 38.5t-166.5 109.5t-98.5 170.5 t-32.5 221.5v510q0 148 -2.5 261.5t-12.5 173.5zM492 1815q0 45 16.5 84t46 68.5t68.5 46t84 16.5t84 -16.5t68.5 -46t46 -68.5t16.5 -84t-16.5 -84t-46 -68.5t-68.5 -46t-84 -16.5t-84 16.5t-68.5 46t-46 68.5t-16.5 84zM607 1815q0 -45 27.5 -72.5t72.5 -27.5t72.5 27.5 t27.5 72.5t-27.5 72.5t-72.5 27.5t-72.5 -27.5t-27.5 -72.5z" />
<glyph unicode="&#x16f;" horiz-adv-x="1185" d="M135 1020h205v-555q0 -85 8.5 -146.5t28.5 -101t52.5 -58.5t80.5 -19q44 0 94 26.5t95.5 67.5t83 90.5t57.5 95.5v280q0 49 -0.5 88.5t-2.5 75.5t-6 73t-11 83h205v-570q0 -146 16.5 -255.5t48.5 -194.5h-170q-7 17 -15 40t-15.5 49t-14 54.5t-10.5 56.5 q-91 -111 -187.5 -168t-202.5 -57q-320 0 -320 430v295q0 48 -0.5 87t-2.5 75.5t-6 74.5t-11 83zM374 1385q0 45 16.5 84t46 68.5t68.5 46t84 16.5t84 -16.5t68.5 -46t46 -68.5t16.5 -84t-16.5 -84t-46 -68.5t-68.5 -46t-84 -16.5t-84 16.5t-68.5 46t-46 68.5t-16.5 84z M489 1385q0 -45 27.5 -72.5t72.5 -27.5t72.5 27.5t27.5 72.5t-27.5 72.5t-72.5 27.5t-72.5 -27.5t-27.5 -72.5z" />
<glyph unicode="&#x170;" horiz-adv-x="1440" d="M160 1460h205v-900q0 -98 17 -176.5t57 -134t106 -85t165 -29.5q97 0 162 29.5t104.5 85t56.5 134t17 176.5v900h205q-10 -60 -12.5 -169.5t-2.5 -265.5v-510q0 -122 -32 -221.5t-97.5 -170.5t-165.5 -109.5t-235 -38.5q-137 0 -237.5 38.5t-166.5 109.5t-98.5 170.5 t-32.5 221.5v510q0 148 -2.5 261.5t-12.5 173.5zM397 1580l240 450h210l-310 -450h-140zM737 1580l240 450h210l-310 -450h-140z" />
<glyph unicode="&#x171;" horiz-adv-x="1185" d="M135 1020h205v-555q0 -85 8.5 -146.5t28.5 -101t52.5 -58.5t80.5 -19q44 0 94 26.5t95.5 67.5t83 90.5t57.5 95.5v280q0 49 -0.5 88.5t-2.5 75.5t-6 73t-11 83h205v-570q0 -146 16.5 -255.5t48.5 -194.5h-170q-7 17 -15 40t-15.5 49t-14 54.5t-10.5 56.5 q-91 -111 -187.5 -168t-202.5 -57q-320 0 -320 430v295q0 48 -0.5 87t-2.5 75.5t-6 74.5t-11 83zM279 1150l240 450h210l-310 -450h-140zM619 1150l240 450h210l-310 -450h-140z" />
<glyph unicode="&#x174;" horiz-adv-x="2080" d="M40 1460h220l316 -1274l359 1274h185l364 -1274l311 1274h220q-12 -31 -24 -64.5t-25.5 -76t-29.5 -97t-36 -127.5l-305 -1095h-225l-343 1176l-342 -1176h-225l-305 1095q-20 72 -36 126.5t-29.5 98t-25.5 77t-24 63.5zM602 1600l340 430h170l340 -430h-150l-275 280 l-275 -280h-150z" />
<glyph unicode="&#x175;" horiz-adv-x="1550" d="M45 1020h185l210 -805l260 805h150l260 -805l210 805h185q-18 -57 -31.5 -102.5t-25.5 -87t-23.5 -81t-24.5 -84.5l-185 -665h-190l-250 785l-250 -785h-190l-185 665q-11 40 -22.5 79t-24 81t-26.5 90t-32 105zM350 1170l340 430h170l340 -430h-150l-275 280l-275 -280 h-150z" />
<glyph unicode="&#x176;" horiz-adv-x="1320" d="M35 1460h230l395 -661l375 661h230q-44 -63 -78 -114.5t-62.5 -97.5t-55 -90t-54.5 -93l-270 -462v-168q0 -148 2 -261.5t13 -173.5h-220q11 60 13 173.5t2 261.5v176l-265 454q-29 49 -56.5 96t-57.5 95t-64.5 98t-76.5 106zM225 1600l340 430h170l340 -430h-150 l-275 280l-275 -280h-150z" />
<glyph unicode="&#x177;" horiz-adv-x="1060" d="M-20 -385l60 160q16 -13 37.5 -26.5t46 -24t50.5 -17.5t51 -7q30 0 59 10.5t58.5 40t60.5 83t66 140.5l-279 691q-28 68 -65 153t-95 202h200l323 -817q19 54 41.5 117.5t46.5 131t48 136t46 131.5q52 148 105 301h200q-26 -58 -47 -107.5t-39 -93t-32.5 -81.5t-26.5 -73 l-240 -665q-52 -144 -102 -235t-101.5 -143.5t-107 -72t-119.5 -19.5q-69 0 -129.5 22t-115.5 63zM110 1170l340 430h170l340 -430h-150l-275 280l-275 -280h-150z" />
<glyph unicode="&#x178;" horiz-adv-x="1320" d="M35 1460h230l395 -661l375 661h230q-44 -63 -78 -114.5t-62.5 -97.5t-55 -90t-54.5 -93l-270 -462v-168q0 -148 2 -261.5t13 -173.5h-220q11 60 13 173.5t2 261.5v176l-265 454q-29 49 -56.5 96t-57.5 95t-64.5 98t-76.5 106zM313 1775q0 28 9.5 52.5t26.5 43t40 29 t51 10.5t51.5 -10.5t40.5 -29t26.5 -43t9.5 -52.5t-9.5 -52.5t-26.5 -43t-40.5 -29t-51.5 -10.5t-51 10.5t-40 29t-26.5 43t-9.5 52.5zM733 1775q0 28 9.5 52.5t26.5 43t40 29t51 10.5t51.5 -10.5t40.5 -29t26.5 -43t9.5 -52.5t-9.5 -52.5t-26.5 -43t-40.5 -29t-51.5 -10.5 t-51 10.5t-40 29t-26.5 43t-9.5 52.5z" />
<glyph unicode="&#x179;" horiz-adv-x="1230" d="M75 0v125l795 1170h-340q-74 0 -133.5 -0.5t-107.5 -3t-86 -6.5t-68 -10v185h970v-130l-795 -1165h390q147 0 261 4.5t174 15.5v-185h-1060zM425 1600l350 430h230l-420 -430h-160z" />
<glyph unicode="&#x17a;" horiz-adv-x="1040" d="M105 0v110l575 760h-390q-45 0 -86 -2t-69 -13v165h795v-95l-595 -775h430q44 0 89.5 2t90.5 13v-165h-840zM345 1170l350 430h230l-420 -430h-160z" />
<glyph unicode="&#x17b;" horiz-adv-x="1230" d="M75 0v125l795 1170h-340q-74 0 -133.5 -0.5t-107.5 -3t-86 -6.5t-68 -10v185h970v-130l-795 -1165h390q147 0 261 4.5t174 15.5v-185h-1060zM470 1775q0 28 10.5 52.5t29 43t43 29t52.5 10.5t52.5 -10.5t43 -29t29 -43t10.5 -52.5t-10.5 -52.5t-29 -43t-43 -29 t-52.5 -10.5t-52.5 10.5t-43 29t-29 43t-10.5 52.5z" />
<glyph unicode="&#x17c;" horiz-adv-x="1040" d="M105 0v110l575 760h-390q-45 0 -86 -2t-69 -13v165h795v-95l-595 -775h430q44 0 89.5 2t90.5 13v-165h-840zM390 1345q0 28 10.5 52.5t29 43t43 29t52.5 10.5t52.5 -10.5t43 -29t29 -43t10.5 -52.5t-10.5 -52.5t-29 -43t-43 -29t-52.5 -10.5t-52.5 10.5t-43 29t-29 43 t-10.5 52.5z" />
<glyph unicode="&#x17d;" horiz-adv-x="1230" d="M75 0v125l795 1170h-340q-74 0 -133.5 -0.5t-107.5 -3t-86 -6.5t-68 -10v185h970v-130l-795 -1165h390q147 0 261 4.5t174 15.5v-185h-1060zM180 2030h150l275 -280l275 280h150l-340 -430h-170z" />
<glyph unicode="&#x17e;" horiz-adv-x="1040" d="M100 1600h150l275 -280l275 280h150l-340 -430h-170zM105 0v110l575 760h-390q-45 0 -86 -2t-69 -13v165h795v-95l-595 -775h430q44 0 89.5 2t90.5 13v-165h-840z" />
<glyph unicode="&#x181;" horiz-adv-x="1617" d="M0 1065q0 103 41 179.5t117 126.5t183 74.5t238 24.5h276q275 0 408.5 -84.5t133.5 -264.5q0 -63 -19 -113.5t-52.5 -90t-78 -68.5t-95.5 -48q58 -15 115 -41.5t102.5 -70.5t74 -109.5t28.5 -158.5q0 -91 -32.5 -169.5t-100.5 -136.5t-172.5 -91t-248.5 -33 q-77 0 -152.5 1.5t-136.5 3.5q-71 2 -137 5q6 30 9 77t4.5 106t1.5 128v1003q-63 0 -122 -14.5t-104.5 -43.5t-73 -73t-27.5 -104q0 -32 3 -56.5t8.5 -45.5t14 -40t19.5 -38l-170 -40q-10 19 -20 44.5t-17.5 53t-12.5 55.5t-5 52zM697 155q28 -2 84 -3.5t141 -1.5 q64 0 127.5 13t114 44t82 83t31.5 130q0 139 -94.5 209.5t-270.5 70.5h-215v-545zM697 856h175q80 0 141.5 17t103.5 48t63.5 74.5t21.5 95.5q0 58 -18.5 100t-62.5 69.5t-116.5 41t-179.5 13.5h-128v-459z" />
<glyph unicode="&#x186;" horiz-adv-x="1320" d="M95 188l103 163q32 -46 74.5 -83t92 -63.5t104 -40.5t111.5 -14q82 0 158.5 38.5t135.5 111t95 177.5t36 238q0 138 -33.5 248t-93 187t-141 118.5t-177.5 41.5q-112 0 -208 -55.5t-172 -154.5l-40 215q36 40 89 71.5t114 53.5t125.5 33.5t121.5 11.5q74 0 148.5 -22 t142 -64.5t126 -105.5t101.5 -145t67.5 -183t24.5 -220q0 -182 -51.5 -325t-139.5 -242t-204 -151t-245 -52q-64 0 -131 13t-128.5 39.5t-115 66.5t-90.5 94z" />
<glyph unicode="&#x189;" horiz-adv-x="1435" d="M0 690v145h175v308q0 70 -1.5 130.5t-4.5 108.5t-9 78q21 1 53.5 2.5t72 2.5t83 2t87 1.5t84.5 1t75 0.5q40 0 91.5 -4.5t108 -17.5t116 -36.5t115 -61.5t104.5 -92t85.5 -128t58 -170.5t21.5 -219.5q0 -149 -33 -262.5t-88.5 -196.5t-128.5 -139t-153 -90t-162 -48 t-155 -14q-24 0 -55.5 0.5t-66.5 1t-72 1.5t-72 2q-82 2 -169 5q6 30 8.5 77t4 106t2 128.5t0.5 143.5v235h-175zM365 165q35 -3 91.5 -6.5t128.5 -3.5q67 0 132.5 13t125 41.5t110.5 73.5t88 107.5t58 144.5t21 185q0 168 -42.5 281t-114.5 181.5t-168.5 98t-204.5 29.5 q-25 0 -56 -0.5t-62.5 -1.5t-59.5 -1.5t-47 -1.5v-470h380v-145h-380v-525z" />
<glyph unicode="&#x18a;" horiz-adv-x="1765" d="M0 1065q0 103 41 179.5t117 126.5t183 74.5t238 24.5h306q51 0 111 -4.5t123 -17.5t126.5 -36.5t122 -61.5t109 -92t88 -128t59 -170.5t21.5 -219.5q0 -149 -33 -262.5t-88.5 -196.5t-128.5 -139t-153 -90t-162 -48t-155 -14q-24 0 -55.5 0.5t-66.5 1t-72 1.5t-72 2 q-82 2 -169 5q6 30 9 77t4.5 106t1.5 128v999q-63 -1 -122 -14.5t-104 -42t-72 -71.5t-27 -102q0 -32 3 -56.5t8.5 -45.5t14 -40t19.5 -38l-170 -40q-10 19 -20 44.5t-17.5 53t-12.5 55.5t-5 52zM695 165q35 -3 91.5 -6.5t128.5 -3.5q67 0 132.5 13t125 41.5t110.5 73.5 t88 107.5t58 144.5t21 185q0 168 -44.5 281t-123.5 181.5t-187 98t-235 29.5h-165v-1145z" />
<glyph unicode="&#x18e;" horiz-adv-x="1160" d="M120 0v180q60 -11 161 -13t250 -2h264v520h-570v160h570v450h-645v165h850q-11 -60 -13 -173.5t-2 -261.5v-590q0 -148 2 -261.5t13 -173.5h-880z" />
<glyph unicode="&#x190;" horiz-adv-x="1185" d="M125 385q0 73 23 135.5t62.5 110.5t92.5 81t112 48q-50 19 -92 53t-72.5 79t-48 98.5t-17.5 109.5q0 62 28 130t86 124.5t146.5 93.5t209.5 37q61 0 110.5 -5.5t92.5 -16.5t82 -28t80 -40l-40 -190q-47 32 -89.5 53.5t-83.5 34t-81 17.5t-81 5q-60 0 -110.5 -16t-87 -43 t-57 -63.5t-20.5 -77.5q0 -72 34.5 -124t91.5 -85.5t129.5 -49.5t149.5 -16v-160q-46 0 -98.5 -5t-104 -16.5t-99 -32t-84 -51t-58 -72.5t-21.5 -98q0 -63 24.5 -110.5t65 -79.5t94 -48.5t111.5 -16.5q55 0 113 13t114.5 37.5t108.5 58.5t94 76l40 -195q-44 -41 -103 -71.5 t-124 -51.5t-131 -31.5t-122 -10.5q-125 0 -214 36t-146 94.5t-83.5 131.5t-26.5 148z" />
<glyph unicode="&#x192;" horiz-adv-x="730" d="M-190 -405l35 165q16 -12 40.5 -23t51.5 -19.5t53.5 -13t47.5 -4.5q40 0 73.5 15.5t57.5 48.5t37.5 85t13.5 126v875h-200v145h200v175q0 225 91.5 337.5t253.5 112.5q59 0 116 -18.5t104 -51.5l-46 -150q-38 28 -84 44t-90 16q-39 0 -69 -13.5t-50 -43.5t-30.5 -77.5 t-10.5 -115.5v-215h270v-145h-270v-356q0 -146 -1 -267t-1 -202q0 -140 -26.5 -235t-75 -152.5t-118 -82.5t-154.5 -25q-21 0 -49.5 4.5t-58.5 12.5t-59.5 20.5t-51.5 27.5z" />
<glyph unicode="&#x197;" horiz-adv-x="1035" d="M150 690v145h260v480h-240v145h675v-145h-245v-480h265v-145h-265v-545h245v-145h-675v145h240v545h-260z" />
<glyph unicode="&#x198;" horiz-adv-x="1235" d="M160 0q11 60 13 173.5t2 261.5v590q0 148 -2 261.5t-13 173.5h205v-672l360 437q56 69 102.5 118t90 80.5t87.5 46.5t95 15q57 0 112.5 -20t107.5 -70l-70 -150q-26 28 -46.5 44t-39 24t-36.5 10t-38 2q-37 0 -70 -21t-67.5 -58t-72.5 -86t-85 -105l-236 -281l671 -774 h-245l-620 717v-717h-205z" />
<glyph unicode="&#x199;" horiz-adv-x="1020" d="M130 0v1100q0 126 26.5 223t82 163t142.5 100t209 34q61 0 127 -15.5t138 -60.5l-80 -140q-53 31 -99 43.5t-101 12.5q-68 0 -117 -23t-81 -66t-47 -104t-15 -137v-529l405 419h250l-495 -447l525 -573h-245l-440 520v-520h-185z" />
<glyph unicode="&#x19a;" horiz-adv-x="825" d="M100 735v145h220v250q0 146 -5 264.5t-15 205.5h205v-720h220v-145h-220v-260q0 -48 1.5 -113t4 -132t6 -128t8.5 -102h-205v735h-220z" />
<glyph unicode="&#x19d;" horiz-adv-x="1548" d="M-225 -395l35 165q18 -14 42.5 -27t52.5 -24t59 -17.5t61 -6.5q42 0 78 17.5t63 52.5t42 87.5t15 122.5v1050q0 148 -2 261.5t-13 173.5h180l795 -1157v1157h180q-5 -30 -8 -74t-4.5 -99.5t-2 -121.5t-0.5 -140v-1025h-165l-795 1152v-1127q0 -140 -26 -235t-75 -152.5 t-118 -82.5t-154 -25q-29 0 -61 5t-64 14.5t-62 23.5t-53 32z" />
<glyph unicode="&#x19f;" horiz-adv-x="1460" d="M95 720q0 120 24.5 223t68 188t103.5 151t130.5 111t149 68.5t159.5 23.5q119 0 229.5 -49t195 -144t135 -233.5t50.5 -318.5t-53.5 -322t-142 -240.5t-201.5 -150.5t-233 -52q-121 0 -232 49t-196 144t-136 233.5t-51 318.5zM292 670q8 -121 42 -217t89.5 -163.5 t130.5 -103.5t166 -36q88 0 163 35t131 102t90 163.5t40 219.5h-852zM292 815h848q-11 116 -45.5 208t-89 155.5t-127 97.5t-158.5 34q-89 0 -163.5 -34.5t-130.5 -98.5t-90.5 -156t-43.5 -206z" />
<glyph unicode="&#x1a0;" horiz-adv-x="1520" d="M95 720q0 120 24.5 223t68 188t103.5 151t130.5 111t149 68.5t159.5 23.5q123 0 235 -51.5t198 -151.5q31 22 58 51t47 63.5t31 73.5t11 80h-180v120q20 48 59.5 74t105.5 26q34 0 64 -13.5t52.5 -37.5t35.5 -58t13 -76q0 -63 -17.5 -118.5t-49 -103.5t-75 -89.5 t-95.5 -75.5q55 -90 86 -204t31 -254q0 -180 -53.5 -322t-142 -240.5t-201.5 -150.5t-233 -52q-121 0 -232 49t-196 144t-136 233.5t-51 318.5zM290 745q0 -137 30.5 -247t87 -187.5t135.5 -119t177 -41.5q92 0 170 38.5t134.5 111t88.5 177.5t32 238q0 138 -30.5 248.5 t-86.5 187.5t-134.5 118t-173.5 41t-174 -39.5t-136 -113t-88.5 -178t-31.5 -234.5z" />
<glyph unicode="&#x1a1;" horiz-adv-x="1300" d="M95 505q0 129 39 228.5t105 168t154 103.5t187 35q125 0 222.5 -50.5t158.5 -149.5q36 19 66 43.5t51.5 53.5t34 62.5t12.5 70.5h-150v100q10 24 21.5 42.5t28 31.5t39.5 19.5t56 6.5q30 0 56.5 -11.5t46 -33t31 -52t11.5 -68.5q0 -54 -18.5 -103t-53 -92.5t-82.5 -82 t-108 -71.5q20 -54 31 -116.5t11 -134.5q0 -129 -39 -228t-105 -166t-154 -101.5t-187 -34.5q-103 0 -188.5 34.5t-147 101.5t-95.5 166t-34 228zM280 505q0 -87 21 -156t59.5 -116.5t91.5 -72.5t118 -25q60 0 113 25t92.5 72.5t62 116.5t22.5 156q0 88 -21 157.5t-59.5 118 t-92 74t-117.5 25.5q-61 0 -114 -25.5t-92 -74t-61.5 -118t-22.5 -157.5z" />
<glyph unicode="&#x1a9;" horiz-adv-x="1230" d="M75 0v130l426 620l-396 580v130h970v-185q-30 6 -68 10t-86 6.5t-107.5 3t-133.5 0.5h-340l370 -544l-430 -586h420q63 0 128 1t123 3.5t106 6.5t78 9v-185h-1060z" />
<glyph unicode="&#x1aa;" horiz-adv-x="945" d="M0 1200q0 95 28 172.5t77 132.5t116 85t144 30q78 0 144 -25t114 -82.5t75 -152.5t27 -235q0 -81 -3.5 -202.5t-6.5 -267.5q-1 -24 -2.5 -78.5t-3.5 -125t-4.5 -149t-4.5 -150.5t-3.5 -128.5t-1.5 -83.5q0 -56 13 -100t36.5 -75.5t56.5 -48t74 -16.5q44 0 80.5 16 t74.5 44l45 -160q-47 -33 -104 -51.5t-116 -18.5q-171 0 -258 112t-87 338q0 13 1.5 61.5t3.5 120.5t5 162t6 186t6 193.5t6 184.5q-40 -27 -90 -47.5t-103 -20.5q-64 0 -126 27.5t-110.5 77.5t-78.5 120t-30 155zM165 1220q0 -52 14 -96t39 -76t60 -50t77 -18 q45 0 79.5 18.5t58.5 49t37.5 69t17.5 77.5q1 11 1 17v9q0 56 -15.5 100.5t-41.5 75.5t-61.5 47.5t-75.5 16.5q-44 0 -79 -19t-60 -52t-38 -76.5t-13 -92.5z" />
<glyph unicode="&#x1af;" horiz-adv-x="1645" d="M160 1460h205v-900q0 -98 17 -176.5t57 -134t106 -85t165 -29.5q97 0 162 29.5t104.5 85t56.5 134t17 176.5v900h190v-223q33 24 66 63t59.5 85.5t43 97t16.5 97.5h-180v120q20 48 59.5 74t105.5 26q34 0 64 -13.5t52.5 -37.5t35.5 -58t13 -76q0 -71 -27.5 -144.5 t-74 -139.5t-107 -120.5t-126.5 -88.5v-607q0 -122 -32 -221.5t-97.5 -170.5t-165.5 -109.5t-235 -38.5q-137 0 -237.5 38.5t-166.5 109.5t-98.5 170.5t-32.5 221.5v510q0 148 -2.5 261.5t-12.5 173.5z" />
<glyph unicode="&#x1b0;" horiz-adv-x="1441" d="M161 1020h205v-555q0 -85 8.5 -146.5t28.5 -101t52.5 -58.5t80.5 -19q44 0 94 26.5t95.5 67.5t83 90.5t57.5 95.5v280q0 49 -0.5 88.5t-2.5 75.5t-6 73t-11 83h205v-203q33 16 66 39.5t59.5 55t43 71t16.5 87.5h-150v100q10 24 21.5 42.5t28 31.5t39.5 19.5t56 6.5 q30 0 56.5 -11.5t46 -33t31 -52t11.5 -68.5q0 -79 -24.5 -138t-68 -105.5t-103 -83.5t-129.5 -71v-257q0 -146 16.5 -255.5t48.5 -194.5h-170q-7 17 -15 40t-15.5 49t-14 54.5t-10.5 56.5q-91 -111 -187.5 -168t-202.5 -57q-320 0 -320 430v295q0 48 -0.5 87t-2.5 75.5 t-6 74.5t-11 83z" />
<glyph unicode="&#x1b3;" horiz-adv-x="1320" d="M-120 1400q15 18 37.5 33.5t49.5 27t57 18t61 6.5q53 0 98 -17.5t88 -56t86 -99t93 -147.5l209 -366l396 661h230q-42 -56 -76.5 -106t-64.5 -98t-58 -95t-56 -96l-265 -454v-176q0 -148 2 -261.5t13 -173.5h-220q11 60 13 173.5t2 261.5v168l-235 402q-55 94 -92 155.5 t-65 97t-51.5 49.5t-51.5 14q-34 0 -64.5 -15t-42.5 -41z" />
<glyph unicode="&#x1b4;" horiz-adv-x="1224" d="M-20 -385l60 160q16 -13 37.5 -26.5t46 -24t50.5 -17.5t51 -7q30 0 59 10.5t58.5 40t60.5 83t66 140.5l-279 691q-28 68 -65 153t-95 202h200l320 -810q18 61 39 132t42.5 145t42.5 148t40.5 140t36.5 120.5t30 90.5q31 90 68 153t79 103.5t89.5 59t101.5 18.5 q33 0 60.5 -6.5t52.5 -19.5t49 -33.5t48 -47.5l-75 -158q-33 52 -71.5 74t-68.5 22q-32 0 -60 -17t-53.5 -56.5t-50.5 -103.5t-51 -158q-34 -121 -69 -243.5t-67 -232t-60 -198.5t-48 -142q-54 -144 -104 -235t-101 -143.5t-106 -72t-119 -19.5q-69 0 -129.5 22t-115.5 63z " />
<glyph unicode="&#x1b7;" horiz-adv-x="1312" d="M115 -105q54 -36 113 -70t122 -61t130.5 -43t139.5 -16q54 0 106 16t98 45t85 68t67 86t43.5 99t15.5 106q0 88 -31 163t-88 130t-138.5 86t-182.5 31q-43 0 -95.5 -3.5t-104.5 -11.5v154l545 621h-370q-74 0 -133.5 -0.5t-107.5 -3t-86 -6.5t-68 -10v185h980v-170 l-522 -593q142 0 251 -42.5t176 -109.5q30 -30 58.5 -69.5t51 -91t36.5 -116t14 -143.5q0 -130 -51 -239t-137 -188t-198 -123.5t-234 -44.5q-71 0 -139.5 12.5t-131 33.5t-117 48t-97.5 56v215z" />
<glyph unicode="&#x1cd;" horiz-adv-x="1395" d="M40 0q13 30 27 63t30.5 74.5t36.5 94.5t46 123l400 1105h215l400 -1105q25 -70 45 -123t37 -94.5t31 -74.5t27 -63h-205l-136 385h-615l-134 -385h-205zM262 2030h150l275 -280l275 280h150l-340 -430h-170zM433 540h507l-255 725z" />
<glyph unicode="&#x1ce;" d="M95 255q0 57 19 115.5t65 108t123 85t193 46.5q26 3 65.5 6.5t80 7.5t75 7t49.5 4v75q0 91 -63.5 130.5t-176.5 39.5q-80 0 -158.5 -31.5t-166.5 -93.5q0 16 1 42.5t2 55t3 55t4 42.5q39 16 78.5 32.5t83 29t92.5 20.5t106 8q86 0 156.5 -21.5t120 -59t76.5 -88.5 t27 -111v-390q0 -108 21 -197t54 -173h-180q-9 24 -24 65.5t-26 89.5q-89 -95 -185 -137.5t-190 -42.5q-71 0 -130.5 23t-102.5 61.5t-67.5 89t-24.5 106.5zM115 1600h150l275 -280l275 280h150l-340 -430h-170zM280 280q0 -30 12.5 -55.5t35 -44t53.5 -29.5t69 -11t75 6.5 t75.5 26t79 56t85.5 96.5v170q-19 -1 -53 -4t-72 -6.5t-74.5 -7.5t-60.5 -7q-64 -8 -107 -25.5t-69.5 -42.5t-37.5 -56.5t-11 -65.5z" />
<glyph unicode="&#x1cf;" horiz-adv-x="975" d="M52 2030h150l275 -280l275 280h150l-340 -430h-170zM140 0v145h240v1170h-240v145h675v-145h-245v-1170h245v-145h-675z" />
<glyph unicode="&#x1d0;" horiz-adv-x="530" d="M-160 1600h150l275 -280l275 280h150l-340 -430h-170zM155 1020h200v-545q0 -48 1.5 -113.5t4 -132.5t6 -128t8.5 -101h-205v530q0 73 -0.5 144t-2 134.5t-4.5 118t-8 93.5z" />
<glyph unicode="&#x1d1;" horiz-adv-x="1460" d="M95 720q0 120 24.5 223t68 188t103.5 151t130.5 111t149 68.5t159.5 23.5q119 0 229.5 -49t195 -144t135 -233.5t50.5 -318.5t-53.5 -322t-142 -240.5t-201.5 -150.5t-233 -52q-121 0 -232 49t-196 144t-136 233.5t-51 318.5zM290 745q0 -137 30.5 -247t87 -187.5 t135.5 -119t177 -41.5q92 0 170 38.5t134.5 111t88.5 177.5t32 238q0 138 -30.5 248.5t-86.5 187.5t-134.5 118t-173.5 41t-174 -39.5t-136 -113t-88.5 -178t-31.5 -234.5zM292 2030h150l275 -280l275 280h150l-340 -430h-170z" />
<glyph unicode="&#x1d2;" horiz-adv-x="1140" d="M95 505q0 129 39 228.5t105 168t154 103.5t187 35q103 0 188.5 -35t147 -103.5t95.5 -168t34 -228.5t-39 -228t-105 -166t-154 -101.5t-187 -34.5q-103 0 -188.5 34.5t-147 101.5t-95.5 166t-34 228zM145 1600h150l275 -280l275 280h150l-340 -430h-170zM280 505 q0 -87 21 -156t59.5 -116.5t91.5 -72.5t118 -25q60 0 113 25t92.5 72.5t62 116.5t22.5 156q0 88 -21 157.5t-59.5 118t-92 74t-117.5 25.5q-61 0 -114 -25.5t-92 -74t-61.5 -118t-22.5 -157.5z" />
<glyph unicode="&#x1d3;" horiz-adv-x="1440" d="M160 1460h205v-900q0 -98 17 -176.5t57 -134t106 -85t165 -29.5q97 0 162 29.5t104.5 85t56.5 134t17 176.5v900h205q-10 -60 -12.5 -169.5t-2.5 -265.5v-510q0 -122 -32 -221.5t-97.5 -170.5t-165.5 -109.5t-235 -38.5q-137 0 -237.5 38.5t-166.5 109.5t-98.5 170.5 t-32.5 221.5v510q0 148 -2.5 261.5t-12.5 173.5zM282 2030h150l275 -280l275 280h150l-340 -430h-170z" />
<glyph unicode="&#x1d4;" horiz-adv-x="1185" d="M135 1020h205v-555q0 -85 8.5 -146.5t28.5 -101t52.5 -58.5t80.5 -19q44 0 94 26.5t95.5 67.5t83 90.5t57.5 95.5v280q0 49 -0.5 88.5t-2.5 75.5t-6 73t-11 83h205v-570q0 -146 16.5 -255.5t48.5 -194.5h-170q-7 17 -15 40t-15.5 49t-14 54.5t-10.5 56.5 q-91 -111 -187.5 -168t-202.5 -57q-320 0 -320 430v295q0 48 -0.5 87t-2.5 75.5t-6 74.5t-11 83zM164 1600h150l275 -280l275 280h150l-340 -430h-170z" />
<glyph unicode="&#x1d5;" horiz-adv-x="1440" d="M160 1460h205v-900q0 -98 17 -176.5t57 -134t106 -85t165 -29.5q97 0 162 29.5t104.5 85t56.5 134t17 176.5v900h205q-10 -60 -12.5 -169.5t-2.5 -265.5v-510q0 -122 -32 -221.5t-97.5 -170.5t-165.5 -109.5t-235 -38.5q-137 0 -237.5 38.5t-166.5 109.5t-98.5 170.5 t-32.5 221.5v510q0 148 -2.5 261.5t-12.5 173.5zM332 2075v150h750v-150h-750zM370 1775q0 28 9.5 52.5t26.5 43t40 29t51 10.5t51.5 -10.5t40.5 -29t26.5 -43t9.5 -52.5t-9.5 -52.5t-26.5 -43t-40.5 -29t-51.5 -10.5t-51 10.5t-40 29t-26.5 43t-9.5 52.5zM790 1775 q0 28 9.5 52.5t26.5 43t40 29t51 10.5t51.5 -10.5t40.5 -29t26.5 -43t9.5 -52.5t-9.5 -52.5t-26.5 -43t-40.5 -29t-51.5 -10.5t-51 10.5t-40 29t-26.5 43t-9.5 52.5z" />
<glyph unicode="&#x1d6;" horiz-adv-x="1185" d="M135 1020h205v-555q0 -85 8.5 -146.5t28.5 -101t52.5 -58.5t80.5 -19q44 0 94 26.5t95.5 67.5t83 90.5t57.5 95.5v280q0 49 -0.5 88.5t-2.5 75.5t-6 73t-11 83h205v-570q0 -146 16.5 -255.5t48.5 -194.5h-170q-7 17 -15 40t-15.5 49t-14 54.5t-10.5 56.5 q-91 -111 -187.5 -168t-202.5 -57q-320 0 -320 430v295q0 48 -0.5 87t-2.5 75.5t-6 74.5t-11 83zM214 1645v150h750v-150h-750zM252 1345q0 28 9.5 52.5t26.5 43t40 29t51 10.5t51.5 -10.5t40.5 -29t26.5 -43t9.5 -52.5t-9.5 -52.5t-26.5 -43t-40.5 -29t-51.5 -10.5 t-51 10.5t-40 29t-26.5 43t-9.5 52.5zM672 1345q0 28 9.5 52.5t26.5 43t40 29t51 10.5t51.5 -10.5t40.5 -29t26.5 -43t9.5 -52.5t-9.5 -52.5t-26.5 -43t-40.5 -29t-51.5 -10.5t-51 10.5t-40 29t-26.5 43t-9.5 52.5z" />
<glyph unicode="&#x1d7;" horiz-adv-x="1440" d="M160 1460h205v-900q0 -98 17 -176.5t57 -134t106 -85t165 -29.5q97 0 162 29.5t104.5 85t56.5 134t17 176.5v900h205q-10 -60 -12.5 -169.5t-2.5 -265.5v-510q0 -122 -32 -221.5t-97.5 -170.5t-165.5 -109.5t-235 -38.5q-137 0 -237.5 38.5t-166.5 109.5t-98.5 170.5 t-32.5 221.5v510q0 148 -2.5 261.5t-12.5 173.5zM370 1775q0 28 9.5 52.5t26.5 43t40 29t51 10.5t51.5 -10.5t40.5 -29t26.5 -43t9.5 -52.5t-9.5 -52.5t-26.5 -43t-40.5 -29t-51.5 -10.5t-51 10.5t-40 29t-26.5 43t-9.5 52.5zM527 2005l350 430h230l-420 -430h-160z M790 1775q0 28 9.5 52.5t26.5 43t40 29t51 10.5t51.5 -10.5t40.5 -29t26.5 -43t9.5 -52.5t-9.5 -52.5t-26.5 -43t-40.5 -29t-51.5 -10.5t-51 10.5t-40 29t-26.5 43t-9.5 52.5z" />
<glyph unicode="&#x1d8;" horiz-adv-x="1185" d="M135 1020h205v-555q0 -85 8.5 -146.5t28.5 -101t52.5 -58.5t80.5 -19q44 0 94 26.5t95.5 67.5t83 90.5t57.5 95.5v280q0 49 -0.5 88.5t-2.5 75.5t-6 73t-11 83h205v-570q0 -146 16.5 -255.5t48.5 -194.5h-170q-7 17 -15 40t-15.5 49t-14 54.5t-10.5 56.5 q-91 -111 -187.5 -168t-202.5 -57q-320 0 -320 430v295q0 48 -0.5 87t-2.5 75.5t-6 74.5t-11 83zM252 1345q0 28 9.5 52.5t26.5 43t40 29t51 10.5t51.5 -10.5t40.5 -29t26.5 -43t9.5 -52.5t-9.5 -52.5t-26.5 -43t-40.5 -29t-51.5 -10.5t-51 10.5t-40 29t-26.5 43t-9.5 52.5z M409 1575l350 430h230l-420 -430h-160zM672 1345q0 28 9.5 52.5t26.5 43t40 29t51 10.5t51.5 -10.5t40.5 -29t26.5 -43t9.5 -52.5t-9.5 -52.5t-26.5 -43t-40.5 -29t-51.5 -10.5t-51 10.5t-40 29t-26.5 43t-9.5 52.5z" />
<glyph unicode="&#x1d9;" horiz-adv-x="1440" d="M160 1460h205v-900q0 -98 17 -176.5t57 -134t106 -85t165 -29.5q97 0 162 29.5t104.5 85t56.5 134t17 176.5v900h205q-10 -60 -12.5 -169.5t-2.5 -265.5v-510q0 -122 -32 -221.5t-97.5 -170.5t-165.5 -109.5t-235 -38.5q-137 0 -237.5 38.5t-166.5 109.5t-98.5 170.5 t-32.5 221.5v510q0 148 -2.5 261.5t-12.5 173.5zM282 2435h150l275 -280l275 280h150l-340 -430h-170zM370 1775q0 28 9.5 52.5t26.5 43t40 29t51 10.5t51.5 -10.5t40.5 -29t26.5 -43t9.5 -52.5t-9.5 -52.5t-26.5 -43t-40.5 -29t-51.5 -10.5t-51 10.5t-40 29t-26.5 43 t-9.5 52.5zM790 1775q0 28 9.5 52.5t26.5 43t40 29t51 10.5t51.5 -10.5t40.5 -29t26.5 -43t9.5 -52.5t-9.5 -52.5t-26.5 -43t-40.5 -29t-51.5 -10.5t-51 10.5t-40 29t-26.5 43t-9.5 52.5z" />
<glyph unicode="&#x1da;" horiz-adv-x="1185" d="M135 1020h205v-555q0 -85 8.5 -146.5t28.5 -101t52.5 -58.5t80.5 -19q44 0 94 26.5t95.5 67.5t83 90.5t57.5 95.5v280q0 49 -0.5 88.5t-2.5 75.5t-6 73t-11 83h205v-570q0 -146 16.5 -255.5t48.5 -194.5h-170q-7 17 -15 40t-15.5 49t-14 54.5t-10.5 56.5 q-91 -111 -187.5 -168t-202.5 -57q-320 0 -320 430v295q0 48 -0.5 87t-2.5 75.5t-6 74.5t-11 83zM164 2005h150l275 -280l275 280h150l-340 -430h-170zM252 1345q0 28 9.5 52.5t26.5 43t40 29t51 10.5t51.5 -10.5t40.5 -29t26.5 -43t9.5 -52.5t-9.5 -52.5t-26.5 -43 t-40.5 -29t-51.5 -10.5t-51 10.5t-40 29t-26.5 43t-9.5 52.5zM672 1345q0 28 9.5 52.5t26.5 43t40 29t51 10.5t51.5 -10.5t40.5 -29t26.5 -43t9.5 -52.5t-9.5 -52.5t-26.5 -43t-40.5 -29t-51.5 -10.5t-51 10.5t-40 29t-26.5 43t-9.5 52.5z" />
<glyph unicode="&#x1db;" horiz-adv-x="1440" d="M160 1460h205v-900q0 -98 17 -176.5t57 -134t106 -85t165 -29.5q97 0 162 29.5t104.5 85t56.5 134t17 176.5v900h205q-10 -60 -12.5 -169.5t-2.5 -265.5v-510q0 -122 -32 -221.5t-97.5 -170.5t-165.5 -109.5t-235 -38.5q-137 0 -237.5 38.5t-166.5 109.5t-98.5 170.5 t-32.5 221.5v510q0 148 -2.5 261.5t-12.5 173.5zM317 2435h230l350 -430h-160zM370 1775q0 28 9.5 52.5t26.5 43t40 29t51 10.5t51.5 -10.5t40.5 -29t26.5 -43t9.5 -52.5t-9.5 -52.5t-26.5 -43t-40.5 -29t-51.5 -10.5t-51 10.5t-40 29t-26.5 43t-9.5 52.5zM790 1775 q0 28 9.5 52.5t26.5 43t40 29t51 10.5t51.5 -10.5t40.5 -29t26.5 -43t9.5 -52.5t-9.5 -52.5t-26.5 -43t-40.5 -29t-51.5 -10.5t-51 10.5t-40 29t-26.5 43t-9.5 52.5z" />
<glyph unicode="&#x1dc;" horiz-adv-x="1185" d="M135 1020h205v-555q0 -85 8.5 -146.5t28.5 -101t52.5 -58.5t80.5 -19q44 0 94 26.5t95.5 67.5t83 90.5t57.5 95.5v280q0 49 -0.5 88.5t-2.5 75.5t-6 73t-11 83h205v-570q0 -146 16.5 -255.5t48.5 -194.5h-170q-7 17 -15 40t-15.5 49t-14 54.5t-10.5 56.5 q-91 -111 -187.5 -168t-202.5 -57q-320 0 -320 430v295q0 48 -0.5 87t-2.5 75.5t-6 74.5t-11 83zM199 2005h230l350 -430h-160zM252 1345q0 28 9.5 52.5t26.5 43t40 29t51 10.5t51.5 -10.5t40.5 -29t26.5 -43t9.5 -52.5t-9.5 -52.5t-26.5 -43t-40.5 -29t-51.5 -10.5 t-51 10.5t-40 29t-26.5 43t-9.5 52.5zM672 1345q0 28 9.5 52.5t26.5 43t40 29t51 10.5t51.5 -10.5t40.5 -29t26.5 -43t9.5 -52.5t-9.5 -52.5t-26.5 -43t-40.5 -29t-51.5 -10.5t-51 10.5t-40 29t-26.5 43t-9.5 52.5z" />
<glyph unicode="&#x1dd;" horiz-adv-x="1078" d="M100 450v38q0 25 1 39h698q-2 82 -26.5 146t-67.5 108t-101.5 67t-126.5 23q-97 0 -181.5 -31.5t-167.5 -92.5l-20 165q51 31 97.5 54t93.5 39t97 24t107 8q96 0 183 -33t153 -97.5t105 -159t39 -218.5t-29 -226.5t-88 -175.5t-147.5 -113.5t-207.5 -40.5 q-124 0 -203.5 41t-125.5 108.5t-64 153t-18 174.5zM284 387q0 -130 61.5 -199.5t179.5 -69.5q63 0 109.5 18.5t78.5 53t51 84.5t28 113h-508z" />
<glyph unicode="&#x1de;" horiz-adv-x="1395" d="M40 0q13 30 27 63t30.5 74.5t36.5 94.5t46 123l400 1105h215l400 -1105q25 -70 45 -123t37 -94.5t31 -74.5t27 -63h-205l-136 385h-615l-134 -385h-205zM312 2075v150h750v-150h-750zM350 1775q0 28 9.5 52.5t26.5 43t40 29t51 10.5t51.5 -10.5t40.5 -29t26.5 -43 t9.5 -52.5t-9.5 -52.5t-26.5 -43t-40.5 -29t-51.5 -10.5t-51 10.5t-40 29t-26.5 43t-9.5 52.5zM433 540h507l-255 725zM770 1775q0 28 9.5 52.5t26.5 43t40 29t51 10.5t51.5 -10.5t40.5 -29t26.5 -43t9.5 -52.5t-9.5 -52.5t-26.5 -43t-40.5 -29t-51.5 -10.5t-51 10.5t-40 29 t-26.5 43t-9.5 52.5z" />
<glyph unicode="&#x1df;" d="M95 255q0 57 19 115.5t65 108t123 85t193 46.5q26 3 65.5 6.5t80 7.5t75 7t49.5 4v75q0 91 -63.5 130.5t-176.5 39.5q-80 0 -158.5 -31.5t-166.5 -93.5q0 16 1 42.5t2 55t3 55t4 42.5q39 16 78.5 32.5t83 29t92.5 20.5t106 8q86 0 156.5 -21.5t120 -59t76.5 -88.5 t27 -111v-390q0 -108 21 -197t54 -173h-180q-9 24 -24 65.5t-26 89.5q-89 -95 -185 -137.5t-190 -42.5q-71 0 -130.5 23t-102.5 61.5t-67.5 89t-24.5 106.5zM165 1645v150h750v-150h-750zM203 1345q0 28 9.5 52.5t26.5 43t40 29t51 10.5t51.5 -10.5t40.5 -29t26.5 -43 t9.5 -52.5t-9.5 -52.5t-26.5 -43t-40.5 -29t-51.5 -10.5t-51 10.5t-40 29t-26.5 43t-9.5 52.5zM280 280q0 -30 12.5 -55.5t35 -44t53.5 -29.5t69 -11t75 6.5t75.5 26t79 56t85.5 96.5v170q-19 -1 -53 -4t-72 -6.5t-74.5 -7.5t-60.5 -7q-64 -8 -107 -25.5t-69.5 -42.5 t-37.5 -56.5t-11 -65.5zM623 1345q0 28 9.5 52.5t26.5 43t40 29t51 10.5t51.5 -10.5t40.5 -29t26.5 -43t9.5 -52.5t-9.5 -52.5t-26.5 -43t-40.5 -29t-51.5 -10.5t-51 10.5t-40 29t-26.5 43t-9.5 52.5z" />
<glyph unicode="&#x1e0;" horiz-adv-x="1395" d="M40 0q13 30 27 63t30.5 74.5t36.5 94.5t46 123l400 1105h215l400 -1105q25 -70 45 -123t37 -94.5t31 -74.5t27 -63h-205l-136 385h-615l-134 -385h-205zM312 2075v150h750v-150h-750zM433 540h507l-255 725zM552 1775q0 28 10.5 52.5t29 43t43 29t52.5 10.5t52.5 -10.5 t43 -29t29 -43t10.5 -52.5t-10.5 -52.5t-29 -43t-43 -29t-52.5 -10.5t-52.5 10.5t-43 29t-29 43t-10.5 52.5z" />
<glyph unicode="&#x1e1;" d="M95 255q0 57 19 115.5t65 108t123 85t193 46.5q26 3 65.5 6.5t80 7.5t75 7t49.5 4v75q0 91 -63.5 130.5t-176.5 39.5q-80 0 -158.5 -31.5t-166.5 -93.5q0 16 1 42.5t2 55t3 55t4 42.5q39 16 78.5 32.5t83 29t92.5 20.5t106 8q86 0 156.5 -21.5t120 -59t76.5 -88.5 t27 -111v-390q0 -108 21 -197t54 -173h-180q-9 24 -24 65.5t-26 89.5q-89 -95 -185 -137.5t-190 -42.5q-71 0 -130.5 23t-102.5 61.5t-67.5 89t-24.5 106.5zM165 1645v150h750v-150h-750zM280 280q0 -30 12.5 -55.5t35 -44t53.5 -29.5t69 -11t75 6.5t75.5 26t79 56 t85.5 96.5v170q-19 -1 -53 -4t-72 -6.5t-74.5 -7.5t-60.5 -7q-64 -8 -107 -25.5t-69.5 -42.5t-37.5 -56.5t-11 -65.5zM405 1345q0 28 10.5 52.5t29 43t43 29t52.5 10.5t52.5 -10.5t43 -29t29 -43t10.5 -52.5t-10.5 -52.5t-29 -43t-43 -29t-52.5 -10.5t-52.5 10.5t-43 29 t-29 43t-10.5 52.5z" />
<glyph unicode="&#x1e2;" horiz-adv-x="1805" d="M80 0q34 55 62 104.5t53.5 97t49.5 96t50 101.5l515 1061h845v-165h-545v-450h470v-160h-470v-520h164q149 0 250 2t161 13v-180h-780q3 17 5.5 42.5t4 68.5t2.5 109t2 165h-449l-190 -385h-200zM547 540h372q1 135 1 319v436zM640 1670v150h750v-150h-750z" />
<glyph unicode="&#x1e3;" horiz-adv-x="1745" d="M95 255q0 57 19 114t64 105.5t120 84.5t187 51q26 3 65.5 5.5t80 4t75 3t49.5 2.5v85q0 45 -19.5 77.5t-54 53t-82.5 30t-104 9.5q-40 0 -74.5 -8t-69 -24t-71 -39t-80.5 -54q0 16 1 42.5t2 55t3 55t4 42.5q39 16 74 32.5t73 29t82 20.5t101 8q51 0 100.5 -11t94 -32.5 t82 -54.5t63.5 -77q68 83 162 129t203 46q77 0 136.5 -19.5t103.5 -53.5t73.5 -80t48 -99t26 -110t7.5 -113v-80h-710q3 -88 29.5 -153t70.5 -107.5t103 -63.5t127 -21q48 0 94 5t91 17t89.5 31t90.5 47l20 -165q-53 -27 -102 -46t-98.5 -31t-100.5 -17.5t-109 -5.5 q-62 0 -120.5 14t-111 41.5t-96.5 69t-77 96.5q-11 -13 -22.5 -25.5t-22.5 -25.5q-44 -47 -89.5 -79.5t-91 -52.5t-92 -29t-92.5 -9q-71 0 -130.5 23t-102.5 61.5t-67.5 89t-24.5 106.5zM280 280q0 -30 12.5 -55.5t35 -44t53.5 -29.5t69 -11t75 6.5t74 26t75.5 56t80.5 96.5 q5 6 9 11.5t6 13.5q-7 31 -11 65t-4 70q-19 -1 -53 -2t-72 -2.5t-74.5 -4t-60.5 -6.5q-63 -11 -104 -29.5t-66 -42.5t-35 -54t-10 -64zM490 1240v150h750v-150h-750zM940 625h520q0 64 -18.5 113.5t-50 83.5t-73 51t-88.5 17q-110 0 -187.5 -64.5t-102.5 -200.5z" />
<glyph unicode="&#x1e6;" horiz-adv-x="1420" d="M95 720q0 180 53.5 322t146.5 240.5t218.5 150.5t269.5 52q61 0 118.5 -5.5t115 -20.5t117.5 -42.5t126 -71.5l-65 -180q-56 45 -108.5 74.5t-103.5 46t-100.5 23t-99.5 6.5q-114 0 -205.5 -40t-155.5 -114t-98 -179.5t-34 -236.5q0 -138 32.5 -248t93.5 -187.5 t147.5 -118.5t193.5 -41q45 0 84.5 4.5t78.5 15.5t79 29t86 46v335h-350v165h540v-590q-77 -54 -145 -89t-132 -55t-126 -28t-127 -8q-142 0 -261 49t-205.5 144t-135 233.5t-48.5 318.5zM320 2030h150l275 -280l275 280h150l-340 -430h-170z" />
<glyph unicode="&#x1e7;" horiz-adv-x="1095" d="M30 -200q0 81 59.5 148t186.5 121q-54 31 -75 69t-21 77q0 19 7.5 41.5t22.5 44.5t36.5 42t49.5 36q-83 47 -132 124.5t-49 176.5q0 76 30.5 142t84.5 114.5t127 76t158 27.5q73 0 137.5 -20.5t115.5 -57.5q65 33 141 53t141 25l-10 -160q-40 -2 -82 -8t-89 -20 q22 -38 34 -81t12 -91q0 -77 -30.5 -142t-84.5 -112t-127 -74t-158 -27q-19 0 -36.5 1.5t-34.5 3.5q-55 -23 -77 -48t-22 -47q0 -14 14 -28.5t51 -29t99.5 -27.5t160.5 -25q111 -13 187 -38t122 -61t66 -82.5t20 -103.5q0 -54 -22.5 -100.5t-61 -84.5t-90.5 -68t-111 -50.5 t-122 -31t-123 -10.5q-58 0 -118 8t-116 24.5t-105.5 41.5t-86 59t-58 77t-21.5 95zM90 1600h150l275 -280l275 280h150l-340 -430h-170zM215 -180q0 -30 20.5 -62t62 -58.5t104.5 -43t148 -16.5q68 0 128 17.5t105 45.5t71 61.5t26 65.5q0 30 -16 55.5t-54 46t-103 36.5 t-162 27q-29 4 -55 7.5t-49 8.5q-75 -27 -119.5 -52t-68 -49t-31 -46.5t-7.5 -43.5zM285 680q0 -46 17 -85.5t48 -68t73 -45t92 -16.5t92.5 16.5t73 45t47.5 68t17 85.5t-17 85.5t-47.5 68t-73 45t-92.5 16.5t-92 -16.5t-73 -45t-48 -68t-17 -85.5z" />
<glyph unicode="&#x1e8;" horiz-adv-x="1310" d="M160 0q11 60 13 173.5t2 261.5v590q0 148 -2 261.5t-13 173.5h205v-673l560 673h240l-606 -687l671 -773h-245l-620 717v-717h-205zM225 2030h150l275 -280l275 280h150l-340 -430h-170z" />
<glyph unicode="&#x1e9;" horiz-adv-x="1035" d="M130 1600h200v-999l405 419h250l-495 -447l525 -573h-245l-440 520v-520h-185v1130q0 162 -2 283.5t-13 186.5zM147 2135h150l275 -280l275 280h150l-340 -430h-170z" />
<glyph unicode="&#x1ee;" horiz-adv-x="1312" d="M115 -105q54 -36 113 -70t122 -61t130.5 -43t139.5 -16q54 0 106 16t98 45t85 68t67 86t43.5 99t15.5 106q0 88 -31 163t-88 130t-138.5 86t-182.5 31q-43 0 -95.5 -3.5t-104.5 -11.5v154l545 621h-370q-74 0 -133.5 -0.5t-107.5 -3t-86 -6.5t-68 -10v185h980v-170 l-522 -593q142 0 251 -42.5t176 -109.5q30 -30 58.5 -69.5t51 -91t36.5 -116t14 -143.5q0 -130 -51 -239t-137 -188t-198 -123.5t-234 -44.5q-71 0 -139.5 12.5t-131 33.5t-117 48t-97.5 56v215zM243 2030h150l275 -280l275 280h150l-340 -430h-170z" />
<glyph unicode="&#x1ef;" horiz-adv-x="1025" d="M85 -155q43 -29 91.5 -56t99.5 -48t103.5 -33.5t105.5 -12.5q57 0 112 18t98 53.5t69 86.5t26 117q0 52 -18.5 104.5t-62.5 95t-118 69t-186 26.5q-34 0 -71 -2t-79 -8v120l435 495h-420q-45 0 -86 -2t-69 -13v165h795v-115l-440 -490q97 0 177 -21.5t143 -63.5 q31 -20 63 -50t58 -71t42.5 -95.5t16.5 -123.5q0 -104 -41 -189t-109 -145t-158 -93t-187 -33q-41 0 -94.5 10t-107.5 26.5t-104 38.5t-84 45v195zM102 1600h150l275 -280l275 280h150l-340 -430h-170z" />
<glyph unicode="&#x1f4;" horiz-adv-x="1420" d="M95 720q0 180 53.5 322t146.5 240.5t218.5 150.5t269.5 52q61 0 118.5 -5.5t115 -20.5t117.5 -42.5t126 -71.5l-65 -180q-56 45 -108.5 74.5t-103.5 46t-100.5 23t-99.5 6.5q-114 0 -205.5 -40t-155.5 -114t-98 -179.5t-34 -236.5q0 -138 32.5 -248t93.5 -187.5 t147.5 -118.5t193.5 -41q45 0 84.5 4.5t78.5 15.5t79 29t86 46v335h-350v165h540v-590q-77 -54 -145 -89t-132 -55t-126 -28t-127 -8q-142 0 -261 49t-205.5 144t-135 233.5t-48.5 318.5zM565 1600l350 430h230l-420 -430h-160z" />
<glyph unicode="&#x1f5;" horiz-adv-x="1095" d="M30 -200q0 81 59.5 148t186.5 121q-54 31 -75 69t-21 77q0 19 7.5 41.5t22.5 44.5t36.5 42t49.5 36q-83 47 -132 124.5t-49 176.5q0 76 30.5 142t84.5 114.5t127 76t158 27.5q73 0 137.5 -20.5t115.5 -57.5q65 33 141 53t141 25l-10 -160q-40 -2 -82 -8t-89 -20 q22 -38 34 -81t12 -91q0 -77 -30.5 -142t-84.5 -112t-127 -74t-158 -27q-19 0 -36.5 1.5t-34.5 3.5q-55 -23 -77 -48t-22 -47q0 -14 14 -28.5t51 -29t99.5 -27.5t160.5 -25q111 -13 187 -38t122 -61t66 -82.5t20 -103.5q0 -54 -22.5 -100.5t-61 -84.5t-90.5 -68t-111 -50.5 t-122 -31t-123 -10.5q-58 0 -118 8t-116 24.5t-105.5 41.5t-86 59t-58 77t-21.5 95zM215 -180q0 -30 20.5 -62t62 -58.5t104.5 -43t148 -16.5q68 0 128 17.5t105 45.5t71 61.5t26 65.5q0 30 -16 55.5t-54 46t-103 36.5t-162 27q-29 4 -55 7.5t-49 8.5q-75 -27 -119.5 -52 t-68 -49t-31 -46.5t-7.5 -43.5zM285 680q0 -46 17 -85.5t48 -68t73 -45t92 -16.5t92.5 16.5t73 45t47.5 68t17 85.5t-17 85.5t-47.5 68t-73 45t-92.5 16.5t-92 -16.5t-73 -45t-48 -68t-17 -85.5zM335 1170l350 430h230l-420 -430h-160z" />
<glyph unicode="&#x1f8;" horiz-adv-x="1500" d="M160 0q11 60 13 173.5t2 261.5v590q0 148 -2 261.5t-13 173.5h180l795 -1157v1157h180q-5 -30 -8 -74t-4.5 -99.5t-2 -121.5t-0.5 -140v-1025h-165l-795 1152v-1152h-180zM347 2030h230l350 -430h-160z" />
<glyph unicode="&#x1f9;" horiz-adv-x="1185" d="M104 1020h180q6 -16 12 -41.5t11 -53.5t9 -55l8 -45q95 114 192 164.5t203 50.5q160 0 245 -104.5t85 -310.5v-625h-185v550q0 94 -12.5 155t-37 96.5t-62 49.5t-88.5 14q-54 0 -105.5 -25.5t-94.5 -66t-76 -91.5t-49 -102v-580h-185v615q0 148 -16.5 250.5t-33.5 154.5z M209 1600h230l350 -430h-160z" />
<glyph unicode="&#x1fa;" horiz-adv-x="1395" d="M40 0q13 30 27 63t30.5 74.5t36.5 94.5t46 123l400 1105h215l400 -1105q25 -70 45 -123t37 -94.5t31 -74.5t27 -63h-205l-136 385h-615l-134 -385h-205zM433 540h507l-255 725zM472 1815q0 45 16.5 84t46 68.5t68.5 46t84 16.5t84 -16.5t68.5 -46t46 -68.5t16.5 -84 t-16.5 -84t-46 -68.5t-68.5 -46t-84 -16.5t-84 16.5t-68.5 46t-46 68.5t-16.5 84zM507 2135l350 430h230l-420 -430h-160zM587 1815q0 -45 27.5 -72.5t72.5 -27.5t72.5 27.5t27.5 72.5t-27.5 72.5t-72.5 27.5t-72.5 -27.5t-27.5 -72.5z" />
<glyph unicode="&#x1fb;" d="M95 255q0 57 19 115.5t65 108t123 85t193 46.5q26 3 65.5 6.5t80 7.5t75 7t49.5 4v75q0 91 -63.5 130.5t-176.5 39.5q-80 0 -158.5 -31.5t-166.5 -93.5q0 16 1 42.5t2 55t3 55t4 42.5q39 16 78.5 32.5t83 29t92.5 20.5t106 8q86 0 156.5 -21.5t120 -59t76.5 -88.5 t27 -111v-390q0 -108 21 -197t54 -173h-180q-9 24 -24 65.5t-26 89.5q-89 -95 -185 -137.5t-190 -42.5q-71 0 -130.5 23t-102.5 61.5t-67.5 89t-24.5 106.5zM280 280q0 -30 12.5 -55.5t35 -44t53.5 -29.5t69 -11t75 6.5t75.5 26t79 56t85.5 96.5v170q-19 -1 -53 -4t-72 -6.5 t-74.5 -7.5t-60.5 -7q-64 -8 -107 -25.5t-69.5 -42.5t-37.5 -56.5t-11 -65.5zM325 1385q0 45 16.5 84t46 68.5t68.5 46t84 16.5t84 -16.5t68.5 -46t46 -68.5t16.5 -84t-16.5 -84t-46 -68.5t-68.5 -46t-84 -16.5t-84 16.5t-68.5 46t-46 68.5t-16.5 84zM360 1705l350 430h230 l-420 -430h-160zM440 1385q0 -45 27.5 -72.5t72.5 -27.5t72.5 27.5t27.5 72.5t-27.5 72.5t-72.5 27.5t-72.5 -27.5t-27.5 -72.5z" />
<glyph unicode="&#x1fc;" horiz-adv-x="1805" d="M80 0q34 55 62 104.5t53.5 97t49.5 96t50 101.5l515 1061h845v-165h-545v-450h470v-160h-470v-520h164q149 0 250 2t161 13v-180h-780q3 17 5.5 42.5t4 68.5t2.5 109t2 165h-449l-190 -385h-200zM547 540h372q1 135 1 319v436zM835 1600l350 430h230l-420 -430h-160z" />
<glyph unicode="&#x1fd;" horiz-adv-x="1745" d="M95 255q0 57 19 114t64 105.5t120 84.5t187 51q26 3 65.5 5.5t80 4t75 3t49.5 2.5v85q0 45 -19.5 77.5t-54 53t-82.5 30t-104 9.5q-40 0 -74.5 -8t-69 -24t-71 -39t-80.5 -54q0 16 1 42.5t2 55t3 55t4 42.5q39 16 74 32.5t73 29t82 20.5t101 8q51 0 100.5 -11t94 -32.5 t82 -54.5t63.5 -77q68 83 162 129t203 46q77 0 136.5 -19.5t103.5 -53.5t73.5 -80t48 -99t26 -110t7.5 -113v-80h-710q3 -88 29.5 -153t70.5 -107.5t103 -63.5t127 -21q48 0 94 5t91 17t89.5 31t90.5 47l20 -165q-53 -27 -102 -46t-98.5 -31t-100.5 -17.5t-109 -5.5 q-62 0 -120.5 14t-111 41.5t-96.5 69t-77 96.5q-11 -13 -22.5 -25.5t-22.5 -25.5q-44 -47 -89.5 -79.5t-91 -52.5t-92 -29t-92.5 -9q-71 0 -130.5 23t-102.5 61.5t-67.5 89t-24.5 106.5zM280 280q0 -30 12.5 -55.5t35 -44t53.5 -29.5t69 -11t75 6.5t74 26t75.5 56t80.5 96.5 q5 6 9 11.5t6 13.5q-7 31 -11 65t-4 70q-19 -1 -53 -2t-72 -2.5t-74.5 -4t-60.5 -6.5q-63 -11 -104 -29.5t-66 -42.5t-35 -54t-10 -64zM685 1170l350 430h230l-420 -430h-160zM940 625h520q0 64 -18.5 113.5t-50 83.5t-73 51t-88.5 17q-110 0 -187.5 -64.5t-102.5 -200.5z " />
<glyph unicode="&#x1fe;" horiz-adv-x="1460" d="M95 720q0 120 24.5 223t68 188t103.5 151t130.5 111t149 68.5t159.5 23.5q71 0 138.5 -17.5t129.5 -51.5l62 114h146l-101 -189q52 -47 95.5 -108.5t74.5 -136.5t48 -164.5t17 -191.5q0 -180 -53.5 -322t-142 -240.5t-201.5 -150.5t-233 -52q-159 0 -296 82l-71 -132 h-148l115 213q-98 95 -156.5 241t-58.5 341zM290 745q0 -137 29.5 -245t85.5 -186l508 944q-86 52 -193 52q-95 0 -174 -39.5t-136 -113t-88.5 -178t-31.5 -234.5zM500 217q94 -67 220 -67q92 0 170 38.5t134.5 111t88.5 177.5t32 238q0 148 -34.5 262.5t-97.5 192.5z M537 1600l350 430h230l-420 -430h-160z" />
<glyph unicode="&#x1ff;" horiz-adv-x="1140" d="M95 507q0 129 39 228.5t105 167t154 102.5t187 35q92 0 171 -29l51 94h146l-84 -155q85 -66 133 -177t48 -266q0 -129 -39 -228.5t-105 -167t-154 -102t-187 -34.5q-55 0 -104.5 10t-94.5 29l-48 -89h-148l86 160q-74 68 -115 173.5t-41 248.5zM280 507 q0 -78 16.5 -140.5t47.5 -110.5l326 606q-47 18 -100 18q-61 0 -114 -25.5t-92 -73.5t-61.5 -117t-22.5 -157zM390 1170l350 430h230l-420 -430h-160zM442 165q55 -30 128 -30q60 0 113 25.5t92.5 73.5t62 117t22.5 156q0 90 -22 160t-62 118z" />
<glyph unicode="&#x21e;" horiz-adv-x="1475" d="M160 0q11 60 13 173.5t2 261.5v590q0 148 -2 261.5t-13 173.5h205v-625h720v625h205q-11 -60 -13 -173.5t-2 -261.5v-590q0 -148 2 -261.5t13 -173.5h-205v675h-720v-675h-205zM300 2030h150l275 -280l275 280h150l-340 -430h-170z" />
<glyph unicode="&#x21f;" horiz-adv-x="1175" d="M130 1600h200v-770q74 105 174 157.5t206 52.5q160 0 245 -104.5t85 -310.5v-625h-185v550q0 94 -12.5 155t-37.5 96.5t-62.5 49.5t-87.5 14q-54 0 -105.5 -25.5t-94.5 -66t-76 -91.5t-49 -102v-580h-185v1130q0 162 -2 283.5t-13 186.5zM160 2135h150l275 -280l275 280 h150l-340 -430h-170z" />
<glyph unicode="&#x226;" horiz-adv-x="1395" d="M40 0q13 30 27 63t30.5 74.5t36.5 94.5t46 123l400 1105h215l400 -1105q25 -70 45 -123t37 -94.5t31 -74.5t27 -63h-205l-136 385h-615l-134 -385h-205zM433 540h507l-255 725zM552 1775q0 28 10.5 52.5t29 43t43 29t52.5 10.5t52.5 -10.5t43 -29t29 -43t10.5 -52.5 t-10.5 -52.5t-29 -43t-43 -29t-52.5 -10.5t-52.5 10.5t-43 29t-29 43t-10.5 52.5z" />
<glyph unicode="&#x227;" d="M95 255q0 57 19 115.5t65 108t123 85t193 46.5q26 3 65.5 6.5t80 7.5t75 7t49.5 4v75q0 91 -63.5 130.5t-176.5 39.5q-80 0 -158.5 -31.5t-166.5 -93.5q0 16 1 42.5t2 55t3 55t4 42.5q39 16 78.5 32.5t83 29t92.5 20.5t106 8q86 0 156.5 -21.5t120 -59t76.5 -88.5 t27 -111v-390q0 -108 21 -197t54 -173h-180q-9 24 -24 65.5t-26 89.5q-89 -95 -185 -137.5t-190 -42.5q-71 0 -130.5 23t-102.5 61.5t-67.5 89t-24.5 106.5zM280 280q0 -30 12.5 -55.5t35 -44t53.5 -29.5t69 -11t75 6.5t75.5 26t79 56t85.5 96.5v170q-19 -1 -53 -4t-72 -6.5 t-74.5 -7.5t-60.5 -7q-64 -8 -107 -25.5t-69.5 -42.5t-37.5 -56.5t-11 -65.5zM405 1345q0 28 10.5 52.5t29 43t43 29t52.5 10.5t52.5 -10.5t43 -29t29 -43t10.5 -52.5t-10.5 -52.5t-29 -43t-43 -29t-52.5 -10.5t-52.5 10.5t-43 29t-29 43t-10.5 52.5z" />
<glyph unicode="&#x228;" horiz-adv-x="1160" d="M160 0q11 60 13 173.5t2 261.5v590q0 148 -2 261.5t-13 173.5h850v-165h-645v-450h570v-160h-570v-520h264q149 0 250 2t161 13v-180h-440v-95q10 2 20.5 3.5t27.5 1.5q34 0 63 -12.5t50 -35t32.5 -54t11.5 -68.5q0 -51 -23 -92t-60 -69.5t-82 -43.5t-90 -15 q-39 0 -71.5 11.5t-63.5 28.5l10 100q22 -16 45 -23t55 -7q22 0 45.5 5t43 17t32.5 31t14 47q-1 39 -28.5 64.5t-68.5 25.5q-24 0 -48 -7.5t-40 -17.5v205h-315z" />
<glyph unicode="&#x229;" horiz-adv-x="1095" d="M95 495q0 124 33.5 224.5t95.5 172t151 110t200 38.5q82 0 145 -19.5t109 -54t77 -80.5t49.5 -99t26.5 -110.5t8 -113.5v-39q0 -25 -1 -39h-709q3 -88 27.5 -153t67 -107.5t100 -63.5t125.5 -21q97 0 190 22t185 78l20 -165q-53 -27 -104 -46t-102 -31t-103.5 -17.5 t-110.5 -5.5q-8 0 -15 0.5t-15 0.5v-71q10 2 20.5 3.5t27.5 1.5q34 0 63 -12.5t50 -35t32.5 -54t11.5 -68.5q0 -51 -23 -92t-60 -69.5t-82 -43.5t-90 -15q-39 0 -71.5 11.5t-63.5 28.5l10 100q22 -16 45 -23t55 -7q22 0 45.5 5t43 17t32.5 31t14 47q-1 39 -28.5 64.5 t-68.5 25.5q-24 0 -48 -7.5t-40 -17.5v204q-69 22 -128.5 64.5t-103 104.5t-68.5 144t-25 183zM288 625h522q0 64 -18.5 113.5t-52 83.5t-79.5 51t-100 17q-110 0 -180 -64.5t-92 -200.5z" />
<glyph unicode="&#x22a;" horiz-adv-x="1460" d="M95 720q0 120 24.5 223t68 188t103.5 151t130.5 111t149 68.5t159.5 23.5q119 0 229.5 -49t195 -144t135 -233.5t50.5 -318.5t-53.5 -322t-142 -240.5t-201.5 -150.5t-233 -52q-121 0 -232 49t-196 144t-136 233.5t-51 318.5zM290 745q0 -137 30.5 -247t87 -187.5 t135.5 -119t177 -41.5q92 0 170 38.5t134.5 111t88.5 177.5t32 238q0 138 -30.5 248.5t-86.5 187.5t-134.5 118t-173.5 41t-174 -39.5t-136 -113t-88.5 -178t-31.5 -234.5zM342 2075v150h750v-150h-750zM380 1775q0 28 9.5 52.5t26.5 43t40 29t51 10.5t51.5 -10.5t40.5 -29 t26.5 -43t9.5 -52.5t-9.5 -52.5t-26.5 -43t-40.5 -29t-51.5 -10.5t-51 10.5t-40 29t-26.5 43t-9.5 52.5zM800 1775q0 28 9.5 52.5t26.5 43t40 29t51 10.5t51.5 -10.5t40.5 -29t26.5 -43t9.5 -52.5t-9.5 -52.5t-26.5 -43t-40.5 -29t-51.5 -10.5t-51 10.5t-40 29t-26.5 43 t-9.5 52.5z" />
<glyph unicode="&#x22b;" horiz-adv-x="1140" d="M95 505q0 129 39 228.5t105 168t154 103.5t187 35q103 0 188.5 -35t147 -103.5t95.5 -168t34 -228.5t-39 -228t-105 -166t-154 -101.5t-187 -34.5q-103 0 -188.5 34.5t-147 101.5t-95.5 166t-34 228zM195 1645v150h750v-150h-750zM233 1345q0 28 9.5 52.5t26.5 43t40 29 t51 10.5t51.5 -10.5t40.5 -29t26.5 -43t9.5 -52.5t-9.5 -52.5t-26.5 -43t-40.5 -29t-51.5 -10.5t-51 10.5t-40 29t-26.5 43t-9.5 52.5zM280 505q0 -87 21 -156t59.5 -116.5t91.5 -72.5t118 -25q60 0 113 25t92.5 72.5t62 116.5t22.5 156q0 88 -21 157.5t-59.5 118t-92 74 t-117.5 25.5q-61 0 -114 -25.5t-92 -74t-61.5 -118t-22.5 -157.5zM653 1345q0 28 9.5 52.5t26.5 43t40 29t51 10.5t51.5 -10.5t40.5 -29t26.5 -43t9.5 -52.5t-9.5 -52.5t-26.5 -43t-40.5 -29t-51.5 -10.5t-51 10.5t-40 29t-26.5 43t-9.5 52.5z" />
<glyph unicode="&#x22c;" horiz-adv-x="1460" d="M95 720q0 120 24.5 223t68 188t103.5 151t130.5 111t149 68.5t159.5 23.5q119 0 229.5 -49t195 -144t135 -233.5t50.5 -318.5t-53.5 -322t-142 -240.5t-201.5 -150.5t-233 -52q-121 0 -232 49t-196 144t-136 233.5t-51 318.5zM290 745q0 -137 30.5 -247t87 -187.5 t135.5 -119t177 -41.5q92 0 170 38.5t134.5 111t88.5 177.5t32 238q0 138 -30.5 248.5t-86.5 187.5t-134.5 118t-173.5 41t-174 -39.5t-136 -113t-88.5 -178t-31.5 -234.5zM342 2045v150h750v-150h-750zM362 1635q0 46 13.5 90.5t38 80t60 57.5t80.5 22q21 0 41 -4 t40.5 -11.5t43 -17t48.5 -19.5q27 -11 48.5 -20t40 -15t34.5 -9.5t32 -3.5q35 0 57.5 25t27.5 60h105q0 -48 -13.5 -93t-39 -80t-62.5 -56t-83 -21q-40 0 -80.5 13.5t-86.5 34.5q-58 27 -92.5 39.5t-62.5 12.5q-37 0 -59 -24t-26 -61h-105z" />
<glyph unicode="&#x22d;" horiz-adv-x="1140" d="M95 505q0 129 39 228.5t105 168t154 103.5t187 35q103 0 188.5 -35t147 -103.5t95.5 -168t34 -228.5t-39 -228t-105 -166t-154 -101.5t-187 -34.5q-103 0 -188.5 34.5t-147 101.5t-95.5 166t-34 228zM195 1615v150h750v-150h-750zM215 1205q0 46 13.5 90.5t38 80t60 57.5 t80.5 22q21 0 41 -4t40.5 -11.5t43 -17t48.5 -19.5q27 -11 48.5 -20t40 -15t34.5 -9.5t32 -3.5q35 0 57.5 25t27.5 60h105q0 -48 -13.5 -93t-39 -80t-62.5 -56t-83 -21q-40 0 -80.5 13.5t-86.5 34.5q-58 27 -92.5 39.5t-62.5 12.5q-37 0 -59 -24t-26 -61h-105zM280 505 q0 -87 21 -156t59.5 -116.5t91.5 -72.5t118 -25q60 0 113 25t92.5 72.5t62 116.5t22.5 156q0 88 -21 157.5t-59.5 118t-92 74t-117.5 25.5q-61 0 -114 -25.5t-92 -74t-61.5 -118t-22.5 -157.5z" />
<glyph unicode="&#x22e;" horiz-adv-x="1460" d="M95 720q0 120 24.5 223t68 188t103.5 151t130.5 111t149 68.5t159.5 23.5q119 0 229.5 -49t195 -144t135 -233.5t50.5 -318.5t-53.5 -322t-142 -240.5t-201.5 -150.5t-233 -52q-121 0 -232 49t-196 144t-136 233.5t-51 318.5zM290 745q0 -137 30.5 -247t87 -187.5 t135.5 -119t177 -41.5q92 0 170 38.5t134.5 111t88.5 177.5t32 238q0 138 -30.5 248.5t-86.5 187.5t-134.5 118t-173.5 41t-174 -39.5t-136 -113t-88.5 -178t-31.5 -234.5zM582 1775q0 28 10.5 52.5t29 43t43 29t52.5 10.5t52.5 -10.5t43 -29t29 -43t10.5 -52.5t-10.5 -52.5 t-29 -43t-43 -29t-52.5 -10.5t-52.5 10.5t-43 29t-29 43t-10.5 52.5z" />
<glyph unicode="&#x22f;" horiz-adv-x="1140" d="M95 505q0 129 39 228.5t105 168t154 103.5t187 35q103 0 188.5 -35t147 -103.5t95.5 -168t34 -228.5t-39 -228t-105 -166t-154 -101.5t-187 -34.5q-103 0 -188.5 34.5t-147 101.5t-95.5 166t-34 228zM280 505q0 -87 21 -156t59.5 -116.5t91.5 -72.5t118 -25q60 0 113 25 t92.5 72.5t62 116.5t22.5 156q0 88 -21 157.5t-59.5 118t-92 74t-117.5 25.5q-61 0 -114 -25.5t-92 -74t-61.5 -118t-22.5 -157.5zM435 1345q0 28 10.5 52.5t29 43t43 29t52.5 10.5t52.5 -10.5t43 -29t29 -43t10.5 -52.5t-10.5 -52.5t-29 -43t-43 -29t-52.5 -10.5 t-52.5 10.5t-43 29t-29 43t-10.5 52.5z" />
<glyph unicode="&#x230;" horiz-adv-x="1460" d="M95 720q0 120 24.5 223t68 188t103.5 151t130.5 111t149 68.5t159.5 23.5q119 0 229.5 -49t195 -144t135 -233.5t50.5 -318.5t-53.5 -322t-142 -240.5t-201.5 -150.5t-233 -52q-121 0 -232 49t-196 144t-136 233.5t-51 318.5zM290 745q0 -137 30.5 -247t87 -187.5 t135.5 -119t177 -41.5q92 0 170 38.5t134.5 111t88.5 177.5t32 238q0 138 -30.5 248.5t-86.5 187.5t-134.5 118t-173.5 41t-174 -39.5t-136 -113t-88.5 -178t-31.5 -234.5zM342 2075v150h750v-150h-750zM582 1775q0 28 10.5 52.5t29 43t43 29t52.5 10.5t52.5 -10.5t43 -29 t29 -43t10.5 -52.5t-10.5 -52.5t-29 -43t-43 -29t-52.5 -10.5t-52.5 10.5t-43 29t-29 43t-10.5 52.5z" />
<glyph unicode="&#x231;" horiz-adv-x="1140" d="M95 505q0 129 39 228.5t105 168t154 103.5t187 35q103 0 188.5 -35t147 -103.5t95.5 -168t34 -228.5t-39 -228t-105 -166t-154 -101.5t-187 -34.5q-103 0 -188.5 34.5t-147 101.5t-95.5 166t-34 228zM195 1645v150h750v-150h-750zM280 505q0 -87 21 -156t59.5 -116.5 t91.5 -72.5t118 -25q60 0 113 25t92.5 72.5t62 116.5t22.5 156q0 88 -21 157.5t-59.5 118t-92 74t-117.5 25.5q-61 0 -114 -25.5t-92 -74t-61.5 -118t-22.5 -157.5zM435 1345q0 28 10.5 52.5t29 43t43 29t52.5 10.5t52.5 -10.5t43 -29t29 -43t10.5 -52.5t-10.5 -52.5 t-29 -43t-43 -29t-52.5 -10.5t-52.5 10.5t-43 29t-29 43t-10.5 52.5z" />
<glyph unicode="&#x232;" horiz-adv-x="1320" d="M35 1460h230l395 -661l375 661h230q-44 -63 -78 -114.5t-62.5 -97.5t-55 -90t-54.5 -93l-270 -462v-168q0 -148 2 -261.5t13 -173.5h-220q11 60 13 173.5t2 261.5v176l-265 454q-29 49 -56.5 96t-57.5 95t-64.5 98t-76.5 106zM275 1670v150h750v-150h-750z" />
<glyph unicode="&#x233;" horiz-adv-x="1060" d="M-20 -385l60 160q16 -13 37.5 -26.5t46 -24t50.5 -17.5t51 -7q30 0 59 10.5t58.5 40t60.5 83t66 140.5l-279 691q-28 68 -65 153t-95 202h200l323 -817q19 54 41.5 117.5t46.5 131t48 136t46 131.5q52 148 105 301h200q-26 -58 -47 -107.5t-39 -93t-32.5 -81.5t-26.5 -73 l-240 -665q-52 -144 -102 -235t-101.5 -143.5t-107 -72t-119.5 -19.5q-69 0 -129.5 22t-115.5 63zM160 1240v150h750v-150h-750z" />
<glyph unicode="&#x237;" horiz-adv-x="595" d="M-190 -405l35 165q16 -12 41 -23t52 -19.5t54 -13t48 -4.5q40 0 73 15.5t57 48.5t37 85t13 126v555q0 73 -0.5 144t-2 134.5t-4.5 118t-8 93.5h200v-995q0 -140 -26.5 -235t-75.5 -152.5t-118.5 -82.5t-154.5 -25q-21 0 -49.5 4.5t-59 12.5t-60 20.5t-51.5 27.5z" />
<glyph unicode="&#x23d;" horiz-adv-x="1184" d="M50 690v145h175v190q0 148 -2 261.5t-13 173.5h205v-625h300v-145h-300v-525h224q74 0 140 0.5t122 2t100 4.5t74 8v-180h-865q11 60 13 173.5t2 261.5v255h-175z" />
<glyph unicode="&#x241;" horiz-adv-x="1055" d="M140 1350q34 30 72.5 54.5t84 42.5t99.5 28t119 10q89 0 165.5 -23.5t133 -66.5t89 -104t32.5 -136q0 -63 -20 -112t-50.5 -92t-66.5 -82.5t-68 -83.5q-36 -48 -61.5 -87t-42 -81.5t-24 -97t-7.5 -134.5v-132q0 -58 1.5 -104.5t4.5 -82.5t9 -66h-220q6 30 9 66t4.5 82.5 t1.5 104.5v132q0 80 11 144.5t30.5 118.5t46 100.5t57.5 91.5q36 51 69 89.5t59 73t41.5 68t15.5 74.5q0 34 -18.5 64.5t-51.5 52.5t-79 35t-101 13q-82 0 -157.5 -36t-142.5 -104z" />
<glyph unicode="&#x242;" horiz-adv-x="795" d="M95 950q20 19 51.5 35.5t68.5 28.5t77 19t78 7q71 0 131.5 -23.5t104.5 -60t69 -81t25 -85.5q0 -59 -21 -102t-50.5 -76t-61 -60t-52.5 -55q-18 -24 -28.5 -44.5t-16.5 -46.5t-8 -61.5t-2 -89.5q0 -59 0.5 -97.5t2.5 -65.5t4.5 -47.5t7.5 -44.5h-210q4 24 7 44.5t5 47.5 t2.5 65.5t0.5 97.5q0 55 3 96.5t10 73.5t17 57t25 48q19 30 49.5 57t59.5 53.5t50 54.5t21 60q0 30 -13.5 53.5t-36.5 39t-52.5 24t-62.5 8.5q-24 0 -53 -5t-58.5 -16t-57.5 -28t-51 -41z" />
<glyph unicode="&#x244;" horiz-adv-x="1595" d="M80 690v145h175v190q0 148 -2.5 261.5t-12.5 173.5h205v-625h685v625h205q-10 -60 -12.5 -169.5t-2.5 -265.5v-190h175v-145h-175v-175q0 -122 -32 -221.5t-97.5 -170.5t-165.5 -109.5t-235 -38.5q-137 0 -237.5 38.5t-166.5 109.5t-98.5 170.5t-32.5 221.5v175h-175z M445 560q0 -98 17 -176.5t57 -134t106 -85t165 -29.5q97 0 162 29.5t104.5 85t56.5 134t17 176.5v130h-685v-130z" />
<glyph unicode="&#x245;" horiz-adv-x="1375" d="M40 0q12 31 25 64.5t29 76.5t35.5 97.5t45.5 126.5l390 1095h225l385 -1095q25 -73 45 -127.5t36.5 -97t30.5 -76t28 -64.5h-215l-423 1265l-422 -1265h-215z" />
<glyph unicode="&#x24a;" horiz-adv-x="1397" d="M95 640q0 109 16 214.5t50 199.5t87.5 173t128.5 136.5t172.5 89.5t220.5 32q65 0 120 -9t106.5 -24t103.5 -34t110 -38v-1460q0 -57 14.5 -98.5t37.5 -68.5t51.5 -40t56.5 -13q45 0 86.5 14t83.5 46l45 -160q-42 -32 -101 -51t-119 -19q-82 0 -147 28t-110 82.5 t-69 134.5t-24 185v240q-56 -65 -111.5 -108t-110 -69t-107 -37t-101.5 -11q-99 0 -187.5 47t-156 134t-107 209.5t-39.5 274.5zM285 710q0 -144 25.5 -248.5t69 -173t102 -101t123.5 -32.5q49 0 102.5 21.5t107 63t105 102t95.5 138.5v765q-32 12 -68.5 23t-74 19.5t-74 13 t-68.5 4.5q-78 0 -141.5 -25.5t-113 -69t-85.5 -102t-59.5 -124.5t-34.5 -136.5t-11 -137.5z" />
<glyph unicode="&#x24b;" horiz-adv-x="1190" d="M105 435q0 115 30 224t93 193.5t161.5 136t235.5 51.5q91 0 182 -24t173 -51v-1020q0 -50 8 -93.5t25.5 -76t44 -51.5t62.5 -19q32 0 66 11.5t59 33.5l45 -155q-16 -13 -42.5 -25t-57 -21t-62.5 -14t-58 -5q-57 0 -107 24.5t-87.5 73t-59 120t-21.5 166.5v226 q-78 -91 -149.5 -128t-140.5 -37t-140 27t-129 83.5t-94.5 143.5t-36.5 206zM290 485q0 -93 20.5 -158t53.5 -105.5t74 -58.5t82 -18q69 0 140.5 55t134.5 165v465q-45 17 -100 28.5t-100 11.5q-82 0 -140 -33.5t-94.5 -88t-53.5 -123.5t-17 -140z" />
<glyph unicode="&#x251;" horiz-adv-x="1150" d="M105 410q0 115 25.5 208.5t69.5 166.5q39 64 83 112t96.5 79.5t115.5 47.5t140 16q38 0 84.5 -5.5t95 -15.5t96.5 -24t89 -30v-435q0 -189 21 -317.5t54 -212.5h-175q-5 13 -14 36t-18.5 52.5t-18 63.5t-14.5 68q-39 -50 -82.5 -94t-91.5 -78t-100 -53.5t-106 -19.5 q-63 0 -125.5 27t-112.5 81t-81 135.5t-31 191.5zM290 460q0 -83 15.5 -142.5t41 -98t58 -56.5t65.5 -18q42 0 91.5 26t96.5 69t88.5 99t68.5 116v375q-15 7 -38.5 14t-52 13t-62 9.5t-67.5 3.5q-32 0 -64.5 -7.5t-64 -25.5t-61 -47.5t-55.5 -74.5q-27 -46 -43.5 -114.5 t-16.5 -140.5z" />
<glyph unicode="&#x253;" horiz-adv-x="1155" d="M145 65v1035q0 126 26.5 223t82 163t142.5 100t209 34q61 0 127 -15.5t138 -60.5l-80 -140q-53 31 -99 43.5t-101 12.5q-68 0 -117 -23t-81 -66t-47 -104t-15 -137v-305q35 46 76 85t88.5 68t102.5 45.5t118 16.5q76 0 139 -37t109 -103.5t71.5 -158.5t25.5 -201 q0 -129 -34.5 -233.5t-97.5 -178.5t-152.5 -114.5t-200.5 -40.5q-61 0 -118 9t-110.5 22.5t-103.5 29.5t-98 31zM330 185q37 -15 67.5 -25.5t59.5 -17t57.5 -9.5t60.5 -3q66 0 122 27t96.5 76t63.5 118.5t23 153.5q0 83 -15 150t-43.5 113.5t-70.5 71.5t-96 25 q-47 0 -94 -20.5t-89.5 -57.5t-79.5 -88.5t-62 -113.5v-400z" />
<glyph unicode="&#x254;" horiz-adv-x="995" d="M95 165l115 125q18 -32 42 -59.5t53.5 -47.5t63 -31.5t71.5 -11.5q48 0 96.5 23.5t87 70.5t62.5 117t24 164q0 88 -21 155.5t-59.5 113t-93 68.5t-121.5 23q-70 0 -134.5 -29.5t-135.5 -95.5l-35 180q72 52 157 81t178 29q103 0 187.5 -32t143.5 -96t91.5 -158.5 t32.5 -218.5q0 -129 -33.5 -233t-94 -176.5t-145.5 -111.5t-187 -39q-61 0 -116 14.5t-100 40t-78 60.5t-51 75z" />
<glyph unicode="&#x256;" horiz-adv-x="1207" d="M105 460q0 133 36.5 240t100.5 182.5t150.5 116.5t187.5 41q32 0 66.5 -7t69 -19t67.5 -27.5t62 -31.5v280q0 121 -5.5 211.5t-19.5 153.5h210v-1655q0 -50 8 -93.5t25 -75.5t43.5 -50.5t62.5 -18.5q32 0 66.5 10.5t59.5 32.5l42 -155q-16 -13 -42 -25t-56 -21t-61 -14 t-57 -5q-57 0 -107.5 24.5t-88 73t-59 120t-21.5 166.5v271q-36 -51 -72.5 -90t-78 -65.5t-88 -40.5t-101.5 -14q-92 0 -165.5 34.5t-126 98t-80.5 153t-28 199.5zM290 490q0 -175 59.5 -265t190.5 -90q46 0 91.5 23t86 60t73.5 84.5t54 97.5v395q-37 20 -69 34t-63 23 t-63 13.5t-70 4.5q-57 0 -109 -26t-92.5 -75t-64.5 -119.5t-24 -159.5z" />
<glyph unicode="&#x257;" horiz-adv-x="1305" d="M105 460q0 133 36.5 240t100.5 182.5t150.5 116.5t187.5 41q32 0 66.5 -7t69 -19t67.5 -27.5t62 -31.5v255q0 97 25 173.5t70.5 129t109 80t140.5 27.5q59 0 116 -18.5t104 -51.5l-46 -150q-38 28 -84 44t-90 16q-78 0 -119 -55.5t-41 -154.5v-720q0 -189 21.5 -317.5 t53.5 -212.5h-180q-11 26 -26.5 77.5t-28.5 107.5q-72 -102 -163 -156t-202 -54q-92 0 -165.5 34.5t-126 98t-80.5 153t-28 199.5zM290 490q0 -175 59.5 -265t190.5 -90q46 0 91.5 23t86 60t73.5 84.5t54 97.5v395q-37 20 -69 34t-63 23t-63 13.5t-70 4.5q-57 0 -109 -26 t-92.5 -75t-64.5 -119.5t-24 -159.5z" />
<glyph unicode="&#x259;" horiz-adv-x="1078" d="M100 450v38q0 25 1 39h698q-2 82 -26.5 146t-67.5 108t-101.5 67t-126.5 23q-97 0 -181.5 -31.5t-167.5 -92.5l-20 165q51 31 97.5 54t93.5 39t97 24t107 8q96 0 183 -33t153 -97.5t105 -159t39 -218.5t-29 -226.5t-88 -175.5t-147.5 -113.5t-207.5 -40.5 q-124 0 -203.5 41t-125.5 108.5t-64 153t-18 174.5zM284 387q0 -130 61.5 -199.5t179.5 -69.5q63 0 109.5 18.5t78.5 53t51 84.5t28 113h-508z" />
<glyph unicode="&#x25b;" horiz-adv-x="970" d="M90 278q0 51 20 93.5t54.5 75t80 54.5t97.5 32q-43 13 -78.5 36.5t-61 53t-39.5 63t-14 68.5q0 49 19 99.5t63.5 92t118 68t181.5 26.5q107 0 185 -21t135 -59l-34 -168q-72 51 -146.5 74.5t-146.5 23.5q-53 0 -89 -12t-58.5 -31.5t-32.5 -45t-10 -51.5q0 -41 25.5 -69 t70 -45.5t103.5 -25t125 -7.5v-140q-40 0 -84 -2t-86.5 -7.5t-81 -17t-67.5 -30.5t-46.5 -47t-17.5 -67q0 -44 21.5 -74.5t57.5 -50t83 -28.5t98 -9q41 0 79.5 7t78 20.5t80.5 34t87 48.5l20 -165q-53 -27 -101 -46t-93.5 -31t-91 -17.5t-94.5 -5.5q-109 0 -186.5 28 t-127 71.5t-73 97.5t-23.5 106z" />
<glyph unicode="&#x263;" horiz-adv-x="1170" d="M20 1020h210q26 -49 68 -126.5t91 -167t100 -182.5t96 -173q28 51 58.5 105.5t60.5 110t59.5 109t55.5 101.5q62 113 121 223h210q-23 -43 -50.5 -93t-54 -98.5t-50.5 -91.5t-40 -72q-20 -35 -48.5 -84t-62.5 -107t-72 -121.5t-77 -127.5q-4 -6 -7.5 -11.5t-6.5 -11.5 q42 -71 79.5 -130t65.5 -110t44 -95.5t16 -86.5q0 -60 -27 -109.5t-70 -85.5t-97 -55.5t-107 -19.5q-56 0 -109 19.5t-94.5 55.5t-67 85.5t-25.5 109.5q0 41 16.5 87.5t43.5 99t62.5 110.5t73.5 121q-12 16 -20 32q-39 63 -76 126.5t-69.5 121.5t-59.5 106t-45 81 q-16 30 -40 73t-51 91.5t-54.5 98t-49.5 92.5zM460 -210q0 -30 11 -55t29 -42.5t40 -27.5t45 -10q25 0 48 10t40 27.5t27 42.5t10 55q0 47 -37 112t-91 146q-52 -81 -87 -146t-35 -112z" />
<glyph unicode="&#x268;" horiz-adv-x="785" d="M80 475v145h220q-1 122 -4 227.5t-11 172.5h200v-400h220v-145h-220q0 -48 1.5 -113.5t4 -132.5t6 -128t8.5 -101h-205v475h-220zM265 1345q0 28 9.5 52.5t26.5 43t40 29t51 10.5t51.5 -10.5t40.5 -29t26.5 -43t9.5 -52.5t-9.5 -52.5t-26.5 -43t-40.5 -29t-51.5 -10.5 t-51 10.5t-40 29t-26.5 43t-9.5 52.5z" />
<glyph unicode="&#x269;" horiz-adv-x="791" d="M155 1020h200v-640q0 -59 8.5 -104t27.5 -75t49.5 -45.5t74.5 -15.5q49 0 96.5 25t98.5 82l21 -177q-72 -51 -132 -73t-114 -22q-69 0 -127 23t-100 64.5t-65 99.5t-23 128v240q0 73 -0.5 144t-2 134.5t-4.5 118t-8 93.5z" />
<glyph unicode="&#x26b;" horiz-adv-x="985" d="M100 655q0 46 13.5 90.5t38 80t60 57.5t80.5 22q20 0 46.5 -5t61.5 -15v245q0 146 -5 264.5t-15 205.5h205v-771q38 -11 68 -17.5t52 -6.5q35 0 52.5 25t22.5 60h105q0 -48 -13.5 -93t-39 -80t-62.5 -56t-83 -21q-43 0 -102 17v-192q0 -48 1.5 -111.5t4 -128.5t6 -124.5 t8.5 -100.5h-205v715q-43 12 -72 18.5t-48 6.5q-37 0 -54 -24t-21 -61h-105z" />
<glyph unicode="&#x272;" horiz-adv-x="1250" d="M-185 -410l65 151q27 -20 67 -33t80 -13q91 0 142 68t51 212v640q0 148 -16.5 250.5t-33.5 154.5h180q6 -16 12 -41.5t11 -53.5t9 -55l8 -45q95 114 192 164.5t203 50.5q160 0 245 -104.5t85 -310.5v-625h-185v550q0 94 -12.5 155t-37 96.5t-62 49.5t-88.5 14 q-54 0 -105.5 -25.5t-94.5 -66t-76 -91.5t-49 -102v-555q0 -140 -26.5 -235t-76 -152.5t-119 -82.5t-154.5 -25q-21 0 -49 4.5t-57 12t-57.5 18.5t-50.5 25z" />
<glyph unicode="&#x275;" horiz-adv-x="1140" d="M95 507q0 129 39 228.5t105 167t154 102.5t187 35q103 0 188.5 -35t147 -102.5t95.5 -167t34 -228.5t-39 -228.5t-105 -167t-154 -102t-187 -34.5q-103 0 -188.5 34.5t-147 102t-95.5 167t-34 228.5zM283 440q8 -72 32 -129t61.5 -96t86.5 -59.5t107 -20.5 q54 0 102.5 20.5t86.5 59.5t63 96t34 129h-573zM284 580h572q-8 71 -32.5 126.5t-61.5 94t-86 59t-106 20.5q-54 0 -102.5 -20.5t-86 -59t-63 -94t-34.5 -126.5z" />
<glyph unicode="&#x283;" horiz-adv-x="725" d="M0 -400l45 165q33 -25 74.5 -45t80.5 -20q40 0 74 17t58.5 47.5t38.5 74t14 96.5q0 35 -10 101t-26 151.5t-36.5 184.5t-42.5 201.5t-42.5 202.5t-36.5 187t-26 155t-10 107q0 91 28 164t75.5 124.5t111 79t135.5 27.5q59 0 116 -18.5t104 -51.5l-45 -165 q-33 25 -74.5 45t-80.5 20q-40 0 -74 -16.5t-58.5 -45t-38.5 -66t-14 -80.5q0 -37 10 -105t26 -155.5t36.5 -189t42.5 -206t42.5 -206.5t36.5 -190t26 -157t10 -108q0 -91 -28 -164t-75.5 -124.5t-111 -79t-135.5 -27.5q-59 0 -116 18.5t-104 51.5z" />
<glyph unicode="&#x289;" horiz-adv-x="1338" d="M100 505v145h145v50q0 48 -0.5 87t-2.5 75.5t-6 74.5t-11 83h205v-370h500v50q0 49 -0.5 88.5t-2.5 75.5t-6 73t-11 83h205v-370h143v-145h-143v-55q0 -146 16.5 -255.5t48.5 -194.5h-170q-7 17 -15 40t-15.5 49t-14 54.5t-10.5 56.5q-91 -111 -187.5 -168t-202.5 -57 q-320 0 -320 430v100h-145zM430 465q0 -85 8.5 -146.5t28.5 -101t52.5 -58.5t80.5 -19q44 0 94 26.5t95.5 67.5t83 90.5t57.5 95.5v85h-500v-40z" />
<glyph unicode="&#x28a;" horiz-adv-x="1208" d="M85 875v145h335v-145q-51 -69 -83.5 -162t-32.5 -206q0 -87 22.5 -156t63 -117t95 -73.5t119.5 -25.5q60 0 114.5 25.5t96 73.5t65.5 117t24 156q0 113 -32.5 206t-83.5 162v146h335v-146h-170q64 -76 100 -179.5t36 -223.5q0 -116 -40.5 -208t-108.5 -156.5 t-157.5 -98.5t-188.5 -34q-103 0 -190 34t-150.5 98.5t-99 156.5t-35.5 208q0 58 10.5 115t29.5 109t45.5 97.5t59.5 81.5h-179z" />
<glyph unicode="&#x28c;" horiz-adv-x="1070" d="M20 0q21 43 43 92.5t43 97.5t39 91.5t30 73.5q12 29 29.5 73t38 96.5t43.5 109.5t45 112q51 129 109 274h190q60 -152 113 -284q22 -56 45 -113.5t43.5 -109t37 -93t26.5 -65.5q12 -30 30 -73t38.5 -91t43 -98t43.5 -93h-210l-305 820l-305 -820h-210z" />
<glyph unicode="&#x292;" horiz-adv-x="1025" d="M85 -155q43 -29 91.5 -56t99.5 -48t103.5 -33.5t105.5 -12.5q57 0 112 18t98 53.5t69 86.5t26 117q0 52 -18.5 104.5t-62.5 95t-118 69t-186 26.5q-34 0 -71 -2t-79 -8v120l435 495h-420q-45 0 -86 -2t-69 -13v165h795v-115l-440 -490q97 0 177 -21.5t143 -63.5 q31 -20 63 -50t58 -71t42.5 -95.5t16.5 -123.5q0 -104 -41 -189t-109 -145t-158 -93t-187 -33q-41 0 -94.5 10t-107.5 26.5t-104 38.5t-84 45v195z" />
<glyph unicode="&#x294;" horiz-adv-x="1002" d="M135 1285q32 28 68.5 52t79.5 41.5t94 27t113 9.5q84 0 157 -22.5t127 -64t85 -99.5t31 -129q0 -59 -19 -106.5t-48 -88.5t-63 -79.5t-65 -80.5q-33 -46 -57.5 -85.5t-40.5 -84t-24 -100.5t-8 -135v-122q0 -51 1.5 -90t4.5 -69.5t8 -58.5h-209q6 28 9 58.5t4.5 69.5 t1.5 90v122q0 79 10 145t28 122t43 103.5t54 89.5q34 48 65.5 84.5t56 69.5t39 65t14.5 71q0 33 -17 61t-48 49t-74.5 33t-95.5 12q-78 0 -150 -35t-135 -100z" />
<glyph unicode="&#x2a0;" horiz-adv-x="1255" d="M105 435q0 115 30 224t93 193.5t161.5 136t235.5 51.5q42 0 88.5 -5.5t81.5 -15.5v151q0 225 91.5 337.5t253.5 112.5q59 0 116 -18.5t104 -51.5l-46 -150q-38 28 -84 44t-90 16q-39 0 -69 -13.5t-50 -43.5t-30.5 -77.5t-10.5 -115.5v-1360q0 -60 1.5 -108.5t4.5 -89.5 t8 -75.5t11 -66.5h-210v630q-78 -91 -149 -128t-141 -37q-69 0 -140 27t-129 83.5t-94.5 143.5t-36.5 206zM290 485q0 -93 20.5 -158t53.5 -105.5t74 -58.5t82 -18q69 0 141 55t134 165v465q-45 17 -99.5 28.5t-100.5 11.5q-82 0 -140 -33.5t-94.5 -88t-53.5 -123.5 t-17 -140z" />
<glyph unicode="&#x2bc;" horiz-adv-x="445" d="M65 1385v100q5 24 18.5 42.5t32.5 31t41 19.5t43 7q30 0 56.5 -11.5t46 -33t31 -52t11.5 -68.5q0 -92 -43.5 -182t-131.5 -173l-100 40q22 22 45.5 54t43.5 69.5t33 78t13 78.5h-140z" />
<glyph unicode="&#x2c0;" horiz-adv-x="610" d="M50 1725q41 36 103 60.5t137 24.5q58 0 109 -17t89 -46.5t60 -68.5t22 -83q0 -42 -15.5 -77.5t-37 -65t-44.5 -54t-38 -43.5q-21 -28 -35.5 -55.5t-23.5 -59t-12.5 -69.5t-3.5 -86v-84q0 -36 1 -64.5t3 -50.5t6 -41h-165q3 19 5 41t3 50.5t1.5 64.5t0.5 84q0 54 5.5 95.5 t16 76t25 64t33.5 59.5q16 25 37 49t39.5 48t31 49.5t12.5 53.5q0 46 -36.5 75.5t-108.5 29.5q-54 0 -103 -26t-87 -64z" />
<glyph unicode="&#x2c6;" horiz-adv-x="870" d="M10 1170l340 430h170l340 -430h-150l-275 280l-275 -280h-150z" />
<glyph unicode="&#x2c7;" horiz-adv-x="850" d="M0 1600h150l275 -280l275 280h150l-340 -430h-170z" />
<glyph unicode="&#x2c9;" horiz-adv-x="750" d="M0 1240v150h750v-150h-750z" />
<glyph unicode="&#x2ca;" horiz-adv-x="580" d="M0 1170l350 430h230l-420 -430h-160z" />
<glyph unicode="&#x2cb;" horiz-adv-x="580" d="M0 1600h230l350 -430h-160z" />
<glyph unicode="&#x2cd;" horiz-adv-x="750" d="M0 -170h750v-150h-750v150z" />
<glyph unicode="&#x2d7;" horiz-adv-x="860" d="M80 555v150h700v-150h-700z" />
<glyph unicode="&#x2d8;" horiz-adv-x="750" d="M0 1550h120q6 -51 28.5 -96t56.5 -79.5t77.5 -54.5t92.5 -20t92 20t76 54.5t55 79.5t30 96h122q0 -73 -26 -144.5t-74.5 -128.5t-118 -92t-156.5 -35q-88 0 -157.5 35t-118 92t-74 128.5t-25.5 144.5z" />
<glyph unicode="&#x2d9;" horiz-adv-x="270" d="M0 1345q0 28 10.5 52.5t29 43t43 29t52.5 10.5t52.5 -10.5t43 -29t29 -43t10.5 -52.5t-10.5 -52.5t-29 -43t-43 -29t-52.5 -10.5t-52.5 10.5t-43 29t-29 43t-10.5 52.5z" />
<glyph unicode="&#x2da;" horiz-adv-x="430" d="M0 1385q0 45 16.5 84t46 68.5t68.5 46t84 16.5t84 -16.5t68.5 -46t46 -68.5t16.5 -84t-16.5 -84t-46 -68.5t-68.5 -46t-84 -16.5t-84 16.5t-68.5 46t-46 68.5t-16.5 84zM115 1385q0 -45 27.5 -72.5t72.5 -27.5t72.5 27.5t27.5 72.5t-27.5 72.5t-72.5 27.5t-72.5 -27.5 t-27.5 -72.5z" />
<glyph unicode="&#x2db;" horiz-adv-x="445" d="M0 -225q0 78 41 133.5t119 93.5h140q-78 -49 -119 -96.5t-41 -100.5q0 -57 32 -88.5t88 -31.5q16 0 37 5.5t42.5 15.5t41.5 23.5t34 30.5l30 -100q-44 -44 -96.5 -67t-108.5 -23q-46 0 -89 15t-76.5 42.5t-54 65t-20.5 82.5z" />
<glyph unicode="&#x2dc;" horiz-adv-x="710" d="M0 1205q0 46 13.5 90.5t38 80t60 57.5t80.5 22q21 0 41 -4t40.5 -11.5t43 -17t48.5 -19.5q27 -11 48.5 -20t40 -15t34.5 -9.5t32 -3.5q35 0 57.5 25t27.5 60h105q0 -48 -13.5 -93t-39 -80t-62.5 -56t-83 -21q-40 0 -80.5 13.5t-86.5 34.5q-58 27 -92.5 39.5t-62.5 12.5 q-37 0 -59 -24t-26 -61h-105z" />
<glyph unicode="&#x2dd;" horiz-adv-x="790" d="M0 1150l240 450h210l-310 -450h-140zM340 1150l240 450h210l-310 -450h-140z" />
<glyph unicode="&#x300;" horiz-adv-x="0" d="M-940 1600h230l350 -430h-160z" />
<glyph unicode="&#x301;" horiz-adv-x="0" d="M-750 1170l350 430h230l-420 -430h-160z" />
<glyph unicode="&#x302;" horiz-adv-x="0" d="M-995 1170l340 430h170l340 -430h-150l-275 280l-275 -280h-150z" />
<glyph unicode="&#x303;" horiz-adv-x="710" d="M0 1205q0 46 13.5 90.5t38 80t60 57.5t80.5 22q21 0 41 -4t40.5 -11.5t43 -17t48.5 -19.5q27 -11 48.5 -20t40 -15t34.5 -9.5t32 -3.5q35 0 57.5 25t27.5 60h105q0 -48 -13.5 -93t-39 -80t-62.5 -56t-83 -21q-40 0 -80.5 13.5t-86.5 34.5q-58 27 -92.5 39.5t-62.5 12.5 q-37 0 -59 -24t-26 -61h-105z" />
<glyph unicode="&#x304;" horiz-adv-x="0" d="M-945 1240v150h750v-150h-750z" />
<glyph unicode="&#x306;" horiz-adv-x="0" d="M-945 1550h120q6 -51 28.5 -96t56.5 -79.5t77.5 -54.5t92.5 -20t92 20t76 54.5t55 79.5t30 96h122q0 -73 -26 -144.5t-74.5 -128.5t-118 -92t-156.5 -35q-88 0 -157.5 35t-118 92t-74 128.5t-25.5 144.5z" />
<glyph unicode="&#x307;" horiz-adv-x="270" d="M0 1345q0 28 10.5 52.5t29 43t43 29t52.5 10.5t52.5 -10.5t43 -29t29 -43t10.5 -52.5t-10.5 -52.5t-29 -43t-43 -29t-52.5 -10.5t-52.5 10.5t-43 29t-29 43t-10.5 52.5z" />
<glyph unicode="&#x308;" horiz-adv-x="0" d="M-907 1345q0 28 9.5 52.5t26.5 43t40 29t51 10.5t51.5 -10.5t40.5 -29t26.5 -43t9.5 -52.5t-9.5 -52.5t-26.5 -43t-40.5 -29t-51.5 -10.5t-51 10.5t-40 29t-26.5 43t-9.5 52.5zM-487 1345q0 28 9.5 52.5t26.5 43t40 29t51 10.5t51.5 -10.5t40.5 -29t26.5 -43t9.5 -52.5 t-9.5 -52.5t-26.5 -43t-40.5 -29t-51.5 -10.5t-51 10.5t-40 29t-26.5 43t-9.5 52.5z" />
<glyph unicode="&#x309;" horiz-adv-x="0" d="M-750 1585q32 29 81 49.5t109 20.5q46 0 87 -13.5t71.5 -36.5t48.5 -54t18 -66t-17.5 -62t-40 -49t-44.5 -40t-32 -36q-18 -32 -24.5 -71.5t-6.5 -101.5h-120q0 64 8.5 110.5t28.5 80.5q15 24 36 44t40.5 37.5t33 35t13.5 37.5q0 37 -28.5 58.5t-86.5 21.5 q-44 0 -82 -19.5t-68 -50.5z" />
<glyph unicode="&#x30a;" horiz-adv-x="430" d="M0 1385q0 45 16.5 84t46 68.5t68.5 46t84 16.5t84 -16.5t68.5 -46t46 -68.5t16.5 -84t-16.5 -84t-46 -68.5t-68.5 -46t-84 -16.5t-84 16.5t-68.5 46t-46 68.5t-16.5 84zM115 1385q0 -45 27.5 -72.5t72.5 -27.5t72.5 27.5t27.5 72.5t-27.5 72.5t-72.5 27.5t-72.5 -27.5 t-27.5 -72.5z" />
<glyph unicode="&#x30b;" horiz-adv-x="790" d="M0 1150l240 450h210l-310 -450h-140zM340 1150l240 450h210l-310 -450h-140z" />
<glyph unicode="&#x30c;" horiz-adv-x="0" d="M-995 1600h150l275 -280l275 280h150l-340 -430h-170z" />
<glyph unicode="&#x31b;" horiz-adv-x="300" d="M-15 734v106q36 19 66 43.5t52 53.5t34.5 62.5t12.5 70.5h-150v100q10 24 21.5 42.5t28 31.5t39.5 19.5t56 6.5q30 0 56.5 -11.5t46 -33t31 -52t11.5 -68.5q0 -59 -22 -111.5t-61.5 -99t-96 -86.5t-125.5 -74z" />
<glyph unicode="&#x323;" horiz-adv-x="0" d="M-704 -244q0 28 10.5 52.5t29 43t43 29t52.5 10.5t52.5 -10.5t43 -29t29 -43t10.5 -52.5t-10.5 -52.5t-29 -43t-43 -29t-52.5 -10.5t-52.5 10.5t-43 29t-29 43t-10.5 52.5z" />
<glyph unicode="&#x327;" horiz-adv-x="0" d="M-565 -440l10 100q22 -16 45 -23t55 -7q22 0 45.5 5t43 17t32.5 31t14 47q-1 39 -28.5 64.5t-68.5 25.5q-24 0 -48 -7.5t-40 -17.5v207h125v-97q10 2 20.5 3.5t27.5 1.5q34 0 63 -12.5t50 -35t32.5 -54t11.5 -68.5q0 -51 -23 -92t-60 -69.5t-82 -43.5t-90 -15 q-39 0 -71.5 11.5t-63.5 28.5z" />
<glyph unicode="&#x328;" horiz-adv-x="0" d="M-770 -225q0 78 41 133.5t119 93.5h140q-78 -49 -119 -96.5t-41 -100.5q0 -57 32 -88.5t88 -31.5q16 0 37 5.5t43 15t42 23t34 30.5l30 -100q-44 -44 -97 -66.5t-109 -22.5q-46 0 -89 15t-76.5 42.5t-54 65t-20.5 82.5z" />
<glyph unicode="&#x331;" horiz-adv-x="750" d="M0 -170h750v-150h-750v150z" />
<glyph unicode="&#x33f;" horiz-adv-x="0" d="M-725 1240v150h1450v-150h-1450zM-725 1490v150h1450v-150h-1450z" />
<glyph unicode="&#x35e;" horiz-adv-x="0" d="M-750 1240v150h1500v-150h-1500z" />
<glyph unicode="&#x35f;" horiz-adv-x="0" d="M-750 -170h1500v-150h-1500v150z" />
<glyph unicode="&#x3a9;" horiz-adv-x="1613" d="M70 0v180q21 -4 58.5 -6.5t85 -4.5t102.5 -3t112 -1q-51 48 -103.5 110t-94.5 138t-68.5 166.5t-26.5 195.5q0 171 55.5 303t148.5 222.5t214 137.5t252 47q132 0 254 -44t215.5 -129.5t149.5 -211.5t56 -290q0 -119 -30 -216.5t-78 -176.5t-106.5 -141t-115.5 -111 q58 0 115 1t105.5 3t87 4.5t60.5 6.5v-180h-535v165q47 45 100 107t98 138.5t74.5 168t29.5 196.5q0 132 -37 232.5t-103 167.5t-155.5 101t-194.5 34q-99 0 -184.5 -36t-147.5 -102.5t-97.5 -161t-35.5 -210.5q0 -107 24.5 -198.5t63.5 -170t88 -144.5t99 -122v-165h-535z " />
<glyph unicode="&#x3c0;" horiz-adv-x="1317" d="M60 875v145h1180v-145h-205v-475q0 -73 2.5 -128.5t9 -102t17 -87t26.5 -82.5h-195q-19 46 -27.5 104t-12.5 133q-2 34 -2.5 78t-1.5 94t-1 105v361h-400v-875h-185v875h-205z" />
<glyph unicode="&#x1e02;" horiz-adv-x="1285" d="M160 0q6 30 9 77t4.5 106t1.5 128v832q0 70 -1.5 130.5t-4.5 108.5t-9 78q33 2 82 4t107.5 3.5t123 2t127.5 0.5q111 0 198 -18t146 -59t90 -108t31 -165q0 -63 -19 -113.5t-52.5 -90t-78 -68.5t-95.5 -48q58 -15 115 -41.5t102.5 -70.5t74 -109.5t28.5 -158.5 q0 -91 -29.5 -169.5t-94 -136.5t-166 -91t-245.5 -33q-77 0 -155.5 1.5t-143.5 3.5q-76 2 -146 5zM365 155q14 -1 38 -2t56 -1.5t70.5 -1t80.5 -0.5q64 0 124.5 13t107 44t75 83t28.5 130q0 139 -84.5 209.5t-260.5 70.5h-235v-545zM365 855h195q80 0 138.5 17t96.5 48 t56.5 74.5t18.5 95.5q0 56 -15.5 98t-49 70.5t-87 42.5t-128.5 14q-29 0 -62 -0.5t-64 -1.5t-57 -1.5t-42 -1.5v-455zM480 1775q0 28 10.5 52.5t29 43t43 29t52.5 10.5t52.5 -10.5t43 -29t29 -43t10.5 -52.5t-10.5 -52.5t-29 -43t-43 -29t-52.5 -10.5t-52.5 10.5t-43 29 t-29 43t-10.5 52.5z" />
<glyph unicode="&#x1e03;" horiz-adv-x="1155" d="M130 1600h200v-775q35 46 76 85t88.5 68t102.5 45.5t118 16.5q76 0 139 -37t109 -103.5t71.5 -158.5t25.5 -201q0 -129 -34.5 -233t-97.5 -178t-152.5 -114t-200.5 -40q-61 0 -118 8.5t-110.5 22t-103.5 29t-98 30.5v1183q0 64 -1.5 128.5t-4.5 123t-9 100.5zM330 185 q37 -15 67.5 -25.5t59.5 -17t57.5 -9.5t60.5 -3q66 0 122 27t96.5 76t63.5 118.5t23 153.5q0 83 -15 150t-43.5 113.5t-70.5 71.5t-96 25q-47 0 -94 -20.5t-89.5 -57.5t-79.5 -88.5t-62 -113.5v-400zM530 1350q0 28 10.5 52.5t29 43t43 29t52.5 10.5t52.5 -10.5t43 -29 t29 -43t10.5 -52.5t-10.5 -52.5t-29 -43t-43 -29t-52.5 -10.5t-52.5 10.5t-43 29t-29 43t-10.5 52.5z" />
<glyph unicode="&#x1e04;" horiz-adv-x="1285" d="M160 0q6 30 9 77t4.5 106t1.5 128v832q0 70 -1.5 130.5t-4.5 108.5t-9 78q33 2 82 4t107.5 3.5t123 2t127.5 0.5q111 0 198 -18t146 -59t90 -108t31 -165q0 -63 -19 -113.5t-52.5 -90t-78 -68.5t-95.5 -48q58 -15 115 -41.5t102.5 -70.5t74 -109.5t28.5 -158.5 q0 -91 -29.5 -169.5t-94 -136.5t-166 -91t-245.5 -33q-77 0 -155.5 1.5t-143.5 3.5q-76 2 -146 5zM365 155q14 -1 38 -2t56 -1.5t70.5 -1t80.5 -0.5q64 0 124.5 13t107 44t75 83t28.5 130q0 139 -84.5 209.5t-260.5 70.5h-235v-545zM365 855h195q80 0 138.5 17t96.5 48 t56.5 74.5t18.5 95.5q0 56 -15.5 98t-49 70.5t-87 42.5t-128.5 14q-29 0 -62 -0.5t-64 -1.5t-57 -1.5t-42 -1.5v-455zM480 -344q0 28 10.5 52.5t29 43t43 29t52.5 10.5t52.5 -10.5t43 -29t29 -43t10.5 -52.5t-10.5 -52.5t-29 -43t-43 -29t-52.5 -10.5t-52.5 10.5t-43 29 t-29 43t-10.5 52.5z" />
<glyph unicode="&#x1e05;" horiz-adv-x="1155" d="M130 1600h200v-775q35 46 76 85t88.5 68t102.5 45.5t118 16.5q76 0 139 -37t109 -103.5t71.5 -158.5t25.5 -201q0 -129 -34.5 -233t-97.5 -178t-152.5 -114t-200.5 -40q-61 0 -118 8.5t-110.5 22t-103.5 29t-98 30.5v1183q0 64 -1.5 128.5t-4.5 123t-9 100.5zM330 185 q37 -15 67.5 -25.5t59.5 -17t57.5 -9.5t60.5 -3q66 0 122 27t96.5 76t63.5 118.5t23 153.5q0 83 -15 150t-43.5 113.5t-70.5 71.5t-96 25q-47 0 -94 -20.5t-89.5 -57.5t-79.5 -88.5t-62 -113.5v-400zM455 -344q0 28 10.5 52.5t29 43t43 29t52.5 10.5t52.5 -10.5t43 -29 t29 -43t10.5 -52.5t-10.5 -52.5t-29 -43t-43 -29t-52.5 -10.5t-52.5 10.5t-43 29t-29 43t-10.5 52.5z" />
<glyph unicode="&#x1e06;" horiz-adv-x="1285" d="M160 0q6 30 9 77t4.5 106t1.5 128v832q0 70 -1.5 130.5t-4.5 108.5t-9 78q33 2 82 4t107.5 3.5t123 2t127.5 0.5q111 0 198 -18t146 -59t90 -108t31 -165q0 -63 -19 -113.5t-52.5 -90t-78 -68.5t-95.5 -48q58 -15 115 -41.5t102.5 -70.5t74 -109.5t28.5 -158.5 q0 -91 -29.5 -169.5t-94 -136.5t-166 -91t-245.5 -33q-77 0 -155.5 1.5t-143.5 3.5q-76 2 -146 5zM240 -269h750v-150h-750v150zM365 155q14 -1 38 -2t56 -1.5t70.5 -1t80.5 -0.5q64 0 124.5 13t107 44t75 83t28.5 130q0 139 -84.5 209.5t-260.5 70.5h-235v-545zM365 855 h195q80 0 138.5 17t96.5 48t56.5 74.5t18.5 95.5q0 56 -15.5 98t-49 70.5t-87 42.5t-128.5 14q-29 0 -62 -0.5t-64 -1.5t-57 -1.5t-42 -1.5v-455z" />
<glyph unicode="&#x1e07;" horiz-adv-x="1155" d="M130 1600h200v-775q35 46 76 85t88.5 68t102.5 45.5t118 16.5q76 0 139 -37t109 -103.5t71.5 -158.5t25.5 -201q0 -129 -34.5 -233t-97.5 -178t-152.5 -114t-200.5 -40q-61 0 -118 8.5t-110.5 22t-103.5 29t-98 30.5v1183q0 64 -1.5 128.5t-4.5 123t-9 100.5zM215 -269 h750v-150h-750v150zM330 185q37 -15 67.5 -25.5t59.5 -17t57.5 -9.5t60.5 -3q66 0 122 27t96.5 76t63.5 118.5t23 153.5q0 83 -15 150t-43.5 113.5t-70.5 71.5t-96 25q-47 0 -94 -20.5t-89.5 -57.5t-79.5 -88.5t-62 -113.5v-400z" />
<glyph unicode="&#x1e08;" horiz-adv-x="1355" d="M95 710q0 193 56 338.5t149.5 242.5t215.5 145.5t254 48.5q54 0 110 -7t112.5 -23t112.5 -43t110 -67l-60 -180q-47 42 -96 71t-98 46.5t-97.5 25t-93.5 7.5q-105 0 -193 -36.5t-151.5 -109.5t-99.5 -181.5t-36 -252.5q0 -116 31 -222t91 -186.5t147.5 -128.5t200.5 -48 q57 0 115.5 13t114.5 37.5t107 58.5t93 76l40 -195q-44 -41 -103 -71.5t-123.5 -51.5t-130.5 -31.5t-123 -10.5v-70q10 2 20.5 3.5t27.5 1.5q34 0 63 -12.5t50 -35t32.5 -54t11.5 -68.5q0 -51 -23 -92t-60 -69.5t-82 -43.5t-90 -15q-39 0 -71.5 11.5t-63.5 28.5l10 100 q22 -16 45 -23t55 -7q22 0 45.5 5t43 17t32.5 31t14 47q-1 39 -28.5 64.5t-68.5 25.5q-24 0 -48 -7.5t-40 -17.5v190q-124 20 -222 79t-166.5 152.5t-105 218t-36.5 275.5zM570 1600l350 430h230l-420 -430h-160z" />
<glyph unicode="&#x1e09;" horiz-adv-x="1020" d="M95 490q0 113 36.5 213t104 175t164 118.5t215.5 43.5q100 0 172.5 -23.5t127.5 -61.5l-35 -180q-68 50 -135 75t-145 25q-67 0 -124.5 -25.5t-100 -73.5t-66.5 -118t-24 -158q0 -81 22 -147t63 -113.5t99 -73.5t131 -26q91 0 165 31t140 89l20 -175q-38 -29 -75.5 -49.5 t-78.5 -34t-88 -20t-103 -6.5q-5 0 -10 0.5t-10 0.5v-71q10 2 20.5 3.5t27.5 1.5q34 0 63 -12.5t50 -35t32.5 -54t11.5 -68.5q0 -51 -23 -92t-60 -69.5t-82 -43.5t-90 -15q-39 0 -71.5 11.5t-63.5 28.5l10 100q22 -16 45 -23t55 -7q22 0 45.5 5t43 17t32.5 31t14 47 q-1 39 -28.5 64.5t-68.5 25.5q-24 0 -48 -7.5t-40 -17.5v201q-74 21 -136.5 64.5t-107.5 106.5t-70.5 144.5t-25.5 178.5zM390 1170l350 430h230l-420 -430h-160z" />
<glyph unicode="&#x1e0a;" horiz-adv-x="1435" d="M160 0q6 30 8.5 77t4 106t2 128.5t0.5 143.5v688q0 70 -1.5 130.5t-4.5 108.5t-9 78q21 1 53.5 2.5t72 2.5t83 2t87 1.5t84.5 1t75 0.5q40 0 91.5 -4.5t108 -17.5t116 -36.5t115 -61.5t104.5 -92t85.5 -128t58 -170.5t21.5 -219.5q0 -149 -33 -262.5t-88.5 -196.5 t-128.5 -139t-153 -90t-162 -48t-155 -14q-24 0 -55.5 0.5t-66.5 1t-72 1.5t-72 2q-82 2 -169 5zM365 165q35 -3 91.5 -6.5t128.5 -3.5q67 0 132.5 13t125 41.5t110.5 73.5t88 107.5t58 144.5t21 185q0 168 -42.5 281t-114.5 181.5t-168.5 98t-204.5 29.5q-25 0 -56 -0.5 t-62.5 -1.5t-59.5 -1.5t-47 -1.5v-1140zM580 1775q0 28 10.5 52.5t29 43t43 29t52.5 10.5t52.5 -10.5t43 -29t29 -43t10.5 -52.5t-10.5 -52.5t-29 -43t-43 -29t-52.5 -10.5t-52.5 10.5t-43 29t-29 43t-10.5 52.5z" />
<glyph unicode="&#x1e0b;" horiz-adv-x="1190" d="M105 460q0 133 36.5 240t100.5 182.5t150.5 116.5t187.5 41q32 0 66.5 -7t69 -19t67.5 -27.5t62 -31.5v280q0 121 -5.5 211.5t-19.5 153.5h210v-1070q0 -189 21.5 -317.5t53.5 -212.5h-180q-11 26 -26.5 77.5t-28.5 107.5q-72 -102 -163 -156t-202 -54q-92 0 -165.5 34.5 t-126 98t-80.5 153t-28 199.5zM290 490q0 -175 59.5 -265t190.5 -90q46 0 91.5 23t86 60t73.5 84.5t54 97.5v395q-37 20 -69 34t-63 23t-63 13.5t-70 4.5q-57 0 -109 -26t-92.5 -75t-64.5 -119.5t-24 -159.5zM370 1345q0 28 10.5 52.5t29 43t43 29t52.5 10.5t52.5 -10.5 t43 -29t29 -43t10.5 -52.5t-10.5 -52.5t-29 -43t-43 -29t-52.5 -10.5t-52.5 10.5t-43 29t-29 43t-10.5 52.5z" />
<glyph unicode="&#x1e0c;" horiz-adv-x="1435" d="M160 0q6 30 8.5 77t4 106t2 128.5t0.5 143.5v688q0 70 -1.5 130.5t-4.5 108.5t-9 78q21 1 53.5 2.5t72 2.5t83 2t87 1.5t84.5 1t75 0.5q40 0 91.5 -4.5t108 -17.5t116 -36.5t115 -61.5t104.5 -92t85.5 -128t58 -170.5t21.5 -219.5q0 -149 -33 -262.5t-88.5 -196.5 t-128.5 -139t-153 -90t-162 -48t-155 -14q-24 0 -55.5 0.5t-66.5 1t-72 1.5t-72 2q-82 2 -169 5zM365 165q35 -3 91.5 -6.5t128.5 -3.5q67 0 132.5 13t125 41.5t110.5 73.5t88 107.5t58 144.5t21 185q0 168 -42.5 281t-114.5 181.5t-168.5 98t-204.5 29.5q-25 0 -56 -0.5 t-62.5 -1.5t-59.5 -1.5t-47 -1.5v-1140zM580 -344q0 28 10.5 52.5t29 43t43 29t52.5 10.5t52.5 -10.5t43 -29t29 -43t10.5 -52.5t-10.5 -52.5t-29 -43t-43 -29t-52.5 -10.5t-52.5 10.5t-43 29t-29 43t-10.5 52.5z" />
<glyph unicode="&#x1e0d;" horiz-adv-x="1190" d="M105 460q0 133 36.5 240t100.5 182.5t150.5 116.5t187.5 41q32 0 66.5 -7t69 -19t67.5 -27.5t62 -31.5v280q0 121 -5.5 211.5t-19.5 153.5h210v-1070q0 -189 21.5 -317.5t53.5 -212.5h-180q-11 26 -26.5 77.5t-28.5 107.5q-72 -102 -163 -156t-202 -54q-92 0 -165.5 34.5 t-126 98t-80.5 153t-28 199.5zM290 490q0 -175 59.5 -265t190.5 -90q46 0 91.5 23t86 60t73.5 84.5t54 97.5v395q-37 20 -69 34t-63 23t-63 13.5t-70 4.5q-57 0 -109 -26t-92.5 -75t-64.5 -119.5t-24 -159.5zM470 -344q0 28 10.5 52.5t29 43t43 29t52.5 10.5t52.5 -10.5 t43 -29t29 -43t10.5 -52.5t-10.5 -52.5t-29 -43t-43 -29t-52.5 -10.5t-52.5 10.5t-43 29t-29 43t-10.5 52.5z" />
<glyph unicode="&#x1e0e;" horiz-adv-x="1435" d="M160 0q6 30 8.5 77t4 106t2 128.5t0.5 143.5v688q0 70 -1.5 130.5t-4.5 108.5t-9 78q21 1 53.5 2.5t72 2.5t83 2t87 1.5t84.5 1t75 0.5q40 0 91.5 -4.5t108 -17.5t116 -36.5t115 -61.5t104.5 -92t85.5 -128t58 -170.5t21.5 -219.5q0 -149 -33 -262.5t-88.5 -196.5 t-128.5 -139t-153 -90t-162 -48t-155 -14q-24 0 -55.5 0.5t-66.5 1t-72 1.5t-72 2q-82 2 -169 5zM340 -269h750v-150h-750v150zM365 165q35 -3 91.5 -6.5t128.5 -3.5q67 0 132.5 13t125 41.5t110.5 73.5t88 107.5t58 144.5t21 185q0 168 -42.5 281t-114.5 181.5t-168.5 98 t-204.5 29.5q-25 0 -56 -0.5t-62.5 -1.5t-59.5 -1.5t-47 -1.5v-1140z" />
<glyph unicode="&#x1e0f;" horiz-adv-x="1190" d="M105 460q0 133 36.5 240t100.5 182.5t150.5 116.5t187.5 41q32 0 66.5 -7t69 -19t67.5 -27.5t62 -31.5v280q0 121 -5.5 211.5t-19.5 153.5h210v-1070q0 -189 21.5 -317.5t53.5 -212.5h-180q-11 26 -26.5 77.5t-28.5 107.5q-72 -102 -163 -156t-202 -54q-92 0 -165.5 34.5 t-126 98t-80.5 153t-28 199.5zM230 -269h750v-150h-750v150zM290 490q0 -175 59.5 -265t190.5 -90q46 0 91.5 23t86 60t73.5 84.5t54 97.5v395q-37 20 -69 34t-63 23t-63 13.5t-70 4.5q-57 0 -109 -26t-92.5 -75t-64.5 -119.5t-24 -159.5z" />
<glyph unicode="&#x1e14;" horiz-adv-x="1160" d="M160 0q11 60 13 173.5t2 261.5v590q0 148 -2 261.5t-13 173.5h850v-165h-645v-450h570v-160h-570v-520h264q149 0 250 2t161 13v-180h-880zM210 2380h230l350 -430h-160zM225 1670v150h750v-150h-750z" />
<glyph unicode="&#x1e15;" horiz-adv-x="1095" d="M95 495q0 124 33.5 224.5t95.5 172t151 110t200 38.5q82 0 145 -19.5t109 -54t77 -80.5t49.5 -99t26.5 -110.5t8 -113.5v-39q0 -25 -1 -39h-709q3 -88 27.5 -153t67 -107.5t100 -63.5t125.5 -21q97 0 190 22t185 78l20 -165q-53 -27 -104 -46t-102 -31t-103.5 -17.5 t-110.5 -5.5q-96 0 -183 33.5t-153 99t-105 162.5t-39 225zM179 1950h230l350 -430h-160zM194 1240v150h750v-150h-750zM288 625h522q0 64 -18.5 113.5t-52 83.5t-79.5 51t-100 17q-110 0 -180 -64.5t-92 -200.5z" />
<glyph unicode="&#x1e16;" horiz-adv-x="1160" d="M160 0q11 60 13 173.5t2 261.5v590q0 148 -2 261.5t-13 173.5h850v-165h-645v-450h570v-160h-570v-520h264q149 0 250 2t161 13v-180h-880zM225 1670v150h750v-150h-750zM420 1950l350 430h230l-420 -430h-160z" />
<glyph unicode="&#x1e17;" horiz-adv-x="1095" d="M95 495q0 124 33.5 224.5t95.5 172t151 110t200 38.5q82 0 145 -19.5t109 -54t77 -80.5t49.5 -99t26.5 -110.5t8 -113.5v-39q0 -25 -1 -39h-709q3 -88 27.5 -153t67 -107.5t100 -63.5t125.5 -21q97 0 190 22t185 78l20 -165q-53 -27 -104 -46t-102 -31t-103.5 -17.5 t-110.5 -5.5q-96 0 -183 33.5t-153 99t-105 162.5t-39 225zM194 1240v150h750v-150h-750zM288 625h522q0 64 -18.5 113.5t-52 83.5t-79.5 51t-100 17q-110 0 -180 -64.5t-92 -200.5zM389 1520l350 430h230l-420 -430h-160z" />
<glyph unicode="&#x1e1c;" horiz-adv-x="1160" d="M160 0q11 60 13 173.5t2 261.5v590q0 148 -2 261.5t-13 173.5h850v-165h-645v-450h570v-160h-570v-520h264q149 0 250 2t161 13v-180h-440v-95q10 2 20.5 3.5t27.5 1.5q34 0 63 -12.5t50 -35t32.5 -54t11.5 -68.5q0 -51 -23 -92t-60 -69.5t-82 -43.5t-90 -15 q-39 0 -71.5 11.5t-63.5 28.5l10 100q22 -16 45 -23t55 -7q22 0 45.5 5t43 17t32.5 31t14 47q-1 39 -28.5 64.5t-68.5 25.5q-24 0 -48 -7.5t-40 -17.5v205h-315zM225 1980h120q6 -51 28.5 -96t56.5 -79.5t77.5 -54.5t92.5 -20t92 20t76 54.5t55 79.5t30 96h122 q0 -73 -26 -144.5t-74.5 -128.5t-118 -92t-156.5 -35q-88 0 -157.5 35t-118 92t-74 128.5t-25.5 144.5z" />
<glyph unicode="&#x1e1d;" horiz-adv-x="1095" d="M95 495q0 124 33.5 224.5t95.5 172t151 110t200 38.5q82 0 145 -19.5t109 -54t77 -80.5t49.5 -99t26.5 -110.5t8 -113.5v-39q0 -25 -1 -39h-709q3 -88 27.5 -153t67 -107.5t100 -63.5t125.5 -21q97 0 190 22t185 78l20 -165q-53 -27 -104 -46t-102 -31t-103.5 -17.5 t-110.5 -5.5q-8 0 -15 0.5t-15 0.5v-71q10 2 20.5 3.5t27.5 1.5q34 0 63 -12.5t50 -35t32.5 -54t11.5 -68.5q0 -51 -23 -92t-60 -69.5t-82 -43.5t-90 -15q-39 0 -71.5 11.5t-63.5 28.5l10 100q22 -16 45 -23t55 -7q22 0 45.5 5t43 17t32.5 31t14 47q-1 39 -28.5 64.5 t-68.5 25.5q-24 0 -48 -7.5t-40 -17.5v204q-69 22 -128.5 64.5t-103 104.5t-68.5 144t-25 183zM194 1550h120q6 -51 28.5 -96t56.5 -79.5t77.5 -54.5t92.5 -20t92 20t76 54.5t55 79.5t30 96h122q0 -73 -26 -144.5t-74.5 -128.5t-118 -92t-156.5 -35q-88 0 -157.5 35t-118 92 t-74 128.5t-25.5 144.5zM288 625h522q0 64 -18.5 113.5t-52 83.5t-79.5 51t-100 17q-110 0 -180 -64.5t-92 -200.5z" />
<glyph unicode="&#x1e1e;" horiz-adv-x="1150" d="M160 0q11 60 13 173.5t2 261.5v725q0 67 -1.5 123.5t-4.5 101.5t-9 75h870v-165h-665v-460h580v-160h-580v-240q0 -149 2 -262.5t13 -172.5h-220zM460 1775q0 28 10.5 52.5t29 43t43 29t52.5 10.5t52.5 -10.5t43 -29t29 -43t10.5 -52.5t-10.5 -52.5t-29 -43t-43 -29 t-52.5 -10.5t-52.5 10.5t-43 29t-29 43t-10.5 52.5z" />
<glyph unicode="&#x1e1f;" horiz-adv-x="750" d="M40 850v145h200v175q0 225 91.5 337.5t253.5 112.5q59 0 116 -18.5t104 -51.5l-46 -150q-38 28 -84 44t-90 16q-39 0 -69 -13.5t-50 -43.5t-30.5 -77.5t-10.5 -115.5v-215h270v-145h-270v-356q0 -73 1.5 -144.5t5 -136t9.5 -119.5t14 -94h-215v850h-200zM425 1880 q0 28 10.5 52.5t29 43t43 29t52.5 10.5t52.5 -10.5t43 -29t29 -43t10.5 -52.5t-10.5 -52.5t-29 -43t-43 -29t-52.5 -10.5t-52.5 10.5t-43 29t-29 43t-10.5 52.5z" />
<glyph unicode="&#x1e20;" horiz-adv-x="1420" d="M95 720q0 180 53.5 322t146.5 240.5t218.5 150.5t269.5 52q61 0 118.5 -5.5t115 -20.5t117.5 -42.5t126 -71.5l-65 -180q-56 45 -108.5 74.5t-103.5 46t-100.5 23t-99.5 6.5q-114 0 -205.5 -40t-155.5 -114t-98 -179.5t-34 -236.5q0 -138 32.5 -248t93.5 -187.5 t147.5 -118.5t193.5 -41q45 0 84.5 4.5t78.5 15.5t79 29t86 46v335h-350v165h540v-590q-77 -54 -145 -89t-132 -55t-126 -28t-127 -8q-142 0 -261 49t-205.5 144t-135 233.5t-48.5 318.5zM370 1670v150h750v-150h-750z" />
<glyph unicode="&#x1e21;" horiz-adv-x="1095" d="M30 -200q0 81 59.5 148t186.5 121q-54 31 -75 69t-21 77q0 19 7.5 41.5t22.5 44.5t36.5 42t49.5 36q-83 47 -132 124.5t-49 176.5q0 76 30.5 142t84.5 114.5t127 76t158 27.5q73 0 137.5 -20.5t115.5 -57.5q65 33 141 53t141 25l-10 -160q-40 -2 -82 -8t-89 -20 q22 -38 34 -81t12 -91q0 -77 -30.5 -142t-84.5 -112t-127 -74t-158 -27q-19 0 -36.5 1.5t-34.5 3.5q-55 -23 -77 -48t-22 -47q0 -14 14 -28.5t51 -29t99.5 -27.5t160.5 -25q111 -13 187 -38t122 -61t66 -82.5t20 -103.5q0 -54 -22.5 -100.5t-61 -84.5t-90.5 -68t-111 -50.5 t-122 -31t-123 -10.5q-58 0 -118 8t-116 24.5t-105.5 41.5t-86 59t-58 77t-21.5 95zM140 1240v150h750v-150h-750zM215 -180q0 -30 20.5 -62t62 -58.5t104.5 -43t148 -16.5q68 0 128 17.5t105 45.5t71 61.5t26 65.5q0 30 -16 55.5t-54 46t-103 36.5t-162 27q-29 4 -55 7.5 t-49 8.5q-75 -27 -119.5 -52t-68 -49t-31 -46.5t-7.5 -43.5zM285 680q0 -46 17 -85.5t48 -68t73 -45t92 -16.5t92.5 16.5t73 45t47.5 68t17 85.5t-17 85.5t-47.5 68t-73 45t-92.5 16.5t-92 -16.5t-73 -45t-48 -68t-17 -85.5z" />
<glyph unicode="&#x1e22;" horiz-adv-x="1475" d="M160 0q11 60 13 173.5t2 261.5v590q0 148 -2 261.5t-13 173.5h205v-625h720v625h205q-11 -60 -13 -173.5t-2 -261.5v-590q0 -148 2 -261.5t13 -173.5h-205v675h-720v-675h-205zM590 1775q0 28 10.5 52.5t29 43t43 29t52.5 10.5t52.5 -10.5t43 -29t29 -43t10.5 -52.5 t-10.5 -52.5t-29 -43t-43 -29t-52.5 -10.5t-52.5 10.5t-43 29t-29 43t-10.5 52.5z" />
<glyph unicode="&#x1e23;" horiz-adv-x="1175" d="M130 1600h200v-770q74 105 174 157.5t206 52.5q160 0 245 -104.5t85 -310.5v-625h-185v550q0 94 -12.5 155t-37.5 96.5t-62.5 49.5t-87.5 14q-54 0 -105.5 -25.5t-94.5 -66t-76 -91.5t-49 -102v-580h-185v1130q0 162 -2 283.5t-13 186.5zM450 1880q0 28 10.5 52.5t29 43 t43 29t52.5 10.5t52.5 -10.5t43 -29t29 -43t10.5 -52.5t-10.5 -52.5t-29 -43t-43 -29t-52.5 -10.5t-52.5 10.5t-43 29t-29 43t-10.5 52.5z" />
<glyph unicode="&#x1e24;" horiz-adv-x="1475" d="M160 0q11 60 13 173.5t2 261.5v590q0 148 -2 261.5t-13 173.5h205v-625h720v625h205q-11 -60 -13 -173.5t-2 -261.5v-590q0 -148 2 -261.5t13 -173.5h-205v675h-720v-675h-205zM590 -344q0 28 10.5 52.5t29 43t43 29t52.5 10.5t52.5 -10.5t43 -29t29 -43t10.5 -52.5 t-10.5 -52.5t-29 -43t-43 -29t-52.5 -10.5t-52.5 10.5t-43 29t-29 43t-10.5 52.5z" />
<glyph unicode="&#x1e25;" horiz-adv-x="1175" d="M130 1600h200v-770q74 105 174 157.5t206 52.5q160 0 245 -104.5t85 -310.5v-625h-185v550q0 94 -12.5 155t-37.5 96.5t-62.5 49.5t-87.5 14q-54 0 -105.5 -25.5t-94.5 -66t-76 -91.5t-49 -102v-580h-185v1130q0 162 -2 283.5t-13 186.5zM450 -344q0 28 10.5 52.5t29 43 t43 29t52.5 10.5t52.5 -10.5t43 -29t29 -43t10.5 -52.5t-10.5 -52.5t-29 -43t-43 -29t-52.5 -10.5t-52.5 10.5t-43 29t-29 43t-10.5 52.5z" />
<glyph unicode="&#x1e26;" horiz-adv-x="1475" d="M160 0q11 60 13 173.5t2 261.5v590q0 148 -2 261.5t-13 173.5h205v-625h720v625h205q-11 -60 -13 -173.5t-2 -261.5v-590q0 -148 2 -261.5t13 -173.5h-205v675h-720v-675h-205zM388 1775q0 28 9.5 52.5t26.5 43t40 29t51 10.5t51.5 -10.5t40.5 -29t26.5 -43t9.5 -52.5 t-9.5 -52.5t-26.5 -43t-40.5 -29t-51.5 -10.5t-51 10.5t-40 29t-26.5 43t-9.5 52.5zM808 1775q0 28 9.5 52.5t26.5 43t40 29t51 10.5t51.5 -10.5t40.5 -29t26.5 -43t9.5 -52.5t-9.5 -52.5t-26.5 -43t-40.5 -29t-51.5 -10.5t-51 10.5t-40 29t-26.5 43t-9.5 52.5z" />
<glyph unicode="&#x1e27;" horiz-adv-x="1175" d="M130 1600h200v-770q74 105 174 157.5t206 52.5q160 0 245 -104.5t85 -310.5v-625h-185v550q0 94 -12.5 155t-37.5 96.5t-62.5 49.5t-87.5 14q-54 0 -105.5 -25.5t-94.5 -66t-76 -91.5t-49 -102v-580h-185v1130q0 162 -2 283.5t-13 186.5zM248 1880q0 28 9.5 52.5t26.5 43 t40 29t51 10.5t51.5 -10.5t40.5 -29t26.5 -43t9.5 -52.5t-9.5 -52.5t-26.5 -43t-40.5 -29t-51.5 -10.5t-51 10.5t-40 29t-26.5 43t-9.5 52.5zM668 1880q0 28 9.5 52.5t26.5 43t40 29t51 10.5t51.5 -10.5t40.5 -29t26.5 -43t9.5 -52.5t-9.5 -52.5t-26.5 -43t-40.5 -29 t-51.5 -10.5t-51 10.5t-40 29t-26.5 43t-9.5 52.5z" />
<glyph unicode="&#x1e2e;" horiz-adv-x="975" d="M140 0v145h240v1170h-240v145h675v-145h-245v-1170h245v-145h-675zM140 1775q0 28 9.5 52.5t26.5 43t40 29t51 10.5t51.5 -10.5t40.5 -29t26.5 -43t9.5 -52.5t-9.5 -52.5t-26.5 -43t-40.5 -29t-51.5 -10.5t-51 10.5t-40 29t-26.5 43t-9.5 52.5zM297 2005l350 430h230 l-420 -430h-160zM560 1775q0 28 9.5 52.5t26.5 43t40 29t51 10.5t51.5 -10.5t40.5 -29t26.5 -43t9.5 -52.5t-9.5 -52.5t-26.5 -43t-40.5 -29t-51.5 -10.5t-51 10.5t-40 29t-26.5 43t-9.5 52.5z" />
<glyph unicode="&#x1e2f;" horiz-adv-x="530" d="M-72 1345q0 28 9.5 52.5t26.5 43t40 29t51 10.5t51.5 -10.5t40.5 -29t26.5 -43t9.5 -52.5t-9.5 -52.5t-26.5 -43t-40.5 -29t-51.5 -10.5t-51 10.5t-40 29t-26.5 43t-9.5 52.5zM85 1575l350 430h230l-420 -430h-160zM155 1020h200v-545q0 -48 1.5 -113.5t4 -132.5t6 -128 t8.5 -101h-205v530q0 73 -0.5 144t-2 134.5t-4.5 118t-8 93.5zM348 1345q0 28 9.5 52.5t26.5 43t40 29t51 10.5t51.5 -10.5t40.5 -29t26.5 -43t9.5 -52.5t-9.5 -52.5t-26.5 -43t-40.5 -29t-51.5 -10.5t-51 10.5t-40 29t-26.5 43t-9.5 52.5z" />
<glyph unicode="&#x1e30;" horiz-adv-x="1310" d="M160 0q11 60 13 173.5t2 261.5v590q0 148 -2 261.5t-13 173.5h205v-673l560 673h240l-606 -687l671 -773h-245l-620 717v-717h-205zM470 1600l350 430h230l-420 -430h-160z" />
<glyph unicode="&#x1e31;" horiz-adv-x="1035" d="M130 1600h200v-999l405 419h250l-495 -447l525 -573h-245l-440 520v-520h-185v1130q0 162 -2 283.5t-13 186.5zM392 1705l350 430h230l-420 -430h-160z" />
</font>
</defs>
</svg>
