<?xml version="1.0" standalone="no"?>
<!DOCTYPE svg PUBLIC "-//W3C//DTD SVG 1.1//EN" "http://www.w3.org/Graphics/SVG/1.1/DTD/svg11.dtd" >
<svg xmlns="http://www.w3.org/2000/svg">
<metadata></metadata>
<defs>
<font id="gentium_basicbold" horiz-adv-x="0" >
<font-face units-per-em="2048" ascent="1638" descent="-410" />
<missing-glyph horiz-adv-x="510" />
<glyph unicode="&#xd;" horiz-adv-x="1024" />
<glyph unicode=" "  horiz-adv-x="510" />
<glyph unicode="&#x09;" horiz-adv-x="510" />
<glyph unicode="&#xa0;" horiz-adv-x="510" />
<glyph unicode="!" horiz-adv-x="633" d="M476 131q0 -40 -14.5 -72t-39.5 -54t-58.5 -33.5t-70.5 -11.5q-30 0 -56 7.5t-46 24t-31.5 42t-11.5 61.5q0 39 15 71t40.5 54t58.5 34t70 12q27 0 53 -8t46.5 -24.5t32.5 -42t12 -60.5zM377 412q-19 -14 -49 -22.5t-55 -16.5l-29 21l-77 974q22 12 54.5 28.5t67 32.5 t66 30t51.5 21l50 -32z" />
<glyph unicode="&#x22;" horiz-adv-x="960" d="M347 834q-8 -4 -24 -8t-35 -7t-37 -4.5t-30 -1.5l-83 583q7 4 25.5 11.5t41.5 16.5t49 18t49.5 17t41 13.5t24.5 7.5l51 -28zM750 834q-8 -4 -24 -8t-35 -7t-37 -4.5t-30 -1.5l-83 583q11 6 44.5 19.5t71.5 27t71 24.5t44 13l51 -28z" />
<glyph unicode="#" horiz-adv-x="1036" d="M863 976h154l25 -25q-2 -11 -8 -28t-13.5 -34.5t-14 -33.5t-10.5 -24h-174l-65 -226h154l22 -27q-2 -10 -7.5 -26.5t-12.5 -34t-13 -33t-10 -24.5h-174l-83 -290q-9 -7 -24.5 -13t-32.5 -11t-34.5 -10t-30.5 -9l-26 20l89 313h-174l-83 -290q-9 -7 -24 -13t-32 -11 l-34 -10q-17 -5 -30 -9l-26 20l89 313h-166l-22 25q2 10 7.5 26t12.5 33.5t13.5 34t11.5 26.5h185l64 226h-163l-25 24q2 11 8 27.5t13.5 34t14 33.5t10.5 26h184l78 275q11 8 26.5 13.5t32.5 10t32.5 8.5t26.5 9l29 -22l-85 -294h174l78 275q11 8 26.5 13.5t32.5 10t33 8.5 t28 9l27 -22zM442 605h174l64 226h-173z" />
<glyph unicode="$" horiz-adv-x="1036" d="M285 951q0 -32 13 -57t35.5 -45t53.5 -36.5t68 -31.5v311q-41 -4 -72.5 -16.5t-53 -31.5t-33 -43t-11.5 -50zM742 317q0 39 -12.5 70t-35 55.5t-53 44t-66.5 35.5v-384q33 5 63 18.5t53.5 35.5t37 53t13.5 72zM575 -128q-18 -16 -39.5 -28t-46.5 -18l-34 29v136 q-85 3 -183 34t-185 86q-5 3 -7.5 21.5t-3 45t0.5 59t3 64.5t6 60.5t9 46.5l73 -4q24 -51 52.5 -95t64 -78t77.5 -57t93 -33v428q-67 24 -133.5 49.5t-119.5 62.5t-86 90.5t-33 132.5q0 43 18 92.5t61.5 94t114.5 77t178 42.5v131q14 8 23.5 14.5t18.5 11.5t19 9t25 8 l34 -29v-143q52 -3 104 -12.5t97 -23.5t80 -31.5t53 -35.5q6 -7 -1.5 -37t-21.5 -66t-31 -68.5t-30 -44.5l-69 8q-34 69 -77.5 114.5t-103.5 65.5v-344q67 -24 134.5 -52.5t121.5 -70.5t87.5 -101t33.5 -143q0 -60 -21 -120.5t-66.5 -112.5t-117 -89.5t-172.5 -50.5v-125z " />
<glyph unicode="%" horiz-adv-x="1491" d="M1233 290q0 146 -35 216t-88 70q-50 0 -78 -56t-28 -187q0 -148 31.5 -218.5t91.5 -70.5q52 0 79 57t27 189zM1438 310q0 -70 -24.5 -132t-68 -108.5t-103.5 -73.5t-132 -27t-129.5 27t-98 73.5t-62 108.5t-21.5 132t23 132t66 108.5t103.5 73.5t135.5 27q74 0 132 -27 t97.5 -73t60.5 -108.5t21 -132.5zM374 7q-11 -6 -30.5 -11.5t-41.5 -10t-43 -9t-34 -7.5l-24 31l913 1199q10 5 29.5 10.5t41.5 10.5t42 9t32 7l26 -30zM488 877q0 73 -9.5 127t-26 89t-39 52.5t-48.5 17.5q-50 0 -78 -56t-28 -187q0 -148 31 -218t91 -70q52 0 79.5 57 t27.5 188zM693 897q0 -69 -24.5 -131t-68 -108.5t-103.5 -73.5t-132 -27t-129.5 27t-98 73.5t-62 108.5t-21.5 131q0 70 23 132t65.5 108.5t103 73.5t135.5 27q74 0 132 -27t98 -73t61 -108.5t21 -132.5z" />
<glyph unicode="&#x26;" horiz-adv-x="1419" d="M497 1130q0 -52 14 -107.5t40 -114.5q47 28 78.5 61t50 67t26.5 68.5t8 66.5q0 70 -32.5 110t-78.5 40q-27 0 -47 -15t-33 -41t-19.5 -61t-6.5 -74zM573 114q57 0 109.5 17t99.5 46q-47 45 -95.5 97.5t-95.5 110.5t-91 120t-82 126q-53 -64 -73 -126.5t-20 -131.5 q0 -70 22 -119.5t57.5 -80.5t80 -45t88.5 -14zM1414 748q-12 -15 -27 -33.5t-30 -36t-30 -32.5t-27 -24q-37 17 -80 31.5t-77 16.5q21 -29 27 -59t6 -68q0 -66 -30.5 -141t-85.5 -147q21 -19 41 -36t39 -33q51 -43 106.5 -54t106.5 1l16 -73q-43 -19 -90.5 -35.5 t-89.5 -28.5t-73 -19t-42 -7q-25 0 -76 31t-117 86q-79 -54 -172 -85.5t-196 -31.5q-105 0 -188 24.5t-141 72.5t-88.5 119.5t-30.5 165.5q0 106 67 212t211 212q-33 76 -52 150.5t-19 146.5q0 81 31 150t84.5 119.5t125 79t151.5 28.5q76 0 130 -20.5t89 -54.5t51.5 -78.5 t16.5 -92.5q0 -52 -26.5 -106t-70 -105t-99 -97.5t-114.5 -83.5l-31 -20q34 -57 74.5 -114.5t85 -112.5t91 -107.5t93.5 -99.5q20 36 30.5 72.5t10.5 71.5q0 42 -13 75.5t-34.5 57t-49 36t-56.5 12.5l-29 35q5 6 16 17t23.5 22.5t26 21t23.5 13.5h481z" />
<glyph unicode="'" horiz-adv-x="557" d="M347 834q-8 -4 -24 -8t-35 -7t-37 -4.5t-30 -1.5l-83 583q7 4 25.5 11.5t41.5 16.5t49 18t49.5 17t41 13.5t24.5 7.5l51 -28z" />
<glyph unicode="(" horiz-adv-x="679" d="M601 -315q-125 66 -217.5 161t-154.5 215t-92.5 261.5t-30.5 300.5q0 164 34.5 312t98.5 273t156 224.5t206 167.5l54 -75q-60 -60 -112.5 -144t-91.5 -192.5t-62 -243t-23 -294.5q0 -146 18.5 -277.5t55 -245t90.5 -206.5t125 -162z" />
<glyph unicode=")" horiz-adv-x="679" d="M575 662q0 -164 -34.5 -312t-98.5 -273.5t-156 -225t-206 -167.5l-54 75q60 60 112.5 144t91.5 193t62 243t23 295q0 145 -18.5 277t-55 245.5t-90.5 206.5t-125 161l54 75q124 -66 217 -161t155 -214.5t92.5 -261t30.5 -300.5z" />
<glyph unicode="*" horiz-adv-x="907" d="M501 1220l217 184q10 -7 29.5 -21t40 -30.5t38.5 -31.5t26 -23l-9 -56l-291 -106l268 -96q-1 -12 -4 -36t-6.5 -50t-8 -49t-7.5 -34l-53 -20l-236 197l50 -278q-11 -6 -33 -15.5t-46.5 -19t-46.5 -17.5t-33 -10l-44 35l53 305l-216 -184q-10 7 -29.5 21.5t-40 30.5 t-38.5 31t-25 23l8 56l292 106l-269 96q1 12 4 36t6.5 50t8 49t7.5 34l52 20l237 -198l-50 279q11 6 33 15.5t46.5 19t46.5 17.5t33 11l44 -36z" />
<glyph unicode="+" horiz-adv-x="863" d="M506 225q-10 -5 -24.5 -11t-30.5 -11.5t-31.5 -10t-26.5 -6.5l-32 30v275h-276l-32 31q3 11 8.5 26t12.5 31t13.5 30.5t11.5 24.5h262v268l24 8q15 5 31 10.5t31.5 10.5t26.5 8l32 -31v-274h271l33 -31q-3 -11 -9 -26.5t-13 -32t-13.5 -31t-10.5 -22.5h-258v-266z" />
<glyph unicode="," horiz-adv-x="552" d="M480 70q0 -54 -23 -116t-62.5 -123.5t-92.5 -116.5t-113 -94l-68 50q56 65 88 135t32 157q0 22 -9.5 44t-27 38.5t-43 25.5t-57.5 7l-16 77q6 8 25 19t46.5 22.5t59.5 23t63 21t58 14.5t44 5q48 -23 72 -66.5t24 -122.5z" />
<glyph unicode="-" horiz-adv-x="728" d="M675 554q-3 -11 -9 -27t-13 -32.5t-13.5 -31.5t-10.5 -23h-544l-32 32q3 11 8.5 26.5t12.5 31.5t13.5 30.5t11.5 24.5h543z" />
<glyph unicode="." horiz-adv-x="552" d="M459 131q0 -40 -14.5 -72t-39 -54t-58 -33.5t-71.5 -11.5q-29 0 -55.5 7.5t-46.5 24t-31.5 42t-11.5 61.5q0 39 15 71t40.5 54t59 34t69.5 12q28 0 54 -8t46 -24.5t32 -42t12 -60.5z" />
<glyph unicode="/" horiz-adv-x="975" d="M242 -277q-10 -7 -32 -15.5t-47 -16.5t-48.5 -15t-35.5 -11l-44 32l701 1847q13 9 34.5 17t44.5 15.5t44.5 13.5t35.5 10l45 -29z" />
<glyph unicode="0" horiz-adv-x="1036" d="M714 565q0 137 -15.5 238.5t-43.5 168.5t-66 100t-83 33q-46 0 -80 -25t-57 -80t-34.5 -142.5t-11.5 -212.5q0 -275 53.5 -410t153.5 -135q46 0 81 25t57.5 80.5t34 144t11.5 215.5zM975 602q0 -129 -34.5 -244t-96.5 -201t-148 -136.5t-190 -50.5t-186 50.5t-140 136.5 t-88.5 201t-30.5 244t32.5 244t93.5 201.5t148 137t195 50.5q106 0 189 -50t140 -136t86.5 -201.5t29.5 -245.5z" />
<glyph unicode="1" horiz-adv-x="1036" d="M155 0v83q78 9 130 20.5t83 23.5t44 23.5t13 22.5v737q0 40 -3 62t-15 36q-6 6 -21.5 10t-45.5 3t-75.5 -7t-111.5 -20l-29 81q28 6 69.5 18t88.5 27t97 32.5t95.5 34.5t84 32t62.5 26l44 -42v-1030q0 -10 11 -21.5t39 -23.5t76.5 -24t123.5 -21v-83h-760z" />
<glyph unicode="2" horiz-adv-x="1036" d="M911 0h-799l-29 74q117 137 205.5 243.5t152.5 189t106.5 144.5t67.5 110.5t35.5 87.5t10.5 75q0 42 -9 78.5t-27.5 63.5t-48 42t-71.5 15q-41 0 -70.5 -18t-47.5 -47t-24 -65.5t0 -73.5q-17 -9 -44.5 -19.5t-58.5 -19.5t-61.5 -16t-53.5 -9l-35 68q0 52 37 107 t100.5 100.5t147.5 75t178 29.5q77 0 140 -16t107.5 -48t68.5 -79t24 -110q0 -45 -12.5 -89.5t-40 -95t-71.5 -110t-107 -134.5t-146.5 -168t-190.5 -211h399q17 0 30.5 8.5t24 22.5t18 32t12.5 37q12 44 17 100l80 -19z" />
<glyph unicode="3" horiz-adv-x="1036" d="M915 381q0 -84 -32.5 -159t-92.5 -131t-144 -88.5t-187 -32.5q-39 0 -87 9.5t-99 29.5t-101.5 51t-95.5 74l41 97q45 -34 86 -57.5t79 -38t74.5 -21t74.5 -6.5q47 0 88.5 15t72 45.5t48.5 77t18 110.5q0 69 -21.5 116t-54.5 75.5t-71 41t-71 12.5h-23q-9 0 -17 -1t-18 -2 t-25 -4l-18 90q86 23 137.5 54.5t79.5 66t36.5 69.5t8.5 66q0 34 -7 67t-23.5 59t-42.5 41.5t-64 15.5q-27 0 -50 -13t-38 -35t-20 -52.5t4 -64.5q-21 -12 -47.5 -23t-56 -20.5t-59.5 -16.5t-58 -9l-34 61q0 42 30.5 92t85.5 92.5t131.5 71.5t168.5 29q91 0 155.5 -24 t104.5 -63.5t58.5 -89t18.5 -100.5q0 -38 -15.5 -77t-43.5 -74.5t-67 -64t-87 -44.5q61 -6 111 -33.5t85 -70.5t54.5 -97.5t19.5 -115.5z" />
<glyph unicode="4" horiz-adv-x="1036" d="M570 980l-319 -505h319v505zM957 445q-21 -32 -50 -62.5t-52 -47.5h-55v-201q0 -8 6 -14.5t22 -14t43 -15.5t68 -17v-73h-579v73q65 11 106 20.5t64 18t31.5 16.5t8.5 17v190h-474l-41 41l481 791q24 8 53 18t59 20.5t58 21t50 18.5l44 -42v-728h131z" />
<glyph unicode="5" horiz-adv-x="1036" d="M919 410q0 -87 -26.5 -166.5t-82 -140.5t-140 -97t-200.5 -36q-46 0 -97 10t-102 30t-100.5 50t-92.5 70l50 90q53 -37 99 -60t85.5 -36.5t73 -18.5t62.5 -5q50 0 92 20.5t72 56t47 84.5t17 106q0 68 -17.5 120.5t-49.5 88t-76.5 54t-99.5 18.5q-80 0 -138 -24t-111 -64 l-47 33q6 36 14 86t16.5 106t17 115.5t15.5 115.5t12 105t7 84h526q29 0 51 2.5t38 6.5q18 4 32 9l37 -36q-11 -16 -29 -40.5t-38 -49t-38.5 -45t-30.5 -29.5h-432q-2 -29 -6 -66.5t-10 -75t-12 -71.5t-10 -56q45 20 100 30.5t119 10.5q100 0 176 -32.5t126 -86.5 t75.5 -123.5t25.5 -142.5z" />
<glyph unicode="6" horiz-adv-x="1036" d="M545 645q-43 0 -93.5 -28.5t-98.5 -80.5q0 -118 17 -201.5t47 -136t70.5 -76.5t87.5 -24q43 0 72 22t46 57t24 80t7 91q0 94 -16 152t-41.5 90t-57.5 43.5t-64 11.5zM971 412q0 -47 -12 -98t-35.5 -100t-58.5 -93t-82 -77.5t-105 -53.5t-127 -20q-95 0 -178 36.5 t-145 102.5t-97.5 158.5t-35.5 205.5q0 141 48 270.5t142.5 233t235.5 175t327 97.5l27 -89q-121 -26 -209.5 -73.5t-150 -110.5t-98 -138t-51.5 -157q63 52 127 78t116 26q85 0 152.5 -27.5t114 -77t71 -118t24.5 -150.5z" />
<glyph unicode="7" horiz-adv-x="1036" d="M960 1167q-46 -108 -91 -217.5t-87 -215.5t-80 -206t-70.5 -188t-58.5 -161.5t-43 -126.5q-18 -12 -45.5 -24t-58.5 -23t-62 -20t-56 -15l-49 41q87 153 155 282.5t125.5 249t109.5 236t107 244.5h-447q-15 0 -31 -3t-34 -18.5t-38 -48t-41 -90.5l-68 25q3 23 9 67.5 t13 92.5t14.5 91.5t13.5 65.5h780z" />
<glyph unicode="8" horiz-adv-x="1036" d="M358 950q0 -38 17 -66.5t46.5 -51.5t68.5 -42t83 -38q87 91 87 186q0 52 -14 87t-36.5 56t-52 29.5t-61.5 8.5q-33 0 -59 -14t-43.5 -37t-26.5 -53.5t-9 -64.5zM700 309q0 58 -19 100.5t-51.5 74.5t-75 55.5t-88.5 43.5q-32 -31 -56.5 -61.5t-40.5 -62.5t-24 -67.5 t-8 -76.5q0 -52 16 -93.5t43 -70t62 -43.5t72 -15q41 0 73 17.5t53.5 47t32.5 68.5t11 83zM957 352q0 -78 -35.5 -147t-98 -121.5t-146.5 -83t-181 -30.5q-102 0 -180 26t-130.5 70t-79.5 100.5t-27 118.5q0 52 20 101t56.5 93t87 83t110.5 70q-45 21 -85 45t-71 57t-49 77 t-18 104q0 69 31.5 128t86 101.5t127.5 66.5t157 24q95 0 165.5 -20t117 -55t69.5 -84t23 -107q0 -39 -16.5 -75t-45.5 -69t-68.5 -63.5t-85.5 -60.5q52 -24 100 -54t85 -71t59 -96t22 -128z" />
<glyph unicode="9" horiz-adv-x="1036" d="M511 570q57 0 105.5 29.5t86.5 74.5q-2 136 -20 220.5t-45 132t-60.5 64.5t-67.5 17q-84 0 -130.5 -66.5t-46.5 -185.5q0 -84 18.5 -139t45.5 -88t58 -46t56 -13zM960 731q0 -152 -47 -283.5t-141.5 -233t-236 -168.5t-330.5 -89l-25 89q139 34 234 83t154.5 110.5 t89.5 135t39 157.5q-52 -51 -116 -80t-135 -29q-88 0 -155.5 30t-113 81t-69 118.5t-23.5 142.5q0 50 15 102.5t43 101.5t68 92t90 75t109.5 50.5t125.5 18.5q92 0 170 -29t134.5 -90.5t88 -156.5t31.5 -228z" />
<glyph unicode=":" horiz-adv-x="552" d="M459 825q0 -40 -14.5 -72t-39 -54t-58 -33.5t-71.5 -11.5q-29 0 -55.5 7.5t-46.5 24t-31.5 42t-11.5 61.5q0 39 15 71t40.5 54t59 34t69.5 12q28 0 54 -8t46 -24.5t32 -42t12 -60.5zM459 131q0 -40 -14.5 -72t-39 -54t-58 -33.5t-71.5 -11.5q-29 0 -55.5 7.5t-46.5 24 t-31.5 42t-11.5 61.5q0 39 15 71t40.5 54t59 34t69.5 12q28 0 54 -8t46 -24.5t32 -42t12 -60.5z" />
<glyph unicode=";" horiz-adv-x="552" d="M480 70q0 -54 -23 -116t-62.5 -123.5t-92.5 -116.5t-113 -94l-68 50q56 65 88 135t32 157q0 22 -9.5 44t-27 38.5t-43 25.5t-57.5 7l-16 77q6 8 25 19t46.5 22.5t59.5 23t63 21t58 14.5t44 5q48 -23 72 -66.5t24 -122.5zM459 825q0 -40 -14.5 -72t-39 -54t-58 -33.5 t-71.5 -11.5q-29 0 -55.5 7.5t-46.5 24t-31.5 42t-11.5 61.5q0 39 15 71t40.5 54t59 34t69.5 12q28 0 54 -8t46 -24.5t32 -42t12 -60.5z" />
<glyph unicode="&#x3c;" horiz-adv-x="930" d="M877 333q-22 -20 -48.5 -46.5t-57.5 -45.5l-686 246l-32 39l3 12l5 18l10 34q2 8 5 16t5 15q1 3 1.5 6.5t2.5 5.5l6 15l754 272l32 -32q-3 -11 -7.5 -28.5t-10 -37t-10.5 -37t-8 -26.5l-529 -190l541 -193z" />
<glyph unicode="=" horiz-adv-x="930" d="M877 452q-3 -11 -9 -26.5t-13 -31.5t-13.5 -30.5t-9.5 -23.5h-747l-32 32q3 11 8.5 26t12.5 31t13.5 30.5t11.5 24.5h746zM877 752q-3 -11 -9 -26.5t-13 -32t-13.5 -31t-9.5 -22.5h-747l-32 32q3 10 8.5 25.5t12.5 31.5t13.5 30.5t11.5 24.5h746z" />
<glyph unicode="&#x3e;" horiz-adv-x="930" d="M877 635q-3 -13 -7.5 -29t-10 -32.5t-11 -32.5t-9.5 -28l-754 -272l-32 33q3 10 7.5 28t10 37t11 36.5t8.5 26.5l526 190l-539 193l-24 44q22 20 50.5 46.5t55.5 44.5l686 -245z" />
<glyph unicode="?" horiz-adv-x="932" d="M866 1165q0 -75 -25.5 -136.5t-64 -115t-84 -101.5t-85.5 -96t-68 -98.5t-32 -109.5l-6 -96q-19 -14 -45 -23.5t-54 -17.5l-32 28l-8 109q-3 57 14 112t44 107t59 102t60 99t47 96.5t19 95.5q0 124 -40.5 183t-110.5 59q-25 0 -48 -13t-40.5 -36t-28 -55.5t-10.5 -71.5 q0 -14 3.5 -32.5t8.5 -32.5q-16 -8 -47 -18t-65.5 -18.5t-68.5 -15.5t-56 -9l-35 38q-2 8 -2 24v24q0 70 37.5 131t101 106t146.5 71t175 26q82 0 146 -23t107 -64.5t65.5 -99.5t22.5 -128zM608 131q0 -40 -14.5 -72t-39 -54t-58 -33.5t-71.5 -11.5q-29 0 -55.5 7.5 t-46.5 24t-31.5 42t-11.5 61.5q0 39 15 71t40.5 54t59 34t69.5 12q28 0 54 -8t46 -24.5t32 -42t12 -60.5z" />
<glyph unicode="@" horiz-adv-x="1796" d="M1044 731q-22 45 -49.5 71t-76.5 26q-88 0 -134 -86.5t-46 -273.5q0 -85 14 -144t36.5 -95.5t50 -52.5t54.5 -16q19 0 35.5 5t33 18.5t36 37t46.5 59.5v451zM1711 572q0 -85 -20 -162.5t-55 -144.5t-82.5 -121.5t-102.5 -93t-114.5 -59.5t-119.5 -21q-30 0 -56 8 t-47.5 26.5t-37.5 49.5t-26 78q-41 -48 -71.5 -79.5t-58.5 -50t-58 -25.5t-70 -7q-51 0 -103.5 28t-94.5 85.5t-69 145.5t-27 208q0 63 13 126t38.5 121.5t63 108.5t86 87.5t107.5 58.5t128 21q23 0 43 -3.5t40 -13t41 -27.5t45 -47q55 19 95.5 39.5t84.5 51.5l31 -30 q-9 -35 -15 -73q-6 -32 -10.5 -73t-4.5 -83v-416q0 -61 14 -92t57 -31q25 0 53.5 23t52.5 67.5t39.5 110t15.5 149.5q0 171 -42 298.5t-118 212t-182.5 126.5t-235.5 42q-153 0 -270.5 -53.5t-197 -144.5t-120 -212.5t-40.5 -256.5q0 -189 52.5 -332t143 -239t212.5 -144.5 t260 -48.5q96 0 180 17.5t153 43.5t120.5 56t81.5 56l47 -87q-36 -41 -93.5 -86.5t-136 -83.5t-179 -63.5t-222.5 -25.5q-186 0 -341 60t-267 173t-174 276t-62 369q0 121 31.5 234.5t89 213t138.5 182.5t180 142.5t213.5 92.5t239.5 33q163 0 298 -48.5t232 -147 t150.5 -247t53.5 -348.5z" />
<glyph unicode="A" horiz-adv-x="1287" d="M747 550l-165 465l-150 -465h315zM392 430l-96 -289q-10 -31 24.5 -45t116.5 -23v-73h-437v73q68 12 104.5 25t46.5 43l349 1066q24 20 51.5 37t57 30.5t58.5 24t55 18.5l420 -1176q5 -14 13 -25t22 -19t35.5 -14t53.5 -10v-73h-497v73q78 5 105.5 20t16.5 48l-102 289 h-397z" />
<glyph unicode="B" horiz-adv-x="1231" d="M1129 356q0 -85 -35.5 -153.5t-102.5 -116.5t-162.5 -74t-216.5 -26q-22 0 -54.5 0.5t-71 1.5t-80.5 2t-82 3q-95 3 -201 7h-80v73q68 14 102.5 30.5t34.5 30.5v1031q-38 -4 -73 -9t-64 -10l-13 84q45 11 106 21.5t128.5 19t136 14t128.5 5.5q115 0 205.5 -18.5 t153.5 -53.5t96.5 -85t33.5 -113q0 -108 -58 -185t-170 -112q75 -12 137.5 -45t107 -81.5t69.5 -110t25 -130.5zM565 639q-46 0 -76 -4t-59 -9v-499q0 -7 5 -13q29 -12 64.5 -16.5t75.5 -4.5q145 0 218.5 65.5t73.5 178.5q0 55 -14.5 109t-49.5 97t-93 69.5t-145 26.5z M466 1184h-17q-9 0 -19 -1v-443h19q100 0 161.5 20t96 52.5t46.5 74t12 84.5q0 50 -14.5 89.5t-49.5 67t-92.5 42t-142.5 14.5z" />
<glyph unicode="C" horiz-adv-x="1143" d="M1071 211q-64 -65 -126 -111t-123 -75t-120 -42t-116 -13q-101 0 -196.5 42t-170 121t-119.5 193.5t-45 259.5q0 160 49 290t135 222.5t202 142.5t250 49q54 0 107 -8t101 -21.5t87.5 -31.5t65.5 -39q4 -3 -0.5 -18t-13.5 -36t-21.5 -45.5t-25.5 -47t-24.5 -40.5 t-19.5 -26l-65 14q-51 88 -116.5 127.5t-143.5 39.5q-34 0 -70.5 -11t-71.5 -36t-66.5 -65.5t-55 -99.5t-37 -139t-13.5 -184q0 -128 33.5 -220t87 -151.5t120 -88t132.5 -28.5q27 0 63.5 6t80 22.5t92.5 44t102 71.5q5 -4 13 -14t15.5 -21t14 -20.5t9.5 -12.5z" />
<glyph unicode="D" horiz-adv-x="1304" d="M1221 676q0 -125 -25.5 -223.5t-69.5 -174t-103 -128t-126 -86t-138.5 -49t-139.5 -15.5h-576v73q68 14 102.5 30.5t34.5 30.5v1023l-137 -19l-13 92q49 12 116.5 23t142 19.5t149.5 13t140 4.5q153 0 273 -41.5t202 -120.5t125 -193t43 -259zM506 1184q-18 0 -37 -0.5 t-39 -1.5v-1015q0 -7 2 -14q3 -11 11 -19.5t25 -14.5t44.5 -9t69.5 -3q38 0 80.5 13t84 41t79 70.5t65.5 101.5t45 134.5t17 169.5q0 133 -29 235t-85.5 171.5t-140 105t-192.5 35.5z" />
<glyph unicode="E" horiz-adv-x="1076" d="M1029 304q-4 -43 -9 -90.5t-11 -90t-11.5 -75.5t-9.5 -48h-945v73q68 14 102.5 30.5t34.5 30.5v991q0 12 -32.5 30t-104.5 32v73h881l40 -32q-2 -26 -6 -65t-10 -80t-12.5 -77.5t-12.5 -55.5h-75q-5 93 -25 141.5t-57 48.5h-336v-405h398l33 -35q-8 -14 -19.5 -32.5 t-24 -36.5t-25 -33.5t-23.5 -23.5q-15 15 -32.5 25t-40 17t-53 10t-72.5 3h-141v-445q0 -15 7 -26.5t29 -20t62 -13t106 -4.5h99q46 0 78.5 11t57.5 35.5t45.5 64.5t41.5 99z" />
<glyph unicode="F" horiz-adv-x="1039" d="M43 0v73q68 14 102.5 30.5t34.5 30.5v991q0 12 -32.5 30t-104.5 32v73h891l38 -32q-1 -26 -5 -65t-9.5 -80t-12 -77.5t-12.5 -55.5h-77q-3 93 -23.5 141.5t-58.5 48.5h-344v-405h367l36 -35q-9 -17 -21 -36t-25 -36t-25.5 -31.5t-22.5 -22.5q-15 15 -32 25t-39.5 17 t-53 10t-72.5 3h-112v-495q0 -6 8 -13t27 -14.5t51.5 -16t81.5 -17.5v-73h-555z" />
<glyph unicode="G" horiz-adv-x="1232" d="M1095 1188q5 -4 1 -18.5t-13.5 -34.5t-23 -44t-27 -46t-26.5 -39t-22 -25l-63 14q-33 48 -66.5 81t-69.5 52.5t-75 28t-82 8.5q-25 0 -58.5 -10t-69 -34t-70 -64t-61.5 -98.5t-44 -138t-17 -183.5q0 -134 31 -230t82.5 -158t117.5 -91.5t137 -29.5q55 0 98.5 10t78.5 27 v305q0 11 -4 21.5t-20 20.5t-48.5 20t-88.5 20v73h498v-73q-57 -14 -77 -36.5t-20 -45.5v-301q-74 -61 -138.5 -99.5t-120.5 -60.5t-106 -30.5t-95 -8.5q-73 0 -144 16.5t-135 50t-119 84.5t-95 119t-62.5 153.5t-22.5 188.5q0 166 53 297.5t147 223t221 139.5t276 48 q33 0 78.5 -7t93.5 -20t93.5 -32t77.5 -43z" />
<glyph unicode="H" horiz-adv-x="1399" d="M43 0v73q68 14 102.5 30.5t34.5 30.5v991q0 12 -32.5 30t-104.5 32v73h525v-73q-68 -14 -103 -31t-35 -31v-405h520v405q0 12 -32.5 30t-104.5 32v73h525v-73q-68 -14 -103 -31t-35 -31v-991q0 -12 33 -29.5t105 -31.5v-73h-525v73q68 14 102.5 30.5t34.5 30.5v466h-520 v-466q0 -12 32.5 -29.5t105.5 -31.5v-73h-525z" />
<glyph unicode="I" horiz-adv-x="670" d="M63 0v73q68 14 102.5 30.5t34.5 30.5v991q0 12 -32.5 30t-104.5 32v73h525v-73q-68 -14 -103 -31t-35 -31v-991q0 -12 33 -29.5t105 -31.5v-73h-525z" />
<glyph unicode="J" horiz-adv-x="685" d="M623 1187q-68 -14 -103 -31t-35 -31v-942q0 -110 -22 -189t-56.5 -136t-76.5 -97t-81 -72q-27 -22 -60.5 -41.5t-69.5 -34t-73 -23t-71 -8.5q-45 0 -88 10.5t-76.5 25.5t-54.5 31.5t-21 27.5t21 35.5t49 50.5t56 47.5t42 26.5q56 -48 103.5 -67.5t85.5 -19.5 q26 0 51.5 12t46 50.5t33 109.5t12.5 189v1014q0 6 -6.5 13t-27 15t-57 16.5t-96.5 17.5v73h575v-73z" />
<glyph unicode="K" horiz-adv-x="1267" d="M43 0v73q68 14 102.5 30.5t34.5 30.5v991q0 12 -32.5 30t-104.5 32v73h525v-73q-68 -14 -103 -31t-35 -31v-466l372 439q23 27 32.5 43t4 25t-27.5 13.5t-61 7.5v73h450v-73q-32 -4 -54.5 -8t-39.5 -10.5t-31 -17t-30 -26.5l-429 -449l482 -511q16 -18 33 -27.5t36.5 -13 t41.5 -3t48 3.5l7 -73q-29 -9 -65 -20.5t-72 -21.5t-69 -17t-57 -7q-29 0 -51.5 9t-42.5 34l-477 596v-491q0 -12 32.5 -29.5t105.5 -31.5v-73h-525z" />
<glyph unicode="L" horiz-adv-x="1043" d="M1019 304q-4 -43 -9.5 -90.5t-11 -90t-11 -75.5t-9.5 -48h-935v73q68 14 102.5 30.5t34.5 30.5v991q0 12 -32.5 30t-104.5 32v73h525v-73q-68 -14 -103 -31t-35 -31v-931q0 -18 8.5 -31.5t29.5 -23t57 -14.5t91 -5h113q46 0 77.5 11t55.5 35.5t43.5 64.5t40.5 99z" />
<glyph unicode="M" horiz-adv-x="1734" d="M1633 1187q-25 0 -58.5 -7t-69.5 -21l10 -1025q0 -12 36.5 -29.5t108.5 -31.5v-73h-522v73q68 14 107.5 30.5t39.5 30.5l-8 813l-424 -947h-94l-416 945l-8 -811q0 -12 33 -29.5t105 -31.5v-73h-420v73q69 14 103 30.5t34 30.5l10 1018q-35 20 -71.5 27.5t-65.5 7.5v73 h346q10 0 18 -3t15.5 -12t16.5 -25.5t21 -43.5l368 -835l375 835q13 30 22 46.5t17 25t15.5 10.5t16.5 2h339v-73z" />
<glyph unicode="N" horiz-adv-x="1359" d="M43 0v73q73 9 105 28t32 33v980q-65 61 -137 73v73h279q15 0 24.5 -2.5t19.5 -10.5t21.5 -23.5t30.5 -41.5l612 -848v791q0 6 -6.5 14.5t-22 17t-42 16.5t-66.5 14v73h425v-73q-72 -10 -105 -29t-33 -33v-1155q-96 8 -154 37.5t-85 66.5l-611 846v-786q0 -6 7 -14.5 t23.5 -17t42.5 -16.5t65 -13v-73h-425z" />
<glyph unicode="O" horiz-adv-x="1274" d="M946 629q0 103 -24.5 199t-69.5 170t-108 118t-140 44q-72 0 -127.5 -35.5t-93 -102t-56.5 -163t-19 -218.5q0 -112 26.5 -210t72 -170.5t106 -114t129.5 -41.5q66 0 121.5 32t96 97.5t63.5 164t23 230.5zM1198 647q0 -91 -22 -176t-61.5 -160.5t-94.5 -138t-122 -107.5 t-143 -70t-157 -25q-126 0 -227 53t-171 142t-107.5 205t-37.5 242q0 136 44.5 259t124 216t190 148t242.5 55t233 -54.5t170 -144.5t104 -206t35 -238z" />
<glyph unicode="P" horiz-adv-x="1161" d="M43 0v73q68 14 102.5 30.5t34.5 30.5v1024q-38 -5 -72.5 -10t-64.5 -10l-13 92q54 13 120 24t137.5 19t144 12.5t138.5 4.5q116 0 211.5 -23t163.5 -68t105 -111t37 -152q0 -69 -19 -127t-51.5 -104t-75 -81t-90 -58t-96 -34.5t-92.5 -11.5q-46 0 -90 7.5t-78 22.5 l-31 105q41 -19 72.5 -24.5t66.5 -5.5q43 0 85 15.5t74.5 48.5t52.5 84t20 122t-23.5 125t-66 90.5t-101.5 55t-131 18.5q-20 0 -40.5 -0.5t-42.5 -1.5v-1048q0 -6 6.5 -13t25 -15t51.5 -16t85 -17v-73h-555z" />
<glyph unicode="Q" horiz-adv-x="1274" d="M946 629q0 103 -24.5 199t-69.5 170t-108 118t-140 44q-72 0 -127.5 -35.5t-93 -102t-56.5 -163t-19 -218.5q0 -112 26.5 -210t72 -170.5t106 -114t129.5 -41.5q66 0 121.5 32t96 97.5t63.5 164t23 230.5zM1417 -125q-24 -44 -51.5 -81t-54.5 -64t-50.5 -42.5 t-38.5 -15.5q-47 0 -93.5 15.5t-94 41t-94.5 58t-94.5 66t-95 65.5t-94.5 56q-14 -2 -29 -3t-29 -1q-124 0 -224 52.5t-171 141t-109.5 204.5t-38.5 244q0 136 44.5 259t124 216t190 148t242.5 55t233 -54.5t170 -144.5t104 -206t35 -238q0 -101 -27 -196t-76 -176 t-116 -145t-147 -104q56 -20 108 -47t101 -51t95.5 -41t91.5 -17q12 0 24.5 2.5t28 10t36.5 21.5t51 36z" />
<glyph unicode="R" horiz-adv-x="1239" d="M43 0v73q68 14 102.5 30.5t34.5 30.5v1023q-36 -5 -70.5 -9.5t-66.5 -9.5l-13 92q106 23 230.5 41.5t268.5 18.5q136 0 231.5 -23t156 -64t88 -96.5t27.5 -119.5q0 -69 -20.5 -126.5t-57 -104t-88 -81t-113.5 -55.5l315 -436q16 -21 30.5 -34t32 -19.5t41 -7.5t57.5 2 l15 -73q-33 -11 -74 -22.5t-81.5 -21.5t-75 -16t-53.5 -6q-29 0 -56.5 16t-41.5 39l-287 545q-10 -1 -20 -1h-19q-26 0 -52 2.5t-54 8.5v-462q0 -12 32.5 -29.5t105.5 -31.5v-73h-525zM485 1184q-13 0 -27 -0.5t-28 -1.5v-476q27 -5 47 -6t42 -1q135 0 198 68t63 189 q0 46 -14 87.5t-47.5 73t-90.5 49.5t-143 18z" />
<glyph unicode="S" horiz-adv-x="1050" d="M968 377q0 -45 -13.5 -92t-40.5 -92.5t-68 -86t-96.5 -70.5t-125 -48t-154.5 -18q-36 0 -82.5 7t-95 19.5t-95 30.5t-81.5 41q-5 2 -8 19.5t-4.5 44t-1 60t3 67.5t7 67t11.5 58l71 -5q23 -59 56 -108t74 -84t88 -54.5t98 -19.5q45 0 87 13t74 37.5t51.5 61t19.5 84.5 q0 61 -27 105.5t-71.5 79t-101 62.5t-116 55.5t-116 58t-101 71t-71.5 93.5t-27 126q0 47 26.5 104.5t82 107.5t142.5 84t208 34q54 0 106 -7t97 -19t79.5 -29t52.5 -37q5 -4 2.5 -18t-9 -33t-17 -41t-21.5 -42t-22 -36t-19 -23l-66 6q-22 47 -50.5 78.5t-60 50.5t-63.5 27 t-60 8q-50 0 -85.5 -13t-58.5 -35t-33.5 -49.5t-10.5 -55.5q0 -47 27.5 -83.5t72 -68t101.5 -59.5t117 -58t117 -65t101.5 -79t72 -101t27.5 -131z" />
<glyph unicode="T" horiz-adv-x="1188" d="M300 0v73q46 9 76 19t48 19.5t25 18t7 15.5v995h-254q-15 0 -28.5 -10.5t-27.5 -35.5t-31 -65t-39 -98l-73 27q2 29 6.5 70t10.5 84t12 82.5t11 65.5h1070l38 -32q-1 -26 -4.5 -62t-9 -76t-12 -79.5t-12.5 -70.5h-75q-10 46 -16.5 83.5t-14.5 63t-20.5 39.5t-33.5 14 h-247v-995q0 -6 7 -14.5t25 -18.5t48.5 -20t76.5 -19v-73h-563z" />
<glyph unicode="U" horiz-adv-x="1369" d="M1313 1187q-68 -14 -103 -31t-35 -31v-601q0 -131 -36.5 -234t-102.5 -174t-156.5 -108.5t-198.5 -37.5q-103 0 -194 28.5t-159.5 87t-108 147.5t-39.5 211v681q0 12 -32.5 30t-104.5 32v73h525v-73q-68 -14 -103 -31t-35 -31v-616q0 -96 17 -169.5t54 -123.5t96.5 -75.5 t145.5 -25.5q71 0 120 32t79.5 85t44 122.5t13.5 143.5v627q0 12 -32.5 30t-104.5 32v73h450v-73z" />
<glyph unicode="V" horiz-adv-x="1361" d="M1328 1187q-68 -13 -106.5 -25.5t-48.5 -40.5l-376 -1039q-8 -22 -30.5 -40t-51 -32.5t-59 -24t-54.5 -15.5l-455 1151q-11 26 -41 42t-93 24v73h510v-73q-80 -6 -106 -20.5t-15 -43.5l325 -837l297 835q5 15 1.5 25t-18.5 17.5t-42 13t-68 10.5v73h431v-73z" />
<glyph unicode="W" horiz-adv-x="1741" d="M1732 1187q-44 -9 -73 -17t-46 -15.5t-24.5 -14.5t-8.5 -15l-229 -1066q-5 -21 -22.5 -36.5t-40 -26t-45.5 -17t-38 -9.5l-341 907l-287 -818q-7 -21 -25 -36t-41 -25.5t-48 -17t-45 -10.5l-260 1147q-5 25 -36 41t-102 29v73h489v-73q-49 -5 -76 -12.5t-39 -16.5 t-13.5 -19.5t0.5 -21.5l171 -732l292 875h100l335 -875l161 740q2 12 -9 21t-32 16t-50 13t-63 12v73h446v-73z" />
<glyph unicode="X" horiz-adv-x="1290" d="M733 0v73q44 4 71 10.5t39 16t10.5 23.5t-15.5 34l-236 343l-227 -343q-15 -22 -18.5 -36.5t7 -24t37.5 -15t73 -8.5v-73h-450v73q65 5 110 24.5t72 59.5l309 471l-325 475q-15 22 -29 36t-31.5 23t-40 14.5t-55.5 10.5v73h541v-73q-85 -8 -111 -24.5t4 -59.5l207 -303 l191 303q14 23 16.5 37.5t-8.5 24t-37.5 14.5t-71.5 8v73h453v-73q-36 -4 -64.5 -10t-50.5 -15.5t-38.5 -23.5t-29.5 -35l-274 -428l355 -518q15 -21 29.5 -35.5t31.5 -24t39 -15t51 -9.5v-73h-534z" />
<glyph unicode="Y" horiz-adv-x="1255" d="M345 0v73q45 9 75.5 19t48.5 19.5t25.5 18t7.5 15.5v384q-36 80 -81 165t-91 164.5t-90 147.5t-79 115q-9 11 -19 20t-27 15t-43 9.5t-68 3.5l-4 73q29 4 66.5 9t74.5 9t69.5 7t53.5 3q28 0 56 -12t45 -34q37 -50 77.5 -114t82 -136t81 -147.5t74.5 -147.5l234 442 q15 26 -9.5 41t-101.5 25v73h418v-73q-68 -13 -101 -27t-47 -39l-321 -598v-378q0 -6 7 -14.5t25 -18.5t48.5 -20t77.5 -19v-73h-565z" />
<glyph unicode="Z" horiz-adv-x="1116" d="M1044 353q-2 -32 -3.5 -80.5t-3 -99t-3 -97.5t-2.5 -76h-944l-36 53l673 1077h-391q-16 0 -36 -17t-39.5 -48t-37 -74t-28.5 -95l-87 19l37 361q27 -6 49.5 -9.5t44 -5t44.5 -1.5h720l33 -50l-668 -1080h456q21 0 38 15t32.5 46t31.5 76.5t35 107.5z" />
<glyph unicode="[" horiz-adv-x="691" d="M666 -227q-2 -10 -7 -24.5t-10 -30.5t-10.5 -30t-9.5 -23h-504v1935h498l41 -33q-2 -12 -7 -29t-10 -33.5t-10 -30t-8 -19.5h-274v-1645h268z" />
<glyph unicode="\" horiz-adv-x="960" d="M878 -335q-12 4 -34 11t-45 15t-43.5 16.5t-29.5 15.5l-686 1848l45 29q15 -4 35 -10t41 -13.5t40.5 -15.5t33.5 -17l685 -1847z" />
<glyph unicode="]" horiz-adv-x="691" d="M68 -335l-41 34q2 12 6.5 29t9.5 33t10 29.5t8 19.5h274v1645h-267l-43 36q2 10 7 25t10 31t10.5 30t8.5 23h504v-1935h-497z" />
<glyph unicode="^" horiz-adv-x="1008" d="M907 635q-25 -23 -48.5 -38.5t-57.5 -31.5l-37 27l-283 723l-250 -680q-11 -10 -25 -20.5t-29 -20t-29.5 -17t-24.5 -12.5l-23 27l322 870q12 12 29.5 24.5t35.5 24.5t36 22t32 17z" />
<glyph unicode="_" horiz-adv-x="990" d="M937 -162q-3 -11 -9 -27t-13 -32.5t-13.5 -31t-10.5 -22.5h-806l-32 32q3 10 8.5 25.5t12.5 31.5t13.5 31t11.5 25h806z" />
<glyph unicode="`" horiz-adv-x="653" d="M452 1086q-6 -6 -17 -12.5t-23.5 -13.5t-24.5 -12t-21 -8l-383 377l30 56q10 2 41 8t67 12.5t68.5 12t44.5 6.5z" />
<glyph unicode="a" horiz-adv-x="1023" d="M412 145q19 0 40 4.5t46.5 16t56 32t68.5 52.5v221q-60 -10 -101 -19.5t-69 -19.5t-45.5 -21t-30.5 -24q-26 -26 -42 -56t-16 -72q0 -34 9.5 -56t24 -35t30.5 -18t29 -5zM1016 112q-42 -29 -87.5 -55t-86 -45.5t-74 -30.5t-51.5 -11q-37 0 -62.5 42t-30.5 117 q-45 -45 -90.5 -75.5t-88 -49t-81.5 -26.5t-71 -8q-42 0 -82.5 14.5t-73 43t-52.5 72t-20 101.5q0 68 24.5 115.5t61.5 84.5q24 24 55.5 46.5t84 43.5t132 40.5t200.5 37.5v118q0 31 -6 57.5t-21 45.5t-40 29.5t-63 10.5q-24 0 -48 -9t-42 -25.5t-28.5 -40t-7.5 -53.5 q1 -6 -16 -15t-43 -18.5t-57.5 -19t-60.5 -16t-52 -10t-31 -1.5l-21 54q24 60 75.5 111.5t120.5 90t150.5 60.5t164.5 22q69 0 119 -18t82.5 -50.5t48.5 -76.5t16 -95v-482q0 -42 11 -60t29 -18q7 0 14.5 1t18 4t24.5 8.5t34 13.5z" />
<glyph unicode="b" horiz-adv-x="1100" d="M804 416q0 100 -17.5 170.5t-47.5 115.5t-70.5 65.5t-86.5 20.5q-35 0 -89.5 -24t-127.5 -86v-460q80 -43 141.5 -61.5t90.5 -18.5q52 0 91 22t65 59.5t38.5 88t12.5 108.5zM1025 507q0 -58 -21 -120.5t-58 -122t-87.5 -113t-108.5 -94t-122.5 -64t-128.5 -23.5 q-27 0 -69 9.5t-91.5 26.5t-104.5 40t-109 50v1170q0 46 -3.5 71t-16.5 37.5t-37 16.5t-65 9v70q47 8 88.5 15.5t80 17t75.5 21t74 26.5q4 -4 11 -10.5t15 -13.5q9 -8 18 -17v-707q50 43 98.5 73t93 49t82 27.5t66.5 8.5q74 0 133 -32t100.5 -91t64 -142.5t22.5 -187.5z" />
<glyph unicode="c" horiz-adv-x="933" d="M893 190q-65 -74 -120 -117.5t-104.5 -66.5t-95.5 -29.5t-93 -6.5q-81 0 -156 32.5t-132.5 93.5t-92 149t-34.5 199q0 108 40 202t111.5 163.5t170.5 110t218 40.5q33 0 74.5 -5.5t81.5 -16t73.5 -25t50.5 -32.5q1 -8 -2.5 -28t-10 -46t-15.5 -55t-18 -55t-18 -47 t-15 -30l-67 10q-33 98 -81 151.5t-128 53.5q-44 0 -84.5 -20t-71.5 -63.5t-50 -111.5t-19 -165q0 -80 20.5 -142.5t56 -105.5t83.5 -66t102 -23q28 0 54 3.5t57 15.5t69.5 35t91.5 62z" />
<glyph unicode="d" horiz-adv-x="1148" d="M1141 114q-46 -31 -93 -57t-87.5 -45.5t-71.5 -30.5t-45 -11q-72 0 -92 175q-46 -47 -84.5 -80t-75.5 -54t-76 -31t-85 -10q-67 0 -132.5 32.5t-117.5 93.5t-84 149t-32 199q0 100 35.5 193.5t100 165t154 114.5t196.5 43q47 0 93.5 -11t100.5 -48v343q0 55 -1.5 87.5 t-14 50t-40.5 24t-81 10.5v69q110 11 198.5 29.5t140.5 35.5l38 -37v-1214q0 -35 1.5 -59t4 -39t7 -23t10.5 -12q6 -3 13 -4.5t18.5 0t29 7.5t44.5 18zM745 269v437q-36 58 -89.5 90t-120.5 32q-50 0 -92 -19t-72.5 -59.5t-48 -102.5t-17.5 -149q0 -80 20 -142.5t52 -106 t73 -66.5t82 -23q55 0 104.5 27.5t108.5 81.5z" />
<glyph unicode="e" horiz-adv-x="991" d="M511 840q-47 0 -81 -18t-57.5 -52t-37 -82t-19.5 -108h333q23 0 30.5 7.5t7.5 28.5q0 30 -8 68.5t-28.5 73t-54.5 58.5t-85 24zM926 550q-9 -10 -26 -22t-37 -23t-40.5 -21t-36.5 -16h-473q2 -72 19.5 -132.5t49.5 -104.5t77.5 -68.5t104.5 -24.5q31 0 60.5 3.5t64 16.5 t77.5 36.5t102 64.5q6 -3 14.5 -12t16 -19.5t13.5 -19.5t8 -13q-69 -70 -124 -114t-105.5 -68.5t-100.5 -33.5t-110 -9q-85 0 -160.5 34t-132 96t-89.5 149t-33 193q0 136 51.5 242.5t154.5 181.5q26 19 58.5 36.5t68 30t73.5 20t76 7.5q98 0 169.5 -34t118 -90.5t69 -130.5 t22.5 -155z" />
<glyph unicode="f" horiz-adv-x="696" d="M891 1454q0 -11 -9.5 -26.5t-24.5 -33t-34 -35.5t-37 -33t-34 -26.5t-26 -16.5q-48 60 -93 86t-77 26q-26 0 -49.5 -16t-41.5 -58t-29 -116t-11 -189v-86h249l37 -36q-9 -17 -22.5 -35.5t-27 -36t-26.5 -31.5t-22 -21q-23 12 -65.5 23.5t-122.5 11.5v-673q0 -6 9.5 -12 t33 -12.5t62 -15t97.5 -19.5v-73h-574v73q69 12 100.5 29.5t31.5 29.5v673h-119l-28 36l78 89h69v31q0 82 11.5 149t33 121.5t53 99t71.5 82.5q37 36 76.5 61.5t78 42.5t75 25t66.5 8q45 0 88.5 -12t77 -27.5t54.5 -31.5t21 -25z" />
<glyph unicode="g" horiz-adv-x="1059" d="M668 600q0 51 -13.5 95.5t-39.5 77.5t-64.5 52.5t-89.5 19.5q-25 0 -51 -11.5t-47 -34.5t-34.5 -58t-13.5 -82q0 -50 12 -94.5t37.5 -77.5t64.5 -52.5t93 -19.5q29 0 55.5 11.5t46.5 34.5t32 57.5t12 81.5zM556 -42q-48 6 -90 14t-79 16q-46 -32 -72.5 -57t-39.5 -45.5 t-16.5 -37t-3.5 -31.5q0 -33 24.5 -63.5t67.5 -53.5t101.5 -36.5t126.5 -13.5q59 0 102 14.5t71.5 39.5t42.5 57t14 67q0 19 -9 38t-36 36t-76 31.5t-128 24.5zM898 641q0 -77 -34 -140.5t-91 -109t-132 -71t-158 -25.5h-10q-38 -35 -48.5 -56.5t-10.5 -27.5q0 -9 6 -17.5 t28.5 -17t68 -17.5t123.5 -19q117 -15 194 -36.5t122.5 -51.5t63.5 -69t18 -88q0 -47 -21.5 -94t-59.5 -90.5t-89 -80.5t-110.5 -64.5t-124 -43t-128.5 -15.5q-52 0 -108.5 6.5t-111 20.5t-103.5 35.5t-86 52t-59 69.5t-22 87q0 25 10.5 51t38.5 55.5t76.5 64t125.5 76.5 q-114 46 -114 98q0 11 9.5 29.5t31 43t56.5 54.5t85 64q-56 15 -102 42t-78.5 64t-50.5 83t-18 99q0 73 36 138.5t96 114t139.5 77t166.5 28.5q69 0 129 -19t108 -51q87 11 157.5 33t111.5 37l28 -37q-3 -11 -9.5 -26t-14 -30.5t-16 -31t-17.5 -27.5q-34 -6 -69 -10t-77 -6 q21 -35 32.5 -72.5t11.5 -78.5z" />
<glyph unicode="h" horiz-adv-x="1190" d="M663 0v73q72 19 102 33t30 28v439q0 61 -6.5 100.5t-20 62.5t-35 32.5t-51.5 9.5q-58 0 -119.5 -36t-142.5 -103v-505q0 -15 34 -31t99 -30v-73h-505v73q66 17 99 30.5t33 30.5v1134q0 42 -2.5 65.5t-15 36.5t-39.5 18.5t-75 11.5v70q56 8 100.5 16t82.5 17.5t73 20.5 t72 26l44 -41v-727q115 94 215.5 136t178.5 42q43 0 83 -13.5t70.5 -44t49 -79.5t18.5 -119v-570q0 -7 6 -13.5t21 -13.5t41 -15.5t65 -18.5v-73h-505z" />
<glyph unicode="i" horiz-adv-x="615" d="M63 0v73q68 14 100 30.5t32 30.5v514q0 51 -1 82.5t-12.5 49t-38.5 25.5t-80 13v70q86 12 163 29.5t145 42.5h64v-826q0 -12 30 -29.5t103 -31.5v-73h-505zM473 1261q0 -34 -13 -62t-35.5 -48t-53 -31t-66.5 -11q-28 0 -53 6.5t-43.5 20.5t-29.5 34.5t-11 49.5 q0 34 13 62t35.5 47.5t53 30.5t65.5 11q27 0 52 -6.5t44 -20t30.5 -34t11.5 -49.5z" />
<glyph unicode="j" horiz-adv-x="590" d="M430 107q0 -116 -20.5 -195t-53 -134.5t-73 -93t-80.5 -69.5q-27 -21 -60 -40.5t-67.5 -34.5t-68 -24t-61.5 -9q-39 0 -80.5 10t-75.5 24.5t-56 30.5t-22 27q0 14 21.5 39t50 50t57 46t43.5 28q16 -20 39 -35t47 -25.5t47.5 -16t42.5 -5.5q26 0 49.5 14.5t41.5 54 t28.5 110.5t10.5 184v605q0 51 -1 82t-13 48.5t-39 25.5t-79 14v70q53 7 92.5 14.5t73.5 16t66.5 18.5t72.5 23h67v-853zM471 1261q0 -34 -12.5 -62t-35 -48t-53 -31t-66.5 -11q-28 0 -53 6.5t-44 20.5t-30 34.5t-11 49.5q0 34 13 62t36 47.5t53.5 30.5t65.5 11 q27 0 52 -6.5t43.5 -20t30 -34t11.5 -49.5z" />
<glyph unicode="k" horiz-adv-x="1129" d="M48 0v73q66 17 99 30t33 31v1132q0 46 -4.5 71t-18.5 37.5t-40 16.5t-69 9v70q97 14 178.5 32t149.5 48l44 -41v-975l263 235q33 30 42.5 47.5t2.5 26.5t-27 11.5t-46 2.5v73h447v-73q-45 -5 -88.5 -21t-86.5 -48l-304 -230l361 -409q14 -16 27.5 -25.5t30.5 -14t38.5 -5 t50.5 1.5l6 -73q-29 -7 -66 -14.5t-71.5 -14t-62 -10.5t-37.5 -4q-42 0 -71 12t-51 41l-358 474v-383q0 -8 3.5 -14t14.5 -12.5t33 -14.5t59 -20v-73h-482z" />
<glyph unicode="l" horiz-adv-x="615" d="M53 0v73q43 7 70.5 14.5t43.5 15t22 15.5t6 16v1132q0 45 -5 70t-19 37.5t-40 17t-68 9.5v70q50 7 93 14.5t82 16.5t77 21t77 28l43 -41v-1375q0 -8 7 -15.5t23.5 -15.5t44 -15.5t68.5 -14.5v-73h-525z" />
<glyph unicode="m" horiz-adv-x="1728" d="M1209 0v73q36 9 58.5 17.5t35.5 16t17.5 14t4.5 13.5v469q0 61 -6.5 98t-19 56t-32.5 25t-47 6q-44 0 -103 -31t-124 -94v-529q0 -7 5 -13.5t18.5 -13.5t38.5 -15.5t64 -18.5v-73h-483v73q36 9 59 17.5t35.5 16t17.5 14t5 13.5v469q0 61 -5 98t-16.5 56t-30 25t-46.5 6 q-45 0 -103 -30t-132 -95v-529q0 -15 30 -31t95 -30v-73h-497v73q66 17 99 30.5t33 30.5v555q0 40 -2.5 63t-15 35.5t-39.5 18.5t-75 12v70q52 6 94 13t79.5 16t71.5 19.5t70 23.5l42 -42l11 -124q56 49 103.5 81.5t89.5 51t80 26t74 7.5q48 0 85 -12t63 -32.5t42 -48 t22 -59.5l3 -14q56 49 104 81t90.5 51t80.5 26.5t75 7.5q48 0 91 -13.5t75.5 -44t51.5 -79.5t19 -119v-570q0 -14 31 -27.5t110 -33.5v-73h-497z" />
<glyph unicode="n" horiz-adv-x="1190" d="M663 0v73q72 19 102 33t30 28v454q0 55 -5.5 91.5t-17.5 58.5t-32 31t-50 9q-24 0 -51 -6.5t-59.5 -22t-72 -42.5t-87.5 -68v-505q0 -15 34 -31t99 -30v-73h-505v73q66 17 99 30.5t33 30.5v555q0 39 -1.5 62t-13.5 36t-39 19t-78 12v70q48 5 89.5 12t79.5 15.5t74 19.5 t72 25l42 -42l11 -144q117 100 218.5 143t179.5 43q43 0 83 -13.5t70.5 -44t49 -79.5t18.5 -119v-570q0 -7 6 -13.5t21 -13.5t41 -15.5t65 -18.5v-73h-505z" />
<glyph unicode="o" horiz-adv-x="1075" d="M758 440q0 79 -16.5 150.5t-46.5 126t-72.5 86.5t-93.5 32q-62 0 -103 -27.5t-65 -76t-33.5 -115t-9.5 -143.5q0 -79 18.5 -148t50 -120t73 -80.5t87.5 -29.5q60 0 100 23t65 67t35.5 108t10.5 147zM1010 485q0 -67 -18 -131t-50.5 -121t-77.5 -105.5t-99.5 -83.5 t-117 -54.5t-128.5 -19.5q-103 0 -187 36t-143 99t-91.5 150t-32.5 189q0 99 36.5 192t102 165t156 115.5t198.5 43.5q102 0 185.5 -36t143 -99.5t91.5 -150.5t32 -189z" />
<glyph unicode="p" horiz-adv-x="1145" d="M855 426q0 96 -20 165t-53 113t-74.5 65t-84.5 21q-18 0 -35.5 -4t-40 -16t-53 -34t-74.5 -58v-450q53 -31 91.5 -49t68 -27t53.5 -11.5t48 -2.5q39 0 71 19t55 55.5t35.5 90.5t12.5 123zM1080 500q0 -66 -17.5 -130.5t-47 -123.5t-68.5 -109.5t-82 -87.5t-88 -58 t-86 -21q-29 0 -58.5 6t-62 19.5t-69.5 35t-81 52.5v-428q0 -16 37.5 -32t131.5 -30v-73h-541v73q66 16 99 30.5t33 31.5v1034q0 37 -3 61t-15.5 38.5t-39 21t-74.5 8.5v70q57 7 99 14t77.5 15.5t68 18.5t70.5 24l42 -42l9 -123q55 49 103 80.5t88.5 50.5t74.5 26.5t63 7.5 q68 0 129.5 -27.5t107.5 -84.5t73 -143.5t27 -204.5z" />
<glyph unicode="q" horiz-adv-x="1123" d="M525 160q55 0 104.5 28t108.5 82v430q-17 29 -41.5 52.5t-52.5 40.5t-58 26t-58 9q-48 0 -88.5 -18.5t-70.5 -57.5t-47 -100.5t-17 -146.5t19 -149.5t50 -108t70.5 -65.5t80.5 -22zM568 -480v73q94 14 132 29.5t38 32.5v483q-45 -45 -84 -77t-77.5 -52t-79 -29.5 t-88.5 -9.5q-59 0 -120 32.5t-110.5 93.5t-81.5 149t-32 199q0 88 22 157t56 122t74 90t75 60q28 18 60.5 34t66.5 28t68 18.5t64 6.5q29 0 56.5 -4t56.5 -15.5t60.5 -33t68.5 -57.5q24 12 51 27.5t52 30.5t45 29t29 23l39 -37q-9 -32 -16 -69q-6 -32 -10.5 -73t-4.5 -86 v-1040q0 -8 6 -16t21 -16t40.5 -15.5t63.5 -14.5v-73h-541z" />
<glyph unicode="r" horiz-adv-x="909" d="M875 916q6 -4 6 -25.5t-4.5 -52.5t-12.5 -69t-17 -74t-19 -67t-18 -49h-73q-3 40 -12 76t-22.5 62.5t-33 42t-43.5 15.5q-20 0 -43.5 -7.5t-49.5 -29t-54.5 -61.5t-58.5 -106v-437q0 -15 41.5 -31t135.5 -30v-73h-549v73q132 30 132 61v530q0 33 -2 55.5t-5 36.5t-7.5 22 t-8.5 13q-7 7 -14.5 11.5t-19 7.5t-29.5 4.5t-46 3.5v70q55 8 95.5 15t75.5 15t68.5 18t75.5 24l42 -42l13 -145q27 39 61 73t72.5 59.5t80.5 40t85 14.5q38 0 79.5 -11.5t78.5 -32.5z" />
<glyph unicode="s" horiz-adv-x="858" d="M782 283q0 -71 -21.5 -121.5t-56 -85.5t-77.5 -56t-87.5 -32t-85 -14.5t-69.5 -3.5q-32 0 -69.5 4.5t-76.5 13.5t-77.5 23t-71.5 32q-7 3 -10.5 35.5t-2.5 77.5t5.5 94t14.5 86l81 -11q10 -53 33 -96t55 -73t71.5 -46.5t82.5 -16.5q72 0 107 26t35 86q0 40 -20.5 72 t-54.5 59t-77 50.5t-89 47.5q-42 21 -83.5 46.5t-74.5 57t-54 69.5t-21 86q0 62 30.5 111.5t80.5 84t114 53t132 18.5q43 0 86.5 -5.5t83.5 -15.5t74 -24t57 -32q6 -5 2.5 -33.5t-13 -64t-22.5 -69.5t-25 -50l-69 8q-25 88 -72 134.5t-113 46.5q-60 0 -93 -27.5t-33 -69.5 q0 -32 16 -57t45.5 -47t72 -44.5t95.5 -50.5q43 -22 87 -47t79 -57.5t57 -74t22 -97.5z" />
<glyph unicode="t" horiz-adv-x="758" d="M736 155q-133 -96 -225 -140.5t-145 -44.5q-43 0 -81.5 16.5t-67 50.5t-45.5 85.5t-17 121.5v561h-121l-29 36l78 89h72v209l202 149l38 -33v-325h305l36 -36q-9 -17 -22.5 -35.5t-27.5 -36t-27.5 -31.5t-23.5 -21q-12 6 -30.5 12t-41.5 11.5t-48.5 8.5t-52.5 3h-67v-468 q0 -51 6 -86.5t17.5 -57t27 -31t34.5 -9.5q18 0 37.5 3.5t44.5 11.5t56.5 22.5t73.5 37.5z" />
<glyph unicode="u" horiz-adv-x="1153" d="M1144 112q-37 -24 -81.5 -49t-86 -46t-74 -34t-44.5 -13q-18 0 -34.5 6.5t-31 25t-25.5 51t-17 83.5q-62 -54 -111.5 -86.5t-90 -50.5t-74.5 -23.5t-66 -5.5q-47 0 -92 13t-81 47.5t-58 94.5t-22 154v410q0 48 -1.5 74.5t-13 40t-36 18.5t-70.5 10v70q50 4 91.5 9 t79.5 11.5t75.5 15.5t79.5 22l35 -46v-572q0 -62 7.5 -101t22.5 -60.5t36.5 -29.5t49.5 -8q21 0 45.5 5t54 18.5t64 36.5t75.5 59v427q0 45 -3.5 72t-16.5 42t-39.5 21t-72.5 8v70q100 9 181.5 24.5t153.5 33.5l37 -46v-630q0 -31 1 -51.5t3.5 -34t7 -21.5t11.5 -13 q12 -8 33.5 -3.5t72.5 26.5z" />
<glyph unicode="v" horiz-adv-x="1040" d="M1027 857q-30 -7 -47.5 -13t-28 -13.5t-16 -17.5t-11.5 -24l-283 -707q-9 -22 -27.5 -40t-42.5 -32.5t-51 -24t-51 -15.5l-353 819q-11 27 -32.5 42t-70.5 26v73h453v-73q-39 -5 -61.5 -10.5t-33 -13t-10.5 -18t7 -26.5l215 -503l202 503q6 15 6.5 25.5t-7.5 18t-27 13 t-53 11.5v73h323v-73z" />
<glyph unicode="w" horiz-adv-x="1469" d="M1455 857q-28 -7 -45.5 -13.5t-28.5 -13t-16.5 -15t-9.5 -20.5l-221 -736q-6 -22 -24.5 -37.5t-41 -26t-44 -16.5t-34.5 -9l-255 584l-203 -495q-8 -23 -26 -38.5t-39 -26t-42 -16t-34 -8.5l-269 825q-6 18 -32.5 34.5t-76.5 27.5v73h453v-73q-43 -5 -67 -11.5t-34.5 -15 t-11 -17.5t2.5 -18l150 -472l239 607h77l251 -607l144 472q4 11 3.5 20t-9 16.5t-28 13.5t-53.5 12v73h325v-73z" />
<glyph unicode="x" horiz-adv-x="1068" d="M562 0v73q25 2 45.5 5.5t31.5 12t9.5 24t-20.5 42.5l-147 203l-157 -203q-20 -26 -20 -41.5t13.5 -24t35.5 -12.5t46 -6v-73h-386v73q37 6 63 15t45 21t32 25.5t25 28.5l231 298l-223 310q-13 18 -26 32.5t-30.5 25.5t-43 18t-62.5 10v73h495v-73q-31 -3 -50 -7.5 t-26 -13.5t-2 -24t22 -39l112 -157l121 157q18 24 24 39t-1 24t-25.5 13.5t-49.5 7.5v73h381v-73q-41 -3 -69 -10t-48 -18t-35 -25.5t-29 -32.5l-197 -255l254 -353q11 -15 24 -29t30.5 -26t41.5 -21.5t57 -13.5v-73h-492z" />
<glyph unicode="y" horiz-adv-x="1040" d="M1027 857q-30 -7 -49 -13t-31 -13.5t-18.5 -17t-11.5 -24.5l-334 -864q-43 -110 -93 -189t-106 -130t-117 -75t-125 -24q-38 0 -75 7t-65.5 17.5t-46 22.5t-17.5 21t17 34.5t40.5 54.5t48.5 55t41 36q50 -32 100.5 -39.5t87.5 6.5q37 13 79.5 56.5t77.5 129.5l29 69 l-335 812q-11 27 -36 42t-75 26v73h453v-73q-39 -5 -60 -10.5t-30 -13t-8 -18t8 -26.5l206 -502l196 502q6 15 7.5 25.5t-6 18t-26.5 13t-53 11.5v73h327v-73z" />
<glyph unicode="z" horiz-adv-x="959" d="M882 331q0 -21 -0.5 -50.5t-1 -62.5t-1.5 -66.5t-2.5 -63.5t-3 -53t-3.5 -35h-783l-26 45l529 765h-260q-44 0 -82.5 -50t-64.5 -160l-71 20l25 326q22 -6 40 -9.5t37.5 -5t42.5 -1.5h616l22 -43l-531 -767h343q18 0 31.5 15.5t25 45t23 71.5t25.5 96z" />
<glyph unicode="{" horiz-adv-x="717" d="M693 1523q-78 -49 -127.5 -114.5t-49.5 -141.5q0 -53 6.5 -93.5t14 -78.5t14 -79t6.5 -93q0 -42 -14.5 -82.5t-41 -76t-62 -64.5t-77.5 -47q100 -18 147.5 -87.5t47.5 -180.5q0 -54 -6.5 -100t-14 -88.5t-14 -83.5t-6.5 -85q0 -41 6.5 -74.5t24.5 -63.5t50.5 -57.5 t85.5 -56.5l-38 -91q-92 34 -164 69t-121 78.5t-74.5 98t-25.5 126.5q0 53 6.5 95.5t14 83.5t14 85t6.5 101q0 81 -35 115t-98 34h-21q-6 0 -11 -0.5t-11.5 -2t-21.5 -3.5l-17 83q112 31 163.5 85.5t51.5 129.5q0 55 -6.5 95t-14 77.5t-14 78t-6.5 96.5q0 67 30 124 t82.5 105t124.5 87.5t155 73.5z" />
<glyph unicode="|" horiz-adv-x="470" d="M335 -346q-9 -8 -25.5 -16.5t-35 -16.5t-36.5 -15t-30 -11l-43 30v1989q28 17 63 32.5t64 23.5l43 -29v-1987z" />
<glyph unicode="}" horiz-adv-x="717" d="M632 636q-112 -31 -163.5 -85t-51.5 -130q0 -55 6 -95t13.5 -77t14 -77.5t6.5 -96.5q0 -68 -30 -124.5t-82.5 -104.5t-124 -88t-154.5 -74l-41 78q78 49 127 114.5t49 141.5q0 52 -6.5 92.5t-14 79t-13.5 79t-6 93.5q0 42 14.5 82t40.5 75.5t62 64.5t78 47 q-101 19 -148 88t-47 181q0 54 6 100t13.5 88t14 83t6.5 85q0 42 -6.5 75.5t-24.5 63t-50.5 57t-84.5 56.5l38 91q92 -33 163.5 -68.5t120.5 -78.5t74.5 -97.5t25.5 -126.5q0 -53 -6.5 -95.5t-14 -84t-13.5 -85.5t-6 -100q0 -81 35 -115t98 -34h20q7 0 12 0.5t11.5 1.5 t21.5 4z" />
<glyph unicode="~" horiz-adv-x="999" d="M950 774q-21 -49 -53 -101.5t-71.5 -96t-85 -71.5t-93.5 -28q-42 0 -89 25t-95.5 55t-96 55t-90.5 25q-49 0 -90.5 -39t-83.5 -123l-53 27q21 49 53.5 101.5t72 96t84.5 71.5t93 28q46 0 94.5 -25t96 -55t93 -55t85.5 -25q48 0 91 39t85 121z" />
<glyph unicode="&#xa1;" horiz-adv-x="633" d="M454 -449q-22 -12 -54.5 -28.5t-67 -33t-66 -30t-50.5 -20.5l-51 31l79 1038q19 14 49 22.5t55 16.5l29 -20zM474 826q0 -39 -15 -71t-40 -54.5t-58.5 -34.5t-69.5 -12q-28 0 -54 8t-46 24.5t-32 42t-12 61.5q0 40 14.5 71.5t39 53.5t58 33.5t71.5 11.5q29 0 55.5 -7.5 t46 -24t31 -42t11.5 -60.5z" />
<glyph unicode="&#xa2;" horiz-adv-x="1036" d="M309 616q0 -67 14 -120.5t39 -93.5t59.5 -67t76.5 -42v648q-38 -10 -72 -33.5t-60 -62.5t-41.5 -96t-15.5 -133zM618 7q-18 -16 -41 -28t-47 -20l-32 32v139q-70 6 -142.5 38t-132 90t-97 140t-37.5 188q0 89 29 167t82.5 140t129 106t168.5 64v136q14 9 23.5 15.5t18 12 t19 10t25.5 8.5l34 -29v-138q8 0 16.5 0.5t17.5 0.5q33 0 76 -5.5t84.5 -16t76 -25t51.5 -33.5q2 -11 -6.5 -41t-21.5 -64t-27.5 -64.5t-23.5 -43.5l-65 17q-8 15 -23 35.5t-36.5 41t-51 38t-67.5 25.5v-666q29 1 57 8t59 24t67.5 46t83.5 74l62 -71q-51 -57 -94.5 -97 t-83 -65.5t-76.5 -40t-75 -20.5v-128z" />
<glyph unicode="&#xa3;" horiz-adv-x="1036" d="M720 521h-264q3 -118 -25 -211t-83 -171q45 4 78 5t58.5 0.5t47 -1.5t44 -2.5t49.5 -2t64 0.5q46 1 79 9.5t58.5 29.5t46.5 58t42 96l73 -25q-4 -43 -10.5 -91t-13.5 -91t-13.5 -76.5t-10.5 -48.5q-45 -25 -112 -28t-145.5 4t-163 18.5t-164 16.5t-149.5 -2.5t-119 -38.5 l-38 72q30 25 53.5 47t40.5 48t28 58.5t16 77.5t4.5 105.5t-5.5 142.5h-115l-29 33q2 7 7 19t10.5 24.5t11 24.5t8.5 20h100q-2 132 29.5 241t92.5 187t150 121.5t201 43.5q26 0 58.5 -2t70.5 -9.5t80.5 -21t89.5 -37.5q-1 -17 -2.5 -43.5t-4.5 -57.5t-7 -64t-8 -62.5 t-8.5 -53t-8.5 -36.5h-77q-14 124 -68 195t-144 71q-20 0 -44 -4t-46.5 -19.5t-43 -46t-33 -83t-16.5 -130.5t6 -189h282l32 -30z" />
<glyph unicode="&#xa4;" horiz-adv-x="1036" d="M366 757q-32 -32 -48.5 -73t-16.5 -83t15.5 -81t47.5 -71q34 -34 74 -49.5t82 -15.5t81.5 15.5t71.5 48.5q32 32 48 72t16 82t-16.5 82.5t-48.5 72.5t-71 47.5t-81 15.5t-82 -15.5t-72 -47.5zM851 183l-137 137q-43 -30 -92.5 -45t-101.5 -15q-53 0 -103 15t-95 47 l-140 -140l-42 3q-10 17 -21 38.5t-19 42.5l139 139q-31 44 -46 93.5t-15 100.5q0 52 15 102.5t46 95.5l-138 140l2 44q18 10 39 20.5t42 19.5l139 -140q91 65 197 65q51 0 100 -16t93 -48l138 138l44 1l39 -86l-137 -137q32 -45 48 -96t16 -103q0 -51 -15.5 -100.5 t-47.5 -94.5l138 -137l1 -45z" />
<glyph unicode="&#xa5;" horiz-adv-x="1036" d="M229 0v73q45 9 75 19t48 19.5t25.5 18t7.5 15.5v243h-288l-22 24q2 7 6.5 20t9.5 27.5t10 27.5t8 21h276v21q-35 77 -74 153.5t-79 146t-79 130t-74 106.5q-9 11 -18.5 20t-26.5 15t-43 9.5t-68 3.5l-4 73q29 4 67.5 9t76.5 9t72 7t55 3q28 0 56 -12t45 -34 q37 -50 71.5 -102t68.5 -110t67.5 -121.5t68.5 -135.5l193 366q15 26 -9.5 41t-101.5 25v73h418v-73q-68 -13 -101 -27t-47 -39l-284 -539v-18h267l25 -23l-37 -97h-255v-243q0 -6 7.5 -14.5t25.5 -18.5t48.5 -20t77.5 -19v-73h-565z" />
<glyph unicode="&#xa6;" horiz-adv-x="469" d="M341 775q-10 -8 -28 -16.5t-38 -17t-40 -15.5l-31 -10l-45 30v868q29 17 68 32.5t70 23.5l44 -29v-866zM341 -347q-10 -8 -28 -16.5t-38 -16.5t-39.5 -15t-31.5 -11l-45 30v858q15 9 32.5 17.5t36 16t36.5 14t33 11.5l44 -32v-856z" />
<glyph unicode="&#xa7;" horiz-adv-x="1025" d="M585 559q22 -11 45.5 -23t46.5 -25q14 20 22 43.5t8 49.5q0 50 -16.5 88t-50.5 71t-86 65t-124 71q-16 8 -32 17t-33 19q-21 -23 -34 -51.5t-13 -55.5q0 -44 16 -77t49 -63t83.5 -60.5t118.5 -68.5zM920 669q0 -85 -32 -150.5t-79 -109.5q23 -27 37 -59.5t14 -71.5 q0 -71 -21.5 -121t-56 -84.5t-77.5 -54.5t-87 -31t-84.5 -14t-69.5 -3q-32 0 -69.5 5t-76.5 14.5t-77.5 23.5t-71.5 33q-5 2 -8 17.5t-4.5 40t-1 55t2.5 62.5t6.5 62.5t11.5 54.5l80 -11q11 -53 34 -96.5t55 -74.5t71 -48t83 -17q72 0 106.5 24.5t34.5 84.5q0 40 -24 71.5 t-62 58t-84.5 50t-92.5 47.5q-48 25 -96.5 57.5t-87.5 75t-63.5 96.5t-24.5 123q0 34 11 68t30 65.5t45 59t56 48.5q-35 34 -57.5 72.5t-22.5 85.5q0 62 30.5 111t80.5 82.5t114 51t132 17.5q43 0 86.5 -5.5t83.5 -16t73.5 -25t56.5 -32.5q6 -5 2.5 -33.5t-12.5 -64t-22 -70 t-25 -50.5l-69 8q-25 89 -72 136.5t-113 47.5q-61 0 -93.5 -25t-32.5 -70q0 -33 18 -58.5t51 -48.5t79.5 -47t102.5 -54q49 -26 99.5 -57.5t91 -74.5t66 -99t25.5 -132z" />
<glyph unicode="&#xa8;" horiz-adv-x="801" d="M749 1268q0 -37 -12.5 -69t-34 -56t-50 -38t-60.5 -14q-58 0 -88 31t-30 91q0 37 13 69t34.5 56t49.5 37.5t59 13.5q56 0 87.5 -30t31.5 -91zM326 1268q0 -37 -12.5 -69t-33.5 -56t-49.5 -38t-60.5 -14q-58 0 -88.5 31t-30.5 91q0 37 13 69t34.5 56t50 37.5t59.5 13.5 q56 0 87 -30t31 -91z" />
<glyph unicode="&#xa9;" horiz-adv-x="1496" d="M1068 412q-53 -57 -98.5 -92t-87 -54t-80 -25.5t-77.5 -6.5q-70 0 -135.5 28t-116.5 80.5t-81.5 127.5t-30.5 169t35 176t97 143.5t146.5 97t184.5 35.5q33 0 67.5 -6t65.5 -16.5t57 -23.5t41 -28q2 -9 -5.5 -39t-19.5 -65t-25 -66t-22 -42l-54 8q-10 34 -23.5 65.5 t-32.5 56t-45 39t-62 14.5q-41 0 -78.5 -18t-66 -56.5t-45 -99t-16.5 -144.5q0 -69 21.5 -124.5t56 -94t78 -59t87.5 -20.5q23 0 44.5 3t46 13t56 28.5t73.5 48.5q1 0 8 -8.5t15 -18t14.5 -18t7.5 -8.5zM1292 666q0 118 -40.5 222.5t-113 182.5t-172.5 123t-219 45 q-118 0 -217.5 -45t-172 -123t-113 -182.5t-40.5 -222.5q0 -119 40.5 -224t113 -183t172 -123t217.5 -45q119 0 219 45t172.5 123t113 183t40.5 224zM1411 666q0 -96 -22.5 -185t-64.5 -166t-101 -141t-133 -109t-160.5 -70t-182.5 -25t-182 25t-159.5 70t-133 109t-101 141 t-64 166t-22.5 185q0 144 49.5 270t138 220t209.5 148.5t265 54.5q96 0 182.5 -24.5t160.5 -70t133 -108.5t101 -140t64.5 -165.5t22.5 -184.5z" />
<glyph unicode="&#xaa;" horiz-adv-x="564" d="M550 800q-46 -31 -90 -52.5t-76 -21.5q-14 0 -26 17t-18 67q-50 -49 -96 -66.5t-81 -17.5q-20 0 -41.5 6t-39 19.5t-29 35t-11.5 53.5q0 31 10.5 60.5t33.5 55t59.5 45.5t87.5 31l104 22v12q0 31 -1.5 54.5t-8.5 39.5t-20.5 24t-37.5 8q-15 0 -28.5 -4t-22.5 -13 t-13 -22.5t1 -31.5q1 -5 -18.5 -12t-44.5 -14t-48.5 -11.5t-30.5 -2.5l-11 26q13 34 41.5 63t66 49t80 31.5t83.5 11.5q36 0 63 -8t45 -28.5t27 -55t9 -87.5v-196q0 -28 4 -40.5t10 -19.5q5 -3 16.5 -0.5t39.5 13.5zM44 586v88h479v-88h-479zM337 871v131l-50 -11 q-51 -13 -79.5 -41t-28.5 -71q0 -18 5 -30t12 -18.5t15.5 -9.5t15.5 -3q21 0 46.5 10.5t63.5 42.5z" />
<glyph unicode="&#xab;" horiz-adv-x="1054" d="M65 430v35q0 14 0.5 25t1.5 13l397 425l57 -45l-9 -18q-8 -18 -22 -47.5t-32.5 -67t-37.5 -76.5t-37 -76.5t-32 -66.5t-22.5 -46.5t-7.5 -17.5l201 -420l-58 -45zM473 430v35q0 14 0.5 25t1.5 13l396 425l57 -45l-9 -18q-8 -18 -22 -47.5t-32.5 -67t-37.5 -76.5 t-37 -76.5t-32 -66.5t-22.5 -46.5t-7.5 -17.5l201 -420l-58 -45z" />
<glyph unicode="&#xac;" horiz-adv-x="1036" d="M951 233q-10 -8 -25 -17.5t-31 -19t-32 -17.5t-28 -12l-32 33v291h-695l-33 32q3 10 8.5 25t12.5 30.5t13.5 30t11.5 24.5h794l36 -29v-371z" />
<glyph unicode="&#xad;" horiz-adv-x="728" d="M675 554q-3 -11 -9 -27t-13 -32.5t-13.5 -31.5t-10.5 -23h-544l-32 32q3 11 8.5 26.5t12.5 31.5t13.5 30.5t11.5 24.5h543z" />
<glyph unicode="&#xae;" horiz-adv-x="730" d="M711 1084q0 -74 -26 -140t-72.5 -115t-110 -77.5t-138.5 -28.5q-74 0 -137 28.5t-109 77.5t-72 115t-26 140q0 75 26 140.5t72 114.5t109 77.5t137 28.5q75 0 138.5 -28.5t110 -77.5t72.5 -114.5t26 -140.5zM637 1084q0 59 -20.5 111.5t-56.5 91.5t-86 61.5t-110 22.5 q-59 0 -108.5 -22.5t-85.5 -61.5t-56.5 -91.5t-20.5 -111.5q0 -60 20.5 -112t56.5 -91t85.5 -61.5t108.5 -22.5q60 0 110 22.5t86 61.5t56.5 91t20.5 112zM207 884v23q40 9 40 18v324q-10 -2 -19.5 -3t-18.5 -2l-4 34q29 7 67 11t80 4q43 0 74 -7.5t50.5 -20.5t28.5 -31 t9 -38q0 -93 -98 -121l94 -136q7 -11 16 -14.5t31 -1.5l3 -23q-10 -3 -23.5 -6.5t-26.5 -6.5t-24 -5t-17 -2q-9 0 -16.5 4.5t-11.5 10.5l-89 172h-8q-6 0 -12 0.5t-13 1.5v-144q0 -4 7 -8.5t30 -9.5v-23h-149zM341 1256h-11q-6 0 -11 -1v-145q5 -1 10 -1h11q51 0 71.5 20 t20.5 58q0 29 -22.5 49t-68.5 20z" />
<glyph unicode="&#xaf;" horiz-adv-x="1010" d="M931 1307q-3 -11 -10.5 -29.5t-16.5 -38.5t-17 -37.5t-12 -26.5h-764l-32 32q3 11 10 29t16 37.5t17 37t13 27.5h764z" />
<glyph unicode="&#xb0;" horiz-adv-x="733" d="M467 995q0 25 -6.5 47.5t-18 40t-28 27.5t-37.5 10t-41 -8.5t-35.5 -24.5t-24.5 -38.5t-9 -50.5q0 -24 6 -46.5t18 -40t28.5 -28t37.5 -10.5t40.5 8t35 23.5t25 38.5t9.5 52zM619 1050q0 -68 -26.5 -126.5t-69 -101t-95 -66.5t-103.5 -24q-46 0 -84.5 17t-66.5 45.5 t-43.5 67t-15.5 81.5q0 69 26 127.5t68 101t94.5 66.5t105.5 24q43 0 81.5 -17t67 -46t45 -67.5t16.5 -81.5z" />
<glyph unicode="&#xb1;" horiz-adv-x="840" d="M506 355q-10 -5 -24.5 -11t-30.5 -11.5t-31.5 -10t-26.5 -6.5l-32 30v275h-276l-32 31q3 11 8.5 26t12.5 31t13.5 30.5t11.5 24.5h262v268l24 8q15 5 31 10.5t31.5 10.5t26.5 8l32 -31v-274h271l33 -31q-3 -11 -9 -26.5t-13 -32t-13.5 -31t-10.5 -22.5h-258v-266z M810 224q-3 -11 -9 -27t-13 -32.5t-13.5 -31t-10.5 -22.5h-679l-32 32q3 10 8.5 25.5t12.5 31.5t13.5 30.5t11.5 24.5h678z" />
<glyph unicode="&#xb2;" horiz-adv-x="711" d="M641 620h-565l-20 44q123 124 199 207t118.5 139.5t57 94t14.5 69.5q0 51 -20.5 79.5t-71.5 28.5q-50 0 -70 -33t-11 -78q-12 -6 -34.5 -12t-48 -11t-50.5 -9.5t-41 -5.5l-24 41q0 31 26 64t71 60.5t104.5 45t125.5 17.5q55 0 99 -9.5t75.5 -29t48.5 -48t17 -65.5 q0 -27 -7 -53t-23 -55t-43.5 -63.5t-69 -78t-98 -98.5t-131.5 -126h252q23 0 37 18t22 40q9 26 12 59l59 -12z" />
<glyph unicode="&#xb3;" horiz-adv-x="711" d="M643 849q0 -51 -23.5 -95.5t-65.5 -78.5t-101 -53.5t-130 -19.5q-28 0 -62.5 6t-70.5 18.5t-72 31.5t-67 45l28 74q64 -41 116.5 -59.5t105.5 -18.5q63 0 102.5 36t39.5 102q0 40 -12.5 66.5t-32 41.5t-43.5 21t-47 6h-16q-6 0 -12 -0.5t-12.5 -1.5t-17.5 -2l-12 64 q59 13 92.5 32t49.5 39.5t19.5 41.5t3.5 39q0 41 -18 69.5t-61 28.5q-18 0 -33.5 -7t-25.5 -19.5t-13.5 -30t3.5 -37.5q-15 -8 -34.5 -14.5t-41 -12.5t-43.5 -10t-41 -5l-24 37q0 25 21.5 56t60.5 58t92.5 45.5t118.5 18.5q64 0 109.5 -14.5t74 -38t41.5 -53.5t13 -60 q0 -23 -9.5 -46.5t-27.5 -45t-44.5 -38.5t-59.5 -26q43 -4 77 -20.5t57 -42t35.5 -58.5t12.5 -69z" />
<glyph unicode="&#xb4;" horiz-adv-x="653" d="M289 1040q-9 1 -21.5 6.5t-25.5 12t-23.5 13t-16.5 11.5l212 429q12 -1 44.5 -6t69.5 -11t69.5 -12t43.5 -9l31 -54z" />
<glyph unicode="&#xb5;" horiz-adv-x="1165" d="M1160 97q-29 -21 -67.5 -44t-77.5 -41.5t-75.5 -30.5t-61.5 -12q-26 0 -46.5 15t-35 40.5t-23.5 60.5t-13 74q-75 -101 -137.5 -145.5t-124.5 -44.5q-44 0 -98 37t-104 100v-20q0 -92 15 -167t39 -135.5t54 -106t60 -76.5q-15 -5 -51 -19t-76.5 -30.5t-75.5 -31 t-47 -20.5l-46 36v1158q0 39 -1.5 62t-12.5 36.5t-36 20t-72 11.5v70q90 8 165.5 23.5t150.5 42.5l6 -6q6 -6 13.5 -14t15 -16.5t11.5 -13.5v-529q0 -44 15 -83t38 -67.5t50 -45t50 -16.5q19 0 39 4.5t43 19t51.5 41.5t63.5 72v442q0 16 -3.5 38.5t-9 44.5t-12 41t-13.5 28 q27 5 60.5 11.5t68 14.5t68 16.5t61.5 17.5l36 -46q-2 -13 -4.5 -27t-4.5 -32t-4 -41.5t-3 -54.5v-461q0 -47 2 -76.5t7 -47t12 -24t18 -6.5q22 0 43.5 6t54.5 22z" />
<glyph unicode="&#xb6;" horiz-adv-x="1241" d="M867 1143q-38 9 -80 15v-1273q0 -11 14.5 -19.5t24.5 -11.5q12 3 26.5 11.5t14.5 19.5v1258zM622 633l1 541q-20 1 -37 1.5t-29 0.5q-48 0 -94.5 -16t-83 -47t-59 -75t-22.5 -100q0 -54 16 -108.5t50 -98t87 -71t127 -27.5h44zM482 -250v73q69 14 104 31t35 31l1 640 q-18 -3 -39 -4.5t-48 -1.5q-107 0 -198.5 25t-158.5 73.5t-105 120t-38 165.5q0 85 35.5 156t101 122.5t158.5 80t209 28.5q22 0 57.5 -1.5t79.5 -3.5t92.5 -4.5t96.5 -5.5q112 -7 239 -15h64v-73q-68 -14 -103 -31t-35 -31v-1240q0 -13 32.5 -30.5t105.5 -31.5v-73h-686z " />
<glyph unicode="&#xb7;" horiz-adv-x="419" d="M369 708q0 -39 -14 -69.5t-38 -51.5t-56.5 -32t-68.5 -11q-29 0 -54.5 7.5t-44.5 23t-30.5 40t-11.5 59.5q0 38 14.5 68.5t39 52t56.5 33t68 11.5q27 0 52 -7.5t44.5 -23.5t31.5 -41t12 -59z" />
<glyph unicode="&#xb8;" horiz-adv-x="469" d="M454 -229q0 -37 -27 -72t-75 -64t-114.5 -50t-144.5 -29l-37 71q87 13 124.5 42.5t37.5 61.5q0 34 -23 48.5t-68 18.5l3 4q4 4 12.5 25t24 64.5t40.5 122.5l123 -2l-39 -101q78 -14 120.5 -48.5t42.5 -91.5z" />
<glyph unicode="&#xb9;" horiz-adv-x="711" d="M109 620v60q55 6 89.5 12.5t54.5 13.5t27.5 14.5t7.5 13.5v422q0 24 -2 37.5t-11 21.5q-4 4 -13.5 6t-28.5 1.5t-49.5 -4t-76.5 -12.5l-20 59q30 6 80 19t103.5 28t101 30t72.5 25l32 -25v-608q0 -6 6 -13t23.5 -14.5t50 -14t85.5 -12.5v-60h-532z" />
<glyph unicode="&#xba;" horiz-adv-x="575" d="M404 979q0 42 -8 81t-24 69.5t-39 48.5t-53 18t-50.5 -14t-33.5 -39t-19 -60.5t-6 -77.5t10 -81t27 -68t39.5 -46.5t47.5 -17.5q60 0 84.5 51t24.5 136zM45 586v88h485v-88h-485zM540 1003q0 -51 -21.5 -101t-58 -89t-84.5 -63t-100 -24q-56 0 -100.5 19.5t-75.5 54 t-48 81t-17 101.5q0 52 19.5 102.5t54 90t83 64t107.5 24.5q54 0 98.5 -20t76 -55.5t49 -83t17.5 -101.5z" />
<glyph unicode="&#xbb;" horiz-adv-x="1054" d="M988 428l-397 -426l-58 45l201 417l-201 419l58 45l398 -427zM580 428l-397 -426l-57 45l200 417l-201 419l58 45l398 -427z" />
<glyph unicode="&#xbc;" horiz-adv-x="1275" d="M309 3q-12 -6 -28.5 -10.5t-35 -8.5t-36.5 -7.5t-31 -6.5l-25 30l890 1203q10 4 26.5 8.5t35 9t36 8.5t28.5 6l25 -28zM1218 215q-12 -16 -28 -31.5t-29 -23.5h-30v-94q0 -7 15 -13.5t62 -15.5v-37h-329v37q37 5 60 9.5t36 8.5t17.5 8t4.5 8v89h-269l-24 19l274 381 q13 4 30 9l35 10q18 5 34.5 10t28.5 9l25 -21v-347h72zM88 637v42q45 4 74 9.5t46 11t24 11.5t7 11v350q0 19 -1 29.5t-9 17.5q-3 3 -11.5 5t-25 1.5t-42.5 -3.5t-63 -10l-16 41q24 4 63.5 14.5t81.5 23t80 24.5t59 20l25 -21v-492q0 -5 6 -10.5t21.5 -11.5t42.5 -11.5 t70 -9.5v-42h-432zM997 469l-180 -239h180v239z" />
<glyph unicode="&#xbd;" horiz-adv-x="1275" d="M88 637v42q45 4 74 9.5t46 11t24 11.5t7 11v350q0 19 -1 29.5t-9 17.5q-3 3 -11.5 5t-25 1.5t-42.5 -3.5t-63 -10l-16 41q24 4 63.5 14.5t81.5 23t80 24.5t59 20l25 -21v-492q0 -5 6 -10.5t21.5 -11.5t42.5 -11.5t70 -9.5v-42h-432zM309 3q-12 -6 -28.5 -10.5t-35 -8.5 t-36.5 -7.5t-31 -6.5l-25 30l890 1203q10 4 26.5 8.5t35 9t36 8.5t28.5 6l25 -28zM1198 0h-457l-17 36q100 99 163.5 165t100 111.5t50.5 75.5t14 56q0 41 -19.5 66t-66.5 25q-23 0 -39.5 -8t-26 -21t-13 -30t0.5 -35q-10 -5 -26.5 -9.5t-35 -9t-36.5 -7.5t-31 -4l-19 32 q0 25 21 51.5t57 48.5t84 36t102 14q90 0 142 -30.5t52 -91.5q0 -32 -16 -64.5t-53 -75.5t-98 -101.5t-152 -143.5h222q20 0 31.5 14.5t17.5 32.5q7 20 10 47l47 -10z" />
<glyph unicode="&#xbe;" horiz-adv-x="1275" d="M309 3q-12 -6 -28.5 -10.5t-35 -8.5t-36.5 -7.5t-31 -6.5l-25 30l890 1203q10 4 26.5 8.5t35 9t36 8.5t28.5 6l25 -28zM1218 215q-12 -16 -28 -31.5t-29 -23.5h-30v-94q0 -7 15 -13.5t62 -15.5v-37h-329v37q37 5 60 9.5t36 8.5t17.5 8t4.5 8v89h-269l-24 19l274 381 q13 4 30 9l35 10q18 5 34.5 10t28.5 9l25 -21v-347h72zM534 821q0 -41 -19 -76.5t-53 -62.5t-82 -42.5t-105 -15.5q-23 0 -51 5t-57.5 15t-58.5 25t-55 36l24 46q52 -32 95 -45t85 -13q26 0 49 6.5t40.5 20.5t27.5 36t10 53q0 33 -12 55.5t-30.5 36t-40 19.5t-39.5 6h-13 q-5 0 -9.5 -0.5t-10 -1.5t-14.5 -2l-9 45q48 11 77 26t44 31.5t20 33t5 31.5q0 33 -17 58.5t-60 25.5q-14 0 -26.5 -5.5t-21 -15.5t-11 -24t2.5 -30q-23 -11 -60.5 -21t-69.5 -12l-19 30q0 20 17.5 43.5t49 44t75 34.5t96.5 14q52 0 88.5 -11.5t60 -30.5t34 -43t10.5 -48 q0 -18 -8.5 -37t-24.5 -36t-38 -31t-49 -21q35 -3 63 -16t48 -33.5t31 -47t11 -55.5zM997 469l-180 -239h180v239z" />
<glyph unicode="&#xbf;" horiz-adv-x="932" d="M432 508q18 14 44 23.5t54 17.5l32 -28l8 -109q3 -57 -13.5 -111.5t-43 -106.5t-59 -102.5t-60 -99.5t-46.5 -97t-19 -95q0 -124 40 -183t109 -59q25 0 48 13t41 36t28.5 55.5t10.5 71.5q0 14 -4 32.5t-9 32.5q16 9 47 18.5t66 18.5t69 15.5t56 8.5l34 -38q2 -8 2 -24 v-24q0 -71 -37.5 -132t-100.5 -106t-146.5 -70.5t-174.5 -25.5q-83 0 -147 23t-107.5 64.5t-66 99.5t-22.5 128q0 75 25.5 136.5t64.5 115t84.5 101.5t85.5 96t68.5 98.5t32.5 109.5zM652 826q0 -39 -15 -71t-40.5 -54.5t-58.5 -34.5t-70 -12q-28 0 -54 8t-46 24.5t-32 42 t-12 61.5q0 40 14.5 71.5t39.5 53.5t58 33.5t71 11.5q29 0 55.5 -7.5t46.5 -24t31.5 -42t11.5 -60.5z" />
<glyph unicode="&#xc0;" horiz-adv-x="1287" d="M747 550l-165 465l-150 -465h315zM392 430l-96 -289q-10 -31 24.5 -45t116.5 -23v-73h-437v73q68 12 104.5 25t46.5 43l349 1066q24 20 51.5 37t57 30.5t58.5 24t55 18.5l420 -1176q5 -14 13 -25t22 -19t35.5 -14t53.5 -10v-73h-497v73q78 5 105.5 20t16.5 48l-102 289 h-397zM825 1420q-14 -19 -28.5 -35.5t-31.5 -24.5l-479 234l10 63q7 8 29.5 24t49 33t50.5 32t35 21z" />
<glyph unicode="&#xc1;" horiz-adv-x="1287" d="M747 550l-165 465l-150 -465h315zM392 430l-96 -289q-10 -31 24.5 -45t116.5 -23v-73h-437v73q68 12 104.5 25t46.5 43l349 1066q24 20 51.5 37t57 30.5t58.5 24t55 18.5l420 -1176q5 -14 13 -25t22 -19t35.5 -14t53.5 -10v-73h-497v73q78 5 105.5 20t16.5 48l-102 289 h-397zM501 1360q-17 8 -35.5 28t-32.5 39l365 340q23 -12 51 -28.5t53.5 -32t45.5 -29.5t28 -22l9 -52z" />
<glyph unicode="&#xc2;" horiz-adv-x="1287" d="M747 550l-165 465l-150 -465h315zM392 430l-96 -289q-10 -31 24.5 -45t116.5 -23v-73h-437v73q68 12 104.5 25t46.5 43l349 1066q24 20 51.5 37t57 30.5t58.5 24t55 18.5l420 -1176q5 -14 13 -25t22 -19t35.5 -14t53.5 -10v-73h-497v73q78 5 105.5 20t16.5 48l-102 289 h-397zM971 1420q-12 -19 -26.5 -35.5t-31.5 -24.5l-281 163l-279 -163q-17 8 -31.5 24.5t-28.5 35.5l279 324h122z" />
<glyph unicode="&#xc3;" horiz-adv-x="1287" d="M747 550l-165 465l-150 -465h315zM392 430l-96 -289q-10 -31 24.5 -45t116.5 -23v-73h-437v73q68 12 104.5 25t46.5 43l349 1066q24 20 51.5 37t57 30.5t58.5 24t55 18.5l420 -1176q5 -14 13 -25t22 -19t35.5 -14t53.5 -10v-73h-497v73q78 5 105.5 20t16.5 48l-102 289 h-397zM1027 1657q-18 -41 -44 -89.5t-59 -90.5t-73.5 -70.5t-86.5 -28.5q-43 0 -82 16.5t-76 36t-73.5 36t-74.5 16.5q-23 0 -41 -7.5t-34.5 -22t-33 -36t-34.5 -49.5l-75 28q18 41 43.5 90t58.5 91.5t73 71t86 28.5t87.5 -16.5t79 -36t71.5 -36t66 -16.5q45 0 78 28t67 87z " />
<glyph unicode="&#xc4;" horiz-adv-x="1287" d="M747 550l-165 465l-150 -465h315zM392 430l-96 -289q-10 -31 24.5 -45t116.5 -23v-73h-437v73q68 12 104.5 25t46.5 43l349 1066q24 20 51.5 37t57 30.5t58.5 24t55 18.5l420 -1176q5 -14 13 -25t22 -19t35.5 -14t53.5 -10v-73h-497v73q78 5 105.5 20t16.5 48l-102 289 h-397zM982 1548q0 -37 -12.5 -69t-34 -56t-50 -38t-60.5 -14q-58 0 -88 31t-30 91q0 37 13 69t34.5 56t49.5 37.5t59 13.5q56 0 87.5 -30t31.5 -91zM559 1548q0 -37 -12.5 -69t-33.5 -56t-49.5 -38t-60.5 -14q-58 0 -88.5 31t-30.5 91q0 37 13 69t34.5 56t50 37.5t58.5 13.5 q57 0 88 -30t31 -91z" />
<glyph unicode="&#xc5;" horiz-adv-x="1287" d="M747 550l-165 465l-150 -465h315zM392 430l-96 -289q-10 -31 24.5 -45t116.5 -23v-73h-437v73q68 12 104.5 25t46.5 43l349 1066q24 20 51.5 37t57 30.5t58.5 24t55 18.5l420 -1176q5 -14 13 -25t22 -19t35.5 -14t53.5 -10v-73h-497v73q78 5 105.5 20t16.5 48l-102 289 h-397zM706 1563q0 48 -20 73.5t-43 25.5q-21 0 -36.5 -8.5t-26 -22t-16 -31t-5.5 -35.5q0 -46 20.5 -71t43.5 -25q40 0 61.5 27t21.5 67zM841 1604q0 -53 -20 -100t-53.5 -81.5t-76.5 -54.5t-89 -20q-39 0 -72 12.5t-56.5 35.5t-36.5 55.5t-13 72.5q0 54 20 101t53 82.5 t76.5 55.5t90.5 20q40 0 73 -13.5t56 -37t35.5 -56.5t12.5 -72z" />
<glyph unicode="&#xc6;" horiz-adv-x="1655" d="M759 1118q0 11 -7 16t-17 3.5t-21 -10.5t-18 -26l-149 -366h212v383zM1609 304q-5 -43 -10.5 -90.5t-11 -90t-10.5 -75.5t-9 -48h-944v73q68 14 101.5 30.5t33.5 30.5v490h-255l-196 -483q-13 -29 10.5 -44t97.5 -24v-73h-416v73q62 9 97 24t48 44l389 962q7 17 2.5 28.5 t-22.5 21t-51 17.5t-82 17v73h1125l37 -32q-2 -26 -5.5 -65t-9 -80t-12.5 -77.5t-14 -55.5h-75q-5 93 -24 141.5t-58 48.5h-336v-405h398l34 -35q-9 -14 -20.5 -33t-24.5 -38t-25 -35t-22 -25q-15 15 -35 25t-39 17t-33 10t-17 3h-216v-440q0 -15 7.5 -26.5t30 -20t63 -13 t106.5 -4.5h95q46 0 79 11t58.5 35.5t46 64.5t41.5 99z" />
<glyph unicode="&#xc7;" horiz-adv-x="1143" d="M804 -229q0 -37 -27 -72t-75 -64t-114.5 -50t-144.5 -29l-37 71q87 13 124.5 42.5t37.5 61.5q0 34 -23 48.5t-67 18.5l3 4q3 4 11.5 25t23.5 65q11 31 27 80q-78 7 -154 40q-95 42 -169.5 121t-119.5 193.5t-45 259.5q0 160 49 290t135 222.5t202 142.5t250 49 q54 0 107 -8t101 -21.5t87.5 -31.5t65.5 -39q4 -3 -0.5 -18t-13.5 -36t-21.5 -45.5t-25.5 -47t-24.5 -40.5t-19.5 -26l-65 14q-51 88 -116.5 127.5t-143.5 39.5q-34 0 -70.5 -11t-71.5 -36t-66.5 -65.5t-55 -99.5t-37 -139t-13.5 -184q0 -128 33.5 -220t87 -151.5t120 -88 t132.5 -28.5q27 0 63.5 6t80 22.5t92.5 44t102 71.5q5 -4 13 -14t15.5 -21t14 -20.5t9.5 -12.5q-64 -65 -126 -111t-123 -75t-120 -42q-18 -4 -36 -6l-25 -66q78 -14 120.5 -48.5t42.5 -91.5z" />
<glyph unicode="&#xc8;" horiz-adv-x="1076" d="M1029 304q-4 -43 -9 -90.5t-11 -90t-11.5 -75.5t-9.5 -48h-945v73q68 14 102.5 30.5t34.5 30.5v991q0 12 -32.5 30t-104.5 32v73h881l40 -32q-2 -26 -6 -65t-10 -80t-12.5 -77.5t-12.5 -55.5h-75q-5 93 -25 141.5t-57 48.5h-336v-405h398l33 -35q-8 -14 -19.5 -32.5 t-24 -36.5t-25 -33.5t-23.5 -23.5q-15 15 -32.5 25t-40 17t-53 10t-72.5 3h-141v-445q0 -15 7 -26.5t29 -20t62 -13t106 -4.5h99q46 0 78.5 11t57.5 35.5t45.5 64.5t41.5 99zM728 1420q-14 -19 -28.5 -35.5t-31.5 -24.5l-479 234l10 63q7 8 29.5 24t49 33t50.5 32t35 21z " />
<glyph unicode="&#xc9;" horiz-adv-x="1076" d="M1029 304q-4 -43 -9 -90.5t-11 -90t-11.5 -75.5t-9.5 -48h-945v73q68 14 102.5 30.5t34.5 30.5v991q0 12 -32.5 30t-104.5 32v73h881l40 -32q-2 -26 -6 -65t-10 -80t-12.5 -77.5t-12.5 -55.5h-75q-5 93 -25 141.5t-57 48.5h-336v-405h398l33 -35q-8 -14 -19.5 -32.5 t-24 -36.5t-25 -33.5t-23.5 -23.5q-15 15 -32.5 25t-40 17t-53 10t-72.5 3h-141v-445q0 -15 7 -26.5t29 -20t62 -13t106 -4.5h99q46 0 78.5 11t57.5 35.5t45.5 64.5t41.5 99zM404 1360q-17 8 -35.5 28t-32.5 39l365 340q23 -12 51 -28.5t53.5 -32t45.5 -29.5t28 -22l9 -52z " />
<glyph unicode="&#xca;" horiz-adv-x="1076" d="M1029 304q-4 -43 -9 -90.5t-11 -90t-11.5 -75.5t-9.5 -48h-945v73q68 14 102.5 30.5t34.5 30.5v991q0 12 -32.5 30t-104.5 32v73h881l40 -32q-2 -26 -6 -65t-10 -80t-12.5 -77.5t-12.5 -55.5h-75q-5 93 -25 141.5t-57 48.5h-336v-405h398l33 -35q-8 -14 -19.5 -32.5 t-24 -36.5t-25 -33.5t-23.5 -23.5q-15 15 -32.5 25t-40 17t-53 10t-72.5 3h-141v-445q0 -15 7 -26.5t29 -20t62 -13t106 -4.5h99q46 0 78.5 11t57.5 35.5t45.5 64.5t41.5 99zM874 1420q-12 -19 -26.5 -35.5t-31.5 -24.5l-281 163l-279 -163q-17 8 -31.5 24.5t-28.5 35.5 l279 324h122z" />
<glyph unicode="&#xcb;" horiz-adv-x="1076" d="M1029 304q-4 -43 -9 -90.5t-11 -90t-11.5 -75.5t-9.5 -48h-945v73q68 14 102.5 30.5t34.5 30.5v991q0 12 -32.5 30t-104.5 32v73h881l40 -32q-2 -26 -6 -65t-10 -80t-12.5 -77.5t-12.5 -55.5h-75q-5 93 -25 141.5t-57 48.5h-336v-405h398l33 -35q-8 -14 -19.5 -32.5 t-24 -36.5t-25 -33.5t-23.5 -23.5q-15 15 -32.5 25t-40 17t-53 10t-72.5 3h-141v-445q0 -15 7 -26.5t29 -20t62 -13t106 -4.5h99q46 0 78.5 11t57.5 35.5t45.5 64.5t41.5 99zM885 1548q0 -37 -12.5 -69t-34 -56t-50 -38t-60.5 -14q-58 0 -88 31t-30 91q0 37 13 69t34.5 56 t49.5 37.5t59 13.5q56 0 87.5 -30t31.5 -91zM462 1548q0 -37 -12.5 -69t-33.5 -56t-49.5 -38t-60.5 -14q-58 0 -88.5 31t-30.5 91q0 37 13 69t34.5 56t50 37.5t58.5 13.5q57 0 88 -30t31 -91z" />
<glyph unicode="&#xcc;" horiz-adv-x="670" d="M63 0v73q68 14 102.5 30.5t34.5 30.5v991q0 12 -32.5 30t-104.5 32v73h525v-73q-68 -14 -103 -31t-35 -31v-991q0 -12 33 -29.5t105 -31.5v-73h-525zM517 1420q-14 -19 -28.5 -35.5t-31.5 -24.5l-479 234l10 63q7 8 29.5 24t49 33t50.5 32t35 21z" />
<glyph unicode="&#xcd;" horiz-adv-x="670" d="M63 0v73q68 14 102.5 30.5t34.5 30.5v991q0 12 -32.5 30t-104.5 32v73h525v-73q-68 -14 -103 -31t-35 -31v-991q0 -12 33 -29.5t105 -31.5v-73h-525zM193 1360q-17 8 -35.5 28t-32.5 39l365 340q23 -12 51 -28.5t53.5 -32t45.5 -29.5t28 -22l9 -52z" />
<glyph unicode="&#xce;" horiz-adv-x="670" d="M63 0v73q68 14 102.5 30.5t34.5 30.5v991q0 12 -32.5 30t-104.5 32v73h525v-73q-68 -14 -103 -31t-35 -31v-991q0 -12 33 -29.5t105 -31.5v-73h-525zM663 1420q-12 -19 -26.5 -35.5t-31.5 -24.5l-281 163l-279 -163q-17 8 -31.5 24.5t-28.5 35.5l279 324h122z" />
<glyph unicode="&#xcf;" horiz-adv-x="670" d="M63 0v73q68 14 102.5 30.5t34.5 30.5v991q0 12 -32.5 30t-104.5 32v73h525v-73q-68 -14 -103 -31t-35 -31v-991q0 -12 33 -29.5t105 -31.5v-73h-525zM674 1548q0 -37 -12.5 -69t-34 -56t-50 -38t-60.5 -14q-58 0 -88 31t-30 91q0 37 13 69t34.5 56t49.5 37.5t59 13.5 q56 0 87.5 -30t31.5 -91zM251 1548q0 -37 -12.5 -69t-33.5 -56t-49.5 -38t-60.5 -14q-58 0 -88.5 31t-30.5 91q0 37 13 69t34.5 56t50 37.5t58.5 13.5q57 0 88 -30t31 -91z" />
<glyph unicode="&#xd0;" horiz-adv-x="1304" d="M1221 676q0 -125 -25.5 -223.5t-69.5 -174t-103 -128t-126 -86t-138.5 -49t-139.5 -15.5h-576v73q68 14 102.5 30.5t34.5 30.5v481h-130l-22 24q2 7 6.5 20t9.5 27.5t9.5 27.5t7.5 21h119v422l-137 -19l-13 92q49 12 116.5 23t142 19.5t149.5 13t140 4.5q153 0 273 -41.5 t202 -120.5t125 -193t43 -259zM506 1184q-18 0 -37 -0.5t-39 -1.5v-447h241l25 -23l-36 -97h-230v-448q0 -7 2 -14q3 -11 11 -19.5t25 -14.5t44.5 -9t69.5 -3q38 0 80.5 13t84 41t79 70.5t65.5 101.5t45 134.5t17 169.5q0 133 -29 235t-85.5 171.5t-140 105t-192.5 35.5z " />
<glyph unicode="&#xd1;" horiz-adv-x="1359" d="M43 0v73q73 9 105 28t32 33v980q-65 61 -137 73v73h279q15 0 24.5 -2.5t19.5 -10.5t21.5 -23.5t30.5 -41.5l612 -848v791q0 6 -6.5 14.5t-22 17t-42 16.5t-66.5 14v73h425v-73q-72 -10 -105 -29t-33 -33v-1155q-96 8 -154 37.5t-85 66.5l-611 846v-786q0 -6 7 -14.5 t23.5 -17t42.5 -16.5t65 -13v-73h-425zM1074 1657q-18 -41 -44 -89.5t-59 -90.5t-73.5 -70.5t-86.5 -28.5q-43 0 -82 16.5t-76 36t-73.5 36t-74.5 16.5q-23 0 -41 -7.5t-34.5 -22t-33 -36t-34.5 -49.5l-75 28q18 41 43.5 90t58.5 91.5t73 71t86 28.5t87.5 -16.5t79 -36 t71.5 -36t66 -16.5q45 0 78 28t67 87z" />
<glyph unicode="&#xd2;" horiz-adv-x="1274" d="M946 629q0 103 -24.5 199t-69.5 170t-108 118t-140 44q-72 0 -127.5 -35.5t-93 -102t-56.5 -163t-19 -218.5q0 -112 26.5 -210t72 -170.5t106 -114t129.5 -41.5q66 0 121.5 32t96 97.5t63.5 164t23 230.5zM1198 647q0 -91 -22 -176t-61.5 -160.5t-94.5 -138t-122 -107.5 t-143 -70t-157 -25q-126 0 -227 53t-171 142t-107.5 205t-37.5 242q0 136 44.5 259t124 216t190 148t242.5 55t233 -54.5t170 -144.5t104 -206t35 -238zM830 1420q-14 -19 -28.5 -35.5t-31.5 -24.5l-479 234l10 63q7 8 29.5 24t49 33t50.5 32t35 21z" />
<glyph unicode="&#xd3;" horiz-adv-x="1274" d="M946 629q0 103 -24.5 199t-69.5 170t-108 118t-140 44q-72 0 -127.5 -35.5t-93 -102t-56.5 -163t-19 -218.5q0 -112 26.5 -210t72 -170.5t106 -114t129.5 -41.5q66 0 121.5 32t96 97.5t63.5 164t23 230.5zM1198 647q0 -91 -22 -176t-61.5 -160.5t-94.5 -138t-122 -107.5 t-143 -70t-157 -25q-126 0 -227 53t-171 142t-107.5 205t-37.5 242q0 136 44.5 259t124 216t190 148t242.5 55t233 -54.5t170 -144.5t104 -206t35 -238zM506 1360q-17 8 -35.5 28t-32.5 39l365 340q23 -12 51 -28.5t53.5 -32t45.5 -29.5t28 -22l9 -52z" />
<glyph unicode="&#xd4;" horiz-adv-x="1274" d="M946 629q0 103 -24.5 199t-69.5 170t-108 118t-140 44q-72 0 -127.5 -35.5t-93 -102t-56.5 -163t-19 -218.5q0 -112 26.5 -210t72 -170.5t106 -114t129.5 -41.5q66 0 121.5 32t96 97.5t63.5 164t23 230.5zM1198 647q0 -91 -22 -176t-61.5 -160.5t-94.5 -138t-122 -107.5 t-143 -70t-157 -25q-126 0 -227 53t-171 142t-107.5 205t-37.5 242q0 136 44.5 259t124 216t190 148t242.5 55t233 -54.5t170 -144.5t104 -206t35 -238zM976 1420q-12 -19 -26.5 -35.5t-31.5 -24.5l-281 163l-279 -163q-17 8 -31.5 24.5t-28.5 35.5l279 324h122z" />
<glyph unicode="&#xd5;" horiz-adv-x="1274" d="M946 629q0 103 -24.5 199t-69.5 170t-108 118t-140 44q-72 0 -127.5 -35.5t-93 -102t-56.5 -163t-19 -218.5q0 -112 26.5 -210t72 -170.5t106 -114t129.5 -41.5q66 0 121.5 32t96 97.5t63.5 164t23 230.5zM1198 647q0 -91 -22 -176t-61.5 -160.5t-94.5 -138t-122 -107.5 t-143 -70t-157 -25q-126 0 -227 53t-171 142t-107.5 205t-37.5 242q0 136 44.5 259t124 216t190 148t242.5 55t233 -54.5t170 -144.5t104 -206t35 -238zM1032 1657q-18 -41 -44 -89.5t-59 -90.5t-73.5 -70.5t-86.5 -28.5q-43 0 -82 16.5t-76 36t-73.5 36t-74.5 16.5 q-23 0 -41 -7.5t-34.5 -22t-33 -36t-34.5 -49.5l-75 28q18 41 43.5 90t58.5 91.5t73 71t86 28.5t87.5 -16.5t79 -36t71.5 -36t66 -16.5q45 0 78 28t67 87z" />
<glyph unicode="&#xd6;" horiz-adv-x="1274" d="M946 629q0 103 -24.5 199t-69.5 170t-108 118t-140 44q-72 0 -127.5 -35.5t-93 -102t-56.5 -163t-19 -218.5q0 -112 26.5 -210t72 -170.5t106 -114t129.5 -41.5q66 0 121.5 32t96 97.5t63.5 164t23 230.5zM1198 647q0 -91 -22 -176t-61.5 -160.5t-94.5 -138t-122 -107.5 t-143 -70t-157 -25q-126 0 -227 53t-171 142t-107.5 205t-37.5 242q0 136 44.5 259t124 216t190 148t242.5 55t233 -54.5t170 -144.5t104 -206t35 -238zM987 1548q0 -37 -12.5 -69t-34 -56t-50 -38t-60.5 -14q-58 0 -88 31t-30 91q0 37 13 69t34.5 56t49.5 37.5t59 13.5 q56 0 87.5 -30t31.5 -91zM564 1548q0 -37 -12.5 -69t-33.5 -56t-49.5 -38t-60.5 -14q-58 0 -88.5 31t-30.5 91q0 37 13 69t34.5 56t50 37.5t58.5 13.5q57 0 88 -30t31 -91z" />
<glyph unicode="&#xd7;" horiz-adv-x="863" d="M83 315l247 248l-246 247v34q10 4 26 11t33.5 14t34 12.5t27.5 8.5l226 -226l225 226q11 -3 28 -8.5t35 -12.5t34 -14t26 -11v-34l-247 -248l247 -247v-34q-10 -4 -27 -11t-35 -14t-34 -13t-25 -8l-227 227l-226 -227q-9 2 -25.5 8t-34.5 13t-35 14t-27 11v34z" />
<glyph unicode="&#xd8;" horiz-adv-x="1274" d="M946 629q0 68 -11 132.5t-31 123.5l-477 -655q44 -59 98.5 -92t116.5 -33q66 0 121.5 32t96 97.5t63.5 164t23 230.5zM308 641q0 -72 11.5 -138.5t31.5 -124.5l477 655q-44 59 -100.5 93t-123.5 34q-72 0 -127.5 -35.5t-93 -102t-56.5 -163t-19 -218.5zM1056 1094 q70 -91 106 -207t36 -240q0 -91 -22 -176t-61.5 -160.5t-94.5 -138t-122 -107.5t-143 -70t-157 -25q-85 0 -158.5 24t-133.5 69l-47 -65q-9 -8 -31 -16t-47 -15.5t-49 -12.5t-36 -7l-32 37l134 184q-69 89 -106 203.5t-37 240.5q0 136 44.5 259t124 216t190 148t242.5 55 q87 0 159.5 -24t132.5 -67l48 65q14 8 35 16t44 15t45 11.5t37 6.5l32 -37z" />
<glyph unicode="&#xd9;" horiz-adv-x="1369" d="M1313 1187q-68 -14 -103 -31t-35 -31v-601q0 -131 -36.5 -234t-102.5 -174t-156.5 -108.5t-198.5 -37.5q-103 0 -194 28.5t-159.5 87t-108 147.5t-39.5 211v681q0 12 -32.5 30t-104.5 32v73h525v-73q-68 -14 -103 -31t-35 -31v-616q0 -96 17 -169.5t54 -123.5t96.5 -75.5 t145.5 -25.5q71 0 120 32t79.5 85t44 122.5t13.5 143.5v627q0 12 -32.5 30t-104.5 32v73h450v-73zM884 1420q-14 -19 -28.5 -35.5t-31.5 -24.5l-479 234l10 63q7 8 29.5 24t49 33t50.5 32t35 21z" />
<glyph unicode="&#xda;" horiz-adv-x="1369" d="M1313 1187q-68 -14 -103 -31t-35 -31v-601q0 -131 -36.5 -234t-102.5 -174t-156.5 -108.5t-198.5 -37.5q-103 0 -194 28.5t-159.5 87t-108 147.5t-39.5 211v681q0 12 -32.5 30t-104.5 32v73h525v-73q-68 -14 -103 -31t-35 -31v-616q0 -96 17 -169.5t54 -123.5t96.5 -75.5 t145.5 -25.5q71 0 120 32t79.5 85t44 122.5t13.5 143.5v627q0 12 -32.5 30t-104.5 32v73h450v-73zM560 1360q-17 8 -35.5 28t-32.5 39l365 340q23 -12 51 -28.5t53.5 -32t45.5 -29.5t28 -22l9 -52z" />
<glyph unicode="&#xdb;" horiz-adv-x="1369" d="M1313 1187q-68 -14 -103 -31t-35 -31v-601q0 -131 -36.5 -234t-102.5 -174t-156.5 -108.5t-198.5 -37.5q-103 0 -194 28.5t-159.5 87t-108 147.5t-39.5 211v681q0 12 -32.5 30t-104.5 32v73h525v-73q-68 -14 -103 -31t-35 -31v-616q0 -96 17 -169.5t54 -123.5t96.5 -75.5 t145.5 -25.5q71 0 120 32t79.5 85t44 122.5t13.5 143.5v627q0 12 -32.5 30t-104.5 32v73h450v-73zM1030 1420q-12 -19 -26.5 -35.5t-31.5 -24.5l-281 163l-279 -163q-17 8 -31.5 24.5t-28.5 35.5l279 324h122z" />
<glyph unicode="&#xdc;" horiz-adv-x="1369" d="M1313 1187q-68 -14 -103 -31t-35 -31v-601q0 -131 -36.5 -234t-102.5 -174t-156.5 -108.5t-198.5 -37.5q-103 0 -194 28.5t-159.5 87t-108 147.5t-39.5 211v681q0 12 -32.5 30t-104.5 32v73h525v-73q-68 -14 -103 -31t-35 -31v-616q0 -96 17 -169.5t54 -123.5t96.5 -75.5 t145.5 -25.5q71 0 120 32t79.5 85t44 122.5t13.5 143.5v627q0 12 -32.5 30t-104.5 32v73h450v-73zM1041 1548q0 -37 -12.5 -69t-34 -56t-50 -38t-60.5 -14q-58 0 -88 31t-30 91q0 37 13 69t34.5 56t49.5 37.5t59 13.5q56 0 87.5 -30t31.5 -91zM618 1548q0 -37 -12.5 -69 t-33.5 -56t-49.5 -38t-60.5 -14q-58 0 -88.5 31t-30.5 91q0 37 13 69t34.5 56t50 37.5t58.5 13.5q57 0 88 -30t31 -91z" />
<glyph unicode="&#xdd;" horiz-adv-x="1255" d="M345 0v73q45 9 75.5 19t48.5 19.5t25.5 18t7.5 15.5v384q-36 80 -81 165t-91 164.5t-90 147.5t-79 115q-9 11 -19 20t-27 15t-43 9.5t-68 3.5l-4 73q29 4 66.5 9t74.5 9t69.5 7t53.5 3q28 0 56 -12t45 -34q37 -50 77.5 -114t82 -136t81 -147.5t74.5 -147.5l234 442 q15 26 -9.5 41t-101.5 25v73h418v-73q-68 -13 -101 -27t-47 -39l-321 -598v-378q0 -6 7 -14.5t25 -18.5t48.5 -20t77.5 -19v-73h-565zM495 1360q-17 8 -35.5 28t-32.5 39l365 340q23 -12 51 -28.5t53.5 -32t45.5 -29.5t28 -22l9 -52z" />
<glyph unicode="&#xde;" horiz-adv-x="1161" d="M42 0v73q68 14 103 30.5t35 30.5v991q0 12 -33 30t-105 32v73h556v-73q-51 -9 -84 -17t-51.5 -15.5t-25.5 -15t-7 -14.5v-102q35 2 70 3.5t70 1.5q116 0 211.5 -23t163.5 -68t105 -111t37 -152q0 -69 -19 -127t-51.5 -104t-75 -81t-90 -58t-96 -34.5t-92.5 -11.5 q-46 0 -90 7.5t-78 22.5l-31 104q41 -19 72.5 -24t66.5 -5q43 0 85 15.5t74.5 48.5t52.5 84t20 122t-23.5 124.5t-66 89.5t-101.5 54.5t-131 18.5q-40 0 -83 -3v-783q0 -6 6.5 -13t25 -15t51.5 -16t85 -17v-73h-556z" />
<glyph unicode="&#xdf;" horiz-adv-x="1288" d="M1236 283q0 -64 -24.5 -121t-73.5 -99.5t-123 -67.5t-173 -25q-41 0 -88 8t-88 19.5t-71 24t-37 22.5q-5 6 -7.5 28.5t-3.5 52.5t0 64t3.5 64.5t6.5 53t9 29.5l80 -12q11 -58 33.5 -101t53 -72t66.5 -43.5t74 -14.5q66 0 104.5 29t38.5 88q0 47 -19.5 82.5t-52 63.5 t-73.5 51t-84 46t-84 48t-73.5 57t-52 73.5t-19.5 97.5q0 62 24 102t60 67.5t78.5 48t78.5 43.5t60 53.5t24 78.5q0 62 -18 113.5t-51.5 89t-81.5 58t-107 20.5q-43 0 -80.5 -16.5t-65 -61t-43.5 -122.5t-16 -202v-1001h-372v73q68 12 100 29.5t32 29.5v814q0 120 23.5 205 t59 144.5t78.5 97.5t82 65q58 39 136 65.5t162 26.5q95 0 170 -32.5t127 -84t79.5 -115.5t27.5 -128q0 -82 -25.5 -134t-63.5 -85t-83 -54t-83 -40t-63.5 -43t-25.5 -64q0 -46 33.5 -78t84.5 -59.5t109.5 -56t109.5 -67t84.5 -93t33.5 -133.5z" />
<glyph unicode="&#xe0;" horiz-adv-x="1023" d="M412 145q19 0 40 4.5t46.5 16t56 32t68.5 52.5v221q-60 -10 -101 -19.5t-69 -19.5t-45.5 -21t-30.5 -24q-26 -26 -42 -56t-16 -72q0 -34 9.5 -56t24 -35t30.5 -18t29 -5zM1016 112q-42 -29 -87.5 -55t-86 -45.5t-74 -30.5t-51.5 -11q-37 0 -62.5 42t-30.5 117 q-45 -45 -90.5 -75.5t-88 -49t-81.5 -26.5t-71 -8q-42 0 -82.5 14.5t-73 43t-52.5 72t-20 101.5q0 68 24.5 115.5t61.5 84.5q24 24 55.5 46.5t84 43.5t132 40.5t200.5 37.5v118q0 31 -6 57.5t-21 45.5t-40 29.5t-63 10.5q-24 0 -48 -9t-42 -25.5t-28.5 -40t-7.5 -53.5 q1 -6 -16 -15t-43 -18.5t-57.5 -19t-60.5 -16t-52 -10t-31 -1.5l-21 54q24 60 75.5 111.5t120.5 90t150.5 60.5t164.5 22q69 0 119 -18t82.5 -50.5t48.5 -76.5t16 -95v-482q0 -42 11 -60t29 -18q7 0 14.5 1t18 4t24.5 8.5t34 13.5zM676 1086q-6 -6 -17 -13t-23.5 -13.5 t-24.5 -11.5t-21 -8l-382 377l29 56q10 3 41 9t67 12.5t68.5 11.5t44.5 6z" />
<glyph unicode="&#xe1;" horiz-adv-x="1023" d="M412 145q19 0 40 4.5t46.5 16t56 32t68.5 52.5v221q-60 -10 -101 -19.5t-69 -19.5t-45.5 -21t-30.5 -24q-26 -26 -42 -56t-16 -72q0 -34 9.5 -56t24 -35t30.5 -18t29 -5zM1016 112q-42 -29 -87.5 -55t-86 -45.5t-74 -30.5t-51.5 -11q-37 0 -62.5 42t-30.5 117 q-45 -45 -90.5 -75.5t-88 -49t-81.5 -26.5t-71 -8q-42 0 -82.5 14.5t-73 43t-52.5 72t-20 101.5q0 68 24.5 115.5t61.5 84.5q24 24 55.5 46.5t84 43.5t132 40.5t200.5 37.5v118q0 31 -6 57.5t-21 45.5t-40 29.5t-63 10.5q-24 0 -48 -9t-42 -25.5t-28.5 -40t-7.5 -53.5 q1 -6 -16 -15t-43 -18.5t-57.5 -19t-60.5 -16t-52 -10t-31 -1.5l-21 54q24 60 75.5 111.5t120.5 90t150.5 60.5t164.5 22q69 0 119 -18t82.5 -50.5t48.5 -76.5t16 -95v-482q0 -42 11 -60t29 -18q7 0 14.5 1t18 4t24.5 8.5t34 13.5zM455 1040q-9 1 -21.5 6.5t-25.5 12 t-23.5 13t-16.5 11.5l211 429q12 -1 44.5 -5.5t69.5 -10.5t70 -12.5t44 -9.5l30 -54z" />
<glyph unicode="&#xe2;" horiz-adv-x="1023" d="M412 145q19 0 40 4.5t46.5 16t56 32t68.5 52.5v221q-60 -10 -101 -19.5t-69 -19.5t-45.5 -21t-30.5 -24q-26 -26 -42 -56t-16 -72q0 -34 9.5 -56t24 -35t30.5 -18t29 -5zM1016 112q-42 -29 -87.5 -55t-86 -45.5t-74 -30.5t-51.5 -11q-37 0 -62.5 42t-30.5 117 q-45 -45 -90.5 -75.5t-88 -49t-81.5 -26.5t-71 -8q-42 0 -82.5 14.5t-73 43t-52.5 72t-20 101.5q0 68 24.5 115.5t61.5 84.5q24 24 55.5 46.5t84 43.5t132 40.5t200.5 37.5v118q0 31 -6 57.5t-21 45.5t-40 29.5t-63 10.5q-24 0 -48 -9t-42 -25.5t-28.5 -40t-7.5 -53.5 q1 -6 -16 -15t-43 -18.5t-57.5 -19t-60.5 -16t-52 -10t-31 -1.5l-21 54q24 60 75.5 111.5t120.5 90t150.5 60.5t164.5 22q69 0 119 -18t82.5 -50.5t48.5 -76.5t16 -95v-482q0 -42 11 -60t29 -18q7 0 14.5 1t18 4t24.5 8.5t34 13.5zM854 1107q-12 -19 -26.5 -39t-31.5 -28 l-281 223l-279 -223q-17 8 -35 28t-32 39l279 387h137z" />
<glyph unicode="&#xe3;" horiz-adv-x="1023" d="M412 145q19 0 40 4.5t46.5 16t56 32t68.5 52.5v221q-60 -10 -101 -19.5t-69 -19.5t-45.5 -21t-30.5 -24q-26 -26 -42 -56t-16 -72q0 -34 9.5 -56t24 -35t30.5 -18t29 -5zM1016 112q-42 -29 -87.5 -55t-86 -45.5t-74 -30.5t-51.5 -11q-37 0 -62.5 42t-30.5 117 q-45 -45 -90.5 -75.5t-88 -49t-81.5 -26.5t-71 -8q-42 0 -82.5 14.5t-73 43t-52.5 72t-20 101.5q0 68 24.5 115.5t61.5 84.5q24 24 55.5 46.5t84 43.5t132 40.5t200.5 37.5v118q0 31 -6 57.5t-21 45.5t-40 29.5t-63 10.5q-24 0 -48 -9t-42 -25.5t-28.5 -40t-7.5 -53.5 q1 -6 -16 -15t-43 -18.5t-57.5 -19t-60.5 -16t-52 -10t-31 -1.5l-21 54q24 60 75.5 111.5t120.5 90t150.5 60.5t164.5 22q69 0 119 -18t82.5 -50.5t48.5 -76.5t16 -95v-482q0 -42 11 -60t29 -18q7 0 14.5 1t18 4t24.5 8.5t34 13.5zM909 1377q-18 -41 -44 -89.5t-59 -90.5 t-73.5 -70.5t-86.5 -28.5q-43 0 -82 16.5t-76 36t-73.5 36t-74.5 16.5q-23 0 -41 -7.5t-34.5 -22t-33 -36t-34.5 -49.5l-75 28q18 41 43.5 90t58.5 91.5t73 71t86 28.5t87.5 -16.5t79 -36t71.5 -36t66 -16.5q45 0 78 28t67 87z" />
<glyph unicode="&#xe4;" horiz-adv-x="1023" d="M412 145q19 0 40 4.5t46.5 16t56 32t68.5 52.5v221q-60 -10 -101 -19.5t-69 -19.5t-45.5 -21t-30.5 -24q-26 -26 -42 -56t-16 -72q0 -34 9.5 -56t24 -35t30.5 -18t29 -5zM1016 112q-42 -29 -87.5 -55t-86 -45.5t-74 -30.5t-51.5 -11q-37 0 -62.5 42t-30.5 117 q-45 -45 -90.5 -75.5t-88 -49t-81.5 -26.5t-71 -8q-42 0 -82.5 14.5t-73 43t-52.5 72t-20 101.5q0 68 24.5 115.5t61.5 84.5q24 24 55.5 46.5t84 43.5t132 40.5t200.5 37.5v118q0 31 -6 57.5t-21 45.5t-40 29.5t-63 10.5q-24 0 -48 -9t-42 -25.5t-28.5 -40t-7.5 -53.5 q1 -6 -16 -15t-43 -18.5t-57.5 -19t-60.5 -16t-52 -10t-31 -1.5l-21 54q24 60 75.5 111.5t120.5 90t150.5 60.5t164.5 22q69 0 119 -18t82.5 -50.5t48.5 -76.5t16 -95v-482q0 -42 11 -60t29 -18q7 0 14.5 1t18 4t24.5 8.5t34 13.5zM864 1268q0 -37 -12.5 -69t-34 -56 t-50 -38t-60.5 -14q-58 0 -88 31t-30 91q0 37 13 69t34.5 56t49.5 37.5t59 13.5q56 0 87.5 -30t31.5 -91zM441 1268q0 -37 -12.5 -69t-33.5 -56t-49.5 -38t-60.5 -14q-58 0 -88.5 31t-30.5 91q0 37 13 69t34.5 56t50 37.5t58.5 13.5q57 0 88 -30t31 -91z" />
<glyph unicode="&#xe5;" horiz-adv-x="1023" d="M412 145q19 0 40 4.5t46.5 16t56 32t68.5 52.5v221q-60 -10 -101 -19.5t-69 -19.5t-45.5 -21t-30.5 -24q-26 -26 -42 -56t-16 -72q0 -34 9.5 -56t24 -35t30.5 -18t29 -5zM1016 112q-42 -29 -87.5 -55t-86 -45.5t-74 -30.5t-51.5 -11q-37 0 -62.5 42t-30.5 117 q-45 -45 -90.5 -75.5t-88 -49t-81.5 -26.5t-71 -8q-42 0 -82.5 14.5t-73 43t-52.5 72t-20 101.5q0 68 24.5 115.5t61.5 84.5q24 24 55.5 46.5t84 43.5t132 40.5t200.5 37.5v118q0 31 -6 57.5t-21 45.5t-40 29.5t-63 10.5q-24 0 -48 -9t-42 -25.5t-28.5 -40t-7.5 -53.5 q1 -6 -16 -15t-43 -18.5t-57.5 -19t-60.5 -16t-52 -10t-31 -1.5l-21 54q24 60 75.5 111.5t120.5 90t150.5 60.5t164.5 22q69 0 119 -18t82.5 -50.5t48.5 -76.5t16 -95v-482q0 -42 11 -60t29 -18q7 0 14.5 1t18 4t24.5 8.5t34 13.5zM588 1243q0 48 -20 73.5t-43 25.5 q-21 0 -36.5 -8.5t-26 -22t-16 -31t-5.5 -35.5q0 -46 20.5 -71t43.5 -25q40 0 61.5 27t21.5 67zM723 1284q0 -53 -20 -100t-53.5 -81.5t-76.5 -54.5t-89 -20q-39 0 -72 12.5t-56.5 35.5t-36.5 55.5t-13 72.5q0 54 20 101t53 82.5t76.5 55.5t90.5 20q40 0 73 -13.5t56 -37 t35.5 -56.5t12.5 -72z" />
<glyph unicode="&#xe6;" horiz-adv-x="1501" d="M1436 550q-10 -10 -26 -22t-34.5 -23.5t-38 -21.5t-35.5 -16h-444q-1 -4 -1 -13v-13q0 -47 15 -99.5t44.5 -97.5t73.5 -74.5t102 -29.5q31 0 62 5.5t64.5 19t72 36.5t85.5 58q6 -3 14.5 -12t16 -19.5t13.5 -19.5t8 -13q-60 -66 -110.5 -109.5t-99.5 -69t-100 -36 t-112 -10.5q-43 0 -89 14.5t-89.5 41.5t-81.5 66t-66 89q-45 -56 -94 -96t-98.5 -65.5t-99 -37.5t-95.5 -12q-36 0 -76 12t-74 39.5t-56 71.5t-22 108q0 59 22.5 113t70 100t121.5 82.5t177 61.5q27 7 76 11.5t100 6.5v79q0 90 -31 132.5t-96 42.5q-26 0 -54.5 -10t-51 -28 t-34 -43.5t-2.5 -57.5q1 -7 -15 -16t-41.5 -18.5t-57 -18.5t-60.5 -15.5t-51.5 -9.5t-30.5 -1l-21 51q20 53 55.5 95.5t79.5 75.5t94 56.5t99 39t94.5 23t79.5 7.5q75 0 130 -24.5t89 -79.5q33 29 68 49t70.5 32t69.5 17.5t64 5.5q88 0 155 -34.5t112 -91.5t67.5 -131 t22.5 -153zM645 264q-6 23 -9.5 48.5t-3.5 52.5v98q-35 -2 -65.5 -3.5t-40.5 -3.5q-63 -14 -104.5 -35.5t-65.5 -47.5t-34 -55t-10 -59q0 -31 9.5 -53t24.5 -35.5t32.5 -19.5t33.5 -6q23 0 50 6t56.5 20t61.5 36.5t65 56.5zM1050 845q-23 0 -51 -8.5t-54.5 -36.5t-48 -80.5 t-31.5 -139.5h307q21 0 29.5 7.5t8.5 28.5q0 53 -11.5 95.5t-32.5 72t-50.5 45.5t-65.5 16z" />
<glyph unicode="&#xe7;" horiz-adv-x="933" d="M710 -229q0 -37 -27 -72t-75 -64t-114.5 -50t-144.5 -29l-37 71q87 13 124.5 42.5t37.5 61.5q0 34 -23 48.5t-67 18.5l3 4q3 4 11.5 25t23.5 65q11 30 27 79q-65 6 -125 31q-75 33 -132.5 94t-92 149t-34.5 199q0 108 40 202t111.5 163.5t170.5 110t218 40.5 q33 0 74.5 -5.5t81.5 -16t73.5 -25t50.5 -32.5q1 -8 -2.5 -28t-10 -46t-15.5 -55t-18 -55t-18 -47t-15 -30l-67 10q-33 98 -81 151.5t-128 53.5q-44 0 -84.5 -20t-71.5 -63.5t-50 -111.5t-19 -165q0 -80 20.5 -142.5t56 -105.5t83.5 -66t102 -23q28 0 54 3.5t57 15.5 t69.5 35t91.5 62l54 -64q-65 -74 -120 -117.5t-104.5 -66.5t-95.5 -29h-1l-25 -66q78 -14 120.5 -48.5t42.5 -91.5z" />
<glyph unicode="&#xe8;" horiz-adv-x="991" d="M511 840q-47 0 -81 -18t-57.5 -52t-37 -82t-19.5 -108h333q23 0 30.5 7.5t7.5 28.5q0 30 -8 68.5t-28.5 73t-54.5 58.5t-85 24zM926 550q-9 -10 -26 -22t-37 -23t-40.5 -21t-36.5 -16h-473q2 -72 19.5 -132.5t49.5 -104.5t77.5 -68.5t104.5 -24.5q31 0 60.5 3.5t64 16.5 t77.5 36.5t102 64.5q6 -3 14.5 -12t16 -19.5t13.5 -19.5t8 -13q-69 -70 -124 -114t-105.5 -68.5t-100.5 -33.5t-110 -9q-85 0 -160.5 34t-132 96t-89.5 149t-33 193q0 136 51.5 242.5t154.5 181.5q26 19 58.5 36.5t68 30t73.5 20t76 7.5q98 0 169.5 -34t118 -90.5t69 -130.5 t22.5 -155zM697 1086q-6 -6 -17 -13t-23.5 -13.5t-24.5 -11.5t-21 -8l-382 377l29 56q10 3 41 9t67 12.5t68.5 11.5t44.5 6z" />
<glyph unicode="&#xe9;" horiz-adv-x="991" d="M511 840q-47 0 -81 -18t-57.5 -52t-37 -82t-19.5 -108h333q23 0 30.5 7.5t7.5 28.5q0 30 -8 68.5t-28.5 73t-54.5 58.5t-85 24zM926 550q-9 -10 -26 -22t-37 -23t-40.5 -21t-36.5 -16h-473q2 -72 19.5 -132.5t49.5 -104.5t77.5 -68.5t104.5 -24.5q31 0 60.5 3.5t64 16.5 t77.5 36.5t102 64.5q6 -3 14.5 -12t16 -19.5t13.5 -19.5t8 -13q-69 -70 -124 -114t-105.5 -68.5t-100.5 -33.5t-110 -9q-85 0 -160.5 34t-132 96t-89.5 149t-33 193q0 136 51.5 242.5t154.5 181.5q26 19 58.5 36.5t68 30t73.5 20t76 7.5q98 0 169.5 -34t118 -90.5t69 -130.5 t22.5 -155zM476 1040q-9 1 -21.5 6.5t-25.5 12t-23.5 13t-16.5 11.5l211 429q12 -1 44.5 -5.5t69.5 -10.5t70 -12.5t44 -9.5l30 -54z" />
<glyph unicode="&#xea;" horiz-adv-x="991" d="M511 840q-47 0 -81 -18t-57.5 -52t-37 -82t-19.5 -108h333q23 0 30.5 7.5t7.5 28.5q0 30 -8 68.5t-28.5 73t-54.5 58.5t-85 24zM926 550q-9 -10 -26 -22t-37 -23t-40.5 -21t-36.5 -16h-473q2 -72 19.5 -132.5t49.5 -104.5t77.5 -68.5t104.5 -24.5q31 0 60.5 3.5t64 16.5 t77.5 36.5t102 64.5q6 -3 14.5 -12t16 -19.5t13.5 -19.5t8 -13q-69 -70 -124 -114t-105.5 -68.5t-100.5 -33.5t-110 -9q-85 0 -160.5 34t-132 96t-89.5 149t-33 193q0 136 51.5 242.5t154.5 181.5q26 19 58.5 36.5t68 30t73.5 20t76 7.5q98 0 169.5 -34t118 -90.5t69 -130.5 t22.5 -155zM875 1107q-12 -19 -26.5 -39t-31.5 -28l-281 223l-279 -223q-17 8 -35 28t-32 39l279 387h137z" />
<glyph unicode="&#xeb;" horiz-adv-x="991" d="M511 840q-47 0 -81 -18t-57.5 -52t-37 -82t-19.5 -108h333q23 0 30.5 7.5t7.5 28.5q0 30 -8 68.5t-28.5 73t-54.5 58.5t-85 24zM926 550q-9 -10 -26 -22t-37 -23t-40.5 -21t-36.5 -16h-473q2 -72 19.5 -132.5t49.5 -104.5t77.5 -68.5t104.5 -24.5q31 0 60.5 3.5t64 16.5 t77.5 36.5t102 64.5q6 -3 14.5 -12t16 -19.5t13.5 -19.5t8 -13q-69 -70 -124 -114t-105.5 -68.5t-100.5 -33.5t-110 -9q-85 0 -160.5 34t-132 96t-89.5 149t-33 193q0 136 51.5 242.5t154.5 181.5q26 19 58.5 36.5t68 30t73.5 20t76 7.5q98 0 169.5 -34t118 -90.5t69 -130.5 t22.5 -155zM885 1268q0 -37 -12.5 -69t-34 -56t-50 -38t-60.5 -14q-58 0 -88 31t-30 91q0 37 13 69t34.5 56t49.5 37.5t59 13.5q56 0 87.5 -30t31.5 -91zM462 1268q0 -37 -12.5 -69t-33.5 -56t-49.5 -38t-60.5 -14q-58 0 -88.5 31t-30.5 91q0 37 13 69t34.5 56t50 37.5 t58.5 13.5q57 0 88 -30t31 -91z" />
<glyph unicode="&#xec;" horiz-adv-x="615" d="M63 0v73q68 14 100 30.5t32 30.5v514q0 51 -1 82.5t-12.5 49t-38.5 25.5t-80 13v70q86 12 163 29.5t145 42.5h64v-826q0 -12 30 -29.5t103 -31.5v-73h-505zM476 1086q-6 -6 -17 -13t-23.5 -13.5t-24.5 -11.5t-21 -8l-382 377l29 56q10 3 41 9t67 12.5t68.5 11.5t44.5 6z " />
<glyph unicode="&#xed;" horiz-adv-x="615" d="M63 0v73q68 14 100 30.5t32 30.5v514q0 51 -1 82.5t-12.5 49t-38.5 25.5t-80 13v70q86 12 163 29.5t145 42.5h64v-826q0 -12 30 -29.5t103 -31.5v-73h-505zM255 1040q-9 1 -21.5 6.5t-25.5 12t-23.5 13t-16.5 11.5l211 429q12 -1 44.5 -5.5t69.5 -10.5t70 -12.5t44 -9.5 l30 -54z" />
<glyph unicode="&#xee;" horiz-adv-x="615" d="M63 0v73q68 14 100 30.5t32 30.5v514q0 51 -1 82.5t-12.5 49t-38.5 25.5t-80 13v70q86 12 163 29.5t145 42.5h64v-826q0 -12 30 -29.5t103 -31.5v-73h-505zM654 1107q-12 -19 -26.5 -39t-31.5 -28l-281 223l-279 -223q-17 8 -35 28t-32 39l279 387h137z" />
<glyph unicode="&#xef;" horiz-adv-x="615" d="M63 0v73q68 14 100 30.5t32 30.5v514q0 51 -1 82.5t-12.5 49t-38.5 25.5t-80 13v70q86 12 163 29.5t145 42.5h64v-826q0 -12 30 -29.5t103 -31.5v-73h-505zM664 1268q0 -37 -12.5 -69t-34 -56t-50 -38t-60.5 -14q-58 0 -88 31t-30 91q0 37 13 69t34.5 56t49.5 37.5 t59 13.5q56 0 87.5 -30t31.5 -91zM241 1268q0 -37 -12.5 -69t-33.5 -56t-49.5 -38t-60.5 -14q-58 0 -88.5 31t-30.5 91q0 37 13 69t34.5 56t50 37.5t58.5 13.5q57 0 88 -30t31 -91z" />
<glyph unicode="&#xf0;" horiz-adv-x="1046" d="M740 612q-16 54 -44.5 94.5t-63.5 67.5t-72 40.5t-70 13.5q-90 0 -135 -90t-45 -250q0 -79 18 -150.5t48.5 -125.5t70 -85.5t82.5 -31.5q55 0 95 27.5t65.5 85t38 146.5t12.5 212v46zM980 607q0 -115 -22 -207t-59 -163t-84.5 -121.5t-99 -83t-102.5 -47.5t-94 -15 q-106 0 -190.5 36t-143 99t-89.5 150t-31 189q0 66 15 130t43 121.5t67.5 106t88.5 83.5t106 55t121 20q61 0 114 -23.5t94 -66.5q-20 78 -54 143.5t-95 133.5l-211 -87q-19 1 -34.5 2t-29.5 2.5t-29 5t-32 8.5l-11 44l262 110q-56 41 -128.5 63t-159.5 10l-12 71l268 94 q27 -18 55.5 -38t56 -41t53 -41.5t46.5 -39.5l187 77q47 -5 75 -9t54 -13l7 -42l-239 -99q129 -144 183 -299t54 -318z" />
<glyph unicode="&#xf1;" horiz-adv-x="1190" d="M663 0v73q72 19 102 33t30 28v454q0 55 -5.5 91.5t-17.5 58.5t-32 31t-50 9q-24 0 -51 -6.5t-59.5 -22t-72 -42.5t-87.5 -68v-505q0 -15 34 -31t99 -30v-73h-505v73q66 17 99 30.5t33 30.5v555q0 39 -1.5 62t-13.5 36t-39 19t-78 12v70q48 5 89.5 12t79.5 15.5t74 19.5 t72 25l42 -42l11 -144q117 100 218.5 143t179.5 43q43 0 83 -13.5t70.5 -44t49 -79.5t18.5 -119v-570q0 -7 6 -13.5t21 -13.5t41 -15.5t65 -18.5v-73h-505zM1001 1377q-18 -41 -44 -89.5t-59 -90.5t-73.5 -70.5t-86.5 -28.5q-43 0 -82 16.5t-76 36t-73.5 36t-74.5 16.5 q-23 0 -41 -7.5t-34.5 -22t-33 -36t-34.5 -49.5l-75 28q18 41 43.5 90t58.5 91.5t73 71t86 28.5t87.5 -16.5t79 -36t71.5 -36t66 -16.5q45 0 78 28t67 87z" />
<glyph unicode="&#xf2;" horiz-adv-x="1075" d="M758 440q0 79 -16.5 150.5t-46.5 126t-72.5 86.5t-93.5 32q-62 0 -103 -27.5t-65 -76t-33.5 -115t-9.5 -143.5q0 -79 18.5 -148t50 -120t73 -80.5t87.5 -29.5q60 0 100 23t65 67t35.5 108t10.5 147zM1010 485q0 -67 -18 -131t-50.5 -121t-77.5 -105.5t-99.5 -83.5 t-117 -54.5t-128.5 -19.5q-103 0 -187 36t-143 99t-91.5 150t-32.5 189q0 99 36.5 192t102 165t156 115.5t198.5 43.5q102 0 185.5 -36t143 -99.5t91.5 -150.5t32 -189zM720 1086q-6 -6 -17 -13t-23.5 -13.5t-24.5 -11.5t-21 -8l-382 377l29 56q10 3 41 9t67 12.5t68.5 11.5 t44.5 6z" />
<glyph unicode="&#xf3;" horiz-adv-x="1075" d="M758 440q0 79 -16.5 150.5t-46.5 126t-72.5 86.5t-93.5 32q-62 0 -103 -27.5t-65 -76t-33.5 -115t-9.5 -143.5q0 -79 18.5 -148t50 -120t73 -80.5t87.5 -29.5q60 0 100 23t65 67t35.5 108t10.5 147zM1010 485q0 -67 -18 -131t-50.5 -121t-77.5 -105.5t-99.5 -83.5 t-117 -54.5t-128.5 -19.5q-103 0 -187 36t-143 99t-91.5 150t-32.5 189q0 99 36.5 192t102 165t156 115.5t198.5 43.5q102 0 185.5 -36t143 -99.5t91.5 -150.5t32 -189zM499 1040q-9 1 -21.5 6.5t-25.5 12t-23.5 13t-16.5 11.5l211 429q12 -1 44.5 -5.5t69.5 -10.5t70 -12.5 t44 -9.5l30 -54z" />
<glyph unicode="&#xf4;" horiz-adv-x="1075" d="M758 440q0 79 -16.5 150.5t-46.5 126t-72.5 86.5t-93.5 32q-62 0 -103 -27.5t-65 -76t-33.5 -115t-9.5 -143.5q0 -79 18.5 -148t50 -120t73 -80.5t87.5 -29.5q60 0 100 23t65 67t35.5 108t10.5 147zM1010 485q0 -67 -18 -131t-50.5 -121t-77.5 -105.5t-99.5 -83.5 t-117 -54.5t-128.5 -19.5q-103 0 -187 36t-143 99t-91.5 150t-32.5 189q0 99 36.5 192t102 165t156 115.5t198.5 43.5q102 0 185.5 -36t143 -99.5t91.5 -150.5t32 -189zM898 1107q-12 -19 -26.5 -39t-31.5 -28l-281 223l-279 -223q-17 8 -35 28t-32 39l279 387h137z" />
<glyph unicode="&#xf5;" horiz-adv-x="1075" d="M758 440q0 79 -16.5 150.5t-46.5 126t-72.5 86.5t-93.5 32q-62 0 -103 -27.5t-65 -76t-33.5 -115t-9.5 -143.5q0 -79 18.5 -148t50 -120t73 -80.5t87.5 -29.5q60 0 100 23t65 67t35.5 108t10.5 147zM1010 485q0 -67 -18 -131t-50.5 -121t-77.5 -105.5t-99.5 -83.5 t-117 -54.5t-128.5 -19.5q-103 0 -187 36t-143 99t-91.5 150t-32.5 189q0 99 36.5 192t102 165t156 115.5t198.5 43.5q102 0 185.5 -36t143 -99.5t91.5 -150.5t32 -189zM953 1377q-18 -41 -44 -89.5t-59 -90.5t-73.5 -70.5t-86.5 -28.5q-43 0 -82 16.5t-76 36t-73.5 36 t-74.5 16.5q-23 0 -41 -7.5t-34.5 -22t-33 -36t-34.5 -49.5l-75 28q18 41 43.5 90t58.5 91.5t73 71t86 28.5t87.5 -16.5t79 -36t71.5 -36t66 -16.5q45 0 78 28t67 87z" />
<glyph unicode="&#xf6;" horiz-adv-x="1075" d="M758 440q0 79 -16.5 150.5t-46.5 126t-72.5 86.5t-93.5 32q-62 0 -103 -27.5t-65 -76t-33.5 -115t-9.5 -143.5q0 -79 18.5 -148t50 -120t73 -80.5t87.5 -29.5q60 0 100 23t65 67t35.5 108t10.5 147zM1010 485q0 -67 -18 -131t-50.5 -121t-77.5 -105.5t-99.5 -83.5 t-117 -54.5t-128.5 -19.5q-103 0 -187 36t-143 99t-91.5 150t-32.5 189q0 99 36.5 192t102 165t156 115.5t198.5 43.5q102 0 185.5 -36t143 -99.5t91.5 -150.5t32 -189zM908 1268q0 -37 -12.5 -69t-34 -56t-50 -38t-60.5 -14q-58 0 -88 31t-30 91q0 37 13 69t34.5 56 t49.5 37.5t59 13.5q56 0 87.5 -30t31.5 -91zM485 1268q0 -37 -12.5 -69t-33.5 -56t-49.5 -38t-60.5 -14q-58 0 -88.5 31t-30.5 91q0 37 13 69t34.5 56t50 37.5t58.5 13.5q57 0 88 -30t31 -91z" />
<glyph unicode="&#xf7;" horiz-adv-x="863" d="M538 324q0 -29 -9 -54.5t-25.5 -45t-38.5 -31t-47 -11.5q-46 0 -66.5 26.5t-20.5 74.5q0 29 9.5 54.5t26 44.5t38 30t46.5 11q87 0 87 -99zM538 845q0 -29 -9 -54.5t-25.5 -45t-38.5 -31t-47 -11.5q-46 0 -66.5 26t-20.5 74q0 29 9.5 54.5t26 44.5t38 30t46.5 11 q87 0 87 -98zM810 603q-3 -11 -9 -26.5t-13 -32t-13.5 -31t-10.5 -22.5h-679l-32 31q3 11 8.5 26t12.5 31t13.5 30.5t11.5 24.5h678z" />
<glyph unicode="&#xf8;" horiz-adv-x="1075" d="M760 440q0 44 -8.5 91t-19.5 85l-335 -430q31 -39 70 -65t80 -26q60 0 100.5 23t65.5 67t36 108t11 147zM316 473q0 -41 7 -84.5t18 -77.5l337 435q-29 39 -68 64t-81 25q-62 0 -103 -27.5t-65.5 -76t-34.5 -115t-10 -143.5zM997 952l-104 -134q54 -63 85.5 -149 t31.5 -184q0 -67 -18 -131t-50.5 -121t-77.5 -105.5t-99.5 -83.5t-117 -54.5t-128.5 -19.5q-67 0 -129 17t-112 46l-14 -19q-9 -8 -29 -18t-43.5 -19.5t-46.5 -17.5t-38 -12l-26 31l103 133q-54 63 -86.5 149t-32.5 184q0 99 36.5 192t102 165t156 115.5t198.5 43.5 q66 0 127 -17t110 -46l15 18q13 9 33 19t41.5 20t43.5 17.5t39 11.5z" />
<glyph unicode="&#xf9;" horiz-adv-x="1153" d="M1144 112q-37 -24 -81.5 -49t-86 -46t-74 -34t-44.5 -13q-18 0 -34.5 6.5t-31 25t-25.5 51t-17 83.5q-62 -54 -111.5 -86.5t-90 -50.5t-74.5 -23.5t-66 -5.5q-47 0 -92 13t-81 47.5t-58 94.5t-22 154v410q0 48 -1.5 74.5t-13 40t-36 18.5t-70.5 10v70q50 4 91.5 9 t79.5 11.5t75.5 15.5t79.5 22l35 -46v-572q0 -62 7.5 -101t22.5 -60.5t36.5 -29.5t49.5 -8q21 0 45.5 5t54 18.5t64 36.5t75.5 59v427q0 45 -3.5 72t-16.5 42t-39.5 21t-72.5 8v70q100 9 181.5 24.5t153.5 33.5l37 -46v-630q0 -31 1 -51.5t3.5 -34t7 -21.5t11.5 -13 q12 -8 33.5 -3.5t72.5 26.5zM738 1086q-6 -6 -17 -13t-23.5 -13.5t-24.5 -11.5t-21 -8l-382 377l29 56q10 3 41 9t67 12.5t68.5 11.5t44.5 6z" />
<glyph unicode="&#xfa;" horiz-adv-x="1153" d="M1144 112q-37 -24 -81.5 -49t-86 -46t-74 -34t-44.5 -13q-18 0 -34.5 6.5t-31 25t-25.5 51t-17 83.5q-62 -54 -111.5 -86.5t-90 -50.5t-74.5 -23.5t-66 -5.5q-47 0 -92 13t-81 47.5t-58 94.5t-22 154v410q0 48 -1.5 74.5t-13 40t-36 18.5t-70.5 10v70q50 4 91.5 9 t79.5 11.5t75.5 15.5t79.5 22l35 -46v-572q0 -62 7.5 -101t22.5 -60.5t36.5 -29.5t49.5 -8q21 0 45.5 5t54 18.5t64 36.5t75.5 59v427q0 45 -3.5 72t-16.5 42t-39.5 21t-72.5 8v70q100 9 181.5 24.5t153.5 33.5l37 -46v-630q0 -31 1 -51.5t3.5 -34t7 -21.5t11.5 -13 q12 -8 33.5 -3.5t72.5 26.5zM517 1040q-9 1 -21.5 6.5t-25.5 12t-23.5 13t-16.5 11.5l211 429q12 -1 44.5 -5.5t69.5 -10.5t70 -12.5t44 -9.5l30 -54z" />
<glyph unicode="&#xfb;" horiz-adv-x="1153" d="M1144 112q-37 -24 -81.5 -49t-86 -46t-74 -34t-44.5 -13q-18 0 -34.5 6.5t-31 25t-25.5 51t-17 83.5q-62 -54 -111.5 -86.5t-90 -50.5t-74.5 -23.5t-66 -5.5q-47 0 -92 13t-81 47.5t-58 94.5t-22 154v410q0 48 -1.5 74.5t-13 40t-36 18.5t-70.5 10v70q50 4 91.5 9 t79.5 11.5t75.5 15.5t79.5 22l35 -46v-572q0 -62 7.5 -101t22.5 -60.5t36.5 -29.5t49.5 -8q21 0 45.5 5t54 18.5t64 36.5t75.5 59v427q0 45 -3.5 72t-16.5 42t-39.5 21t-72.5 8v70q100 9 181.5 24.5t153.5 33.5l37 -46v-630q0 -31 1 -51.5t3.5 -34t7 -21.5t11.5 -13 q12 -8 33.5 -3.5t72.5 26.5zM916 1107q-12 -19 -26.5 -39t-31.5 -28l-281 223l-279 -223q-17 8 -35 28t-32 39l279 387h137z" />
<glyph unicode="&#xfc;" horiz-adv-x="1153" d="M1144 112q-37 -24 -81.5 -49t-86 -46t-74 -34t-44.5 -13q-18 0 -34.5 6.5t-31 25t-25.5 51t-17 83.5q-62 -54 -111.5 -86.5t-90 -50.5t-74.5 -23.5t-66 -5.5q-47 0 -92 13t-81 47.5t-58 94.5t-22 154v410q0 48 -1.5 74.5t-13 40t-36 18.5t-70.5 10v70q50 4 91.5 9 t79.5 11.5t75.5 15.5t79.5 22l35 -46v-572q0 -62 7.5 -101t22.5 -60.5t36.5 -29.5t49.5 -8q21 0 45.5 5t54 18.5t64 36.5t75.5 59v427q0 45 -3.5 72t-16.5 42t-39.5 21t-72.5 8v70q100 9 181.5 24.5t153.5 33.5l37 -46v-630q0 -31 1 -51.5t3.5 -34t7 -21.5t11.5 -13 q12 -8 33.5 -3.5t72.5 26.5zM926 1268q0 -37 -12.5 -69t-34 -56t-50 -38t-60.5 -14q-58 0 -88 31t-30 91q0 37 13 69t34.5 56t49.5 37.5t59 13.5q56 0 87.5 -30t31.5 -91zM503 1268q0 -37 -12.5 -69t-33.5 -56t-49.5 -38t-60.5 -14q-58 0 -88.5 31t-30.5 91q0 37 13 69 t34.5 56t50 37.5t58.5 13.5q57 0 88 -30t31 -91z" />
<glyph unicode="&#xfd;" horiz-adv-x="1040" d="M1027 857q-30 -7 -49 -13t-31 -13.5t-18.5 -17t-11.5 -24.5l-334 -864q-43 -110 -93 -189t-106 -130t-117 -75t-125 -24q-38 0 -75 7t-65.5 17.5t-46 22.5t-17.5 21t17 34.5t40.5 54.5t48.5 55t41 36q50 -32 100.5 -39.5t87.5 6.5q37 13 79.5 56.5t77.5 129.5l29 69 l-335 812q-11 27 -36 42t-75 26v73h453v-73q-39 -5 -60 -10.5t-30 -13t-8 -18t8 -26.5l206 -502l196 502q6 15 7.5 25.5t-6 18t-26.5 13t-53 11.5v73h327v-73zM484 1040q-9 1 -21.5 6.5t-25.5 12t-23.5 13t-16.5 11.5l211 429q12 -1 44.5 -5.5t69.5 -10.5t70 -12.5t44 -9.5 l30 -54z" />
<glyph unicode="&#xfe;" horiz-adv-x="1145" d="M855 429q1 92 -18 160t-50.5 112.5t-72 66.5t-83.5 22q-18 0 -37 -4t-43 -16t-55.5 -34t-75.5 -58v-450q51 -30 90 -48.5t70.5 -28.5t58 -13t52.5 -3q39 0 70 22t52 60.5t31.5 92.5t10.5 119zM1080 507q0 -66 -17 -131t-46 -125t-68 -111t-82.5 -89t-90 -59.5 t-90.5 -21.5q-26 0 -54.5 5.5t-61 18t-69.5 33t-81 50.5v-422q0 -16 37.5 -32t131.5 -30v-73h-541v73q66 16 99 30.5t33 31.5v1615q0 43 -4.5 67.5t-19 36.5t-40.5 16.5t-68 9.5v70q57 7 101.5 15.5t82.5 18t72.5 21t72.5 25.5l43 -42v-712q56 49 104 81t88.5 50.5 t74.5 25.5t63 7q68 0 128 -29.5t105 -86.5t71 -141.5t26 -195.5z" />
<glyph unicode="&#xff;" horiz-adv-x="1040" d="M1027 857q-30 -7 -49 -13t-31 -13.5t-18.5 -17t-11.5 -24.5l-334 -864q-43 -110 -93 -189t-106 -130t-117 -75t-125 -24q-38 0 -75 7t-65.5 17.5t-46 22.5t-17.5 21t17 34.5t40.5 54.5t48.5 55t41 36q50 -32 100.5 -39.5t87.5 6.5q37 13 79.5 56.5t77.5 129.5l29 69 l-335 812q-11 27 -36 42t-75 26v73h453v-73q-39 -5 -60 -10.5t-30 -13t-8 -18t8 -26.5l206 -502l196 502q6 15 7.5 25.5t-6 18t-26.5 13t-53 11.5v73h327v-73zM893 1268q0 -37 -12.5 -69t-34 -56t-50 -38t-60.5 -14q-58 0 -88 31t-30 91q0 37 13 69t34.5 56t49.5 37.5 t59 13.5q56 0 87.5 -30t31.5 -91zM470 1268q0 -37 -12.5 -69t-33.5 -56t-49.5 -38t-60.5 -14q-58 0 -88.5 31t-30.5 91q0 37 13 69t34.5 56t50 37.5t58.5 13.5q57 0 88 -30t31 -91z" />
<glyph unicode="&#x100;" horiz-adv-x="1287" d="M747 550l-165 465l-150 -465h315zM392 430l-96 -289q-10 -31 24.5 -45t116.5 -23v-73h-437v73q68 12 104.5 25t46.5 43l349 1066q24 20 51.5 37t57 30.5t58.5 24t55 18.5l420 -1176q5 -14 13 -25t22 -19t35.5 -14t53.5 -10v-73h-497v73q78 5 105.5 20t16.5 48l-102 289 h-397zM1069 1587q-3 -11 -10.5 -29.5t-16.5 -38.5t-17 -37.5t-12 -26.5h-764l-32 32q3 11 10 29t16 37.5t17 37t13 27.5h764z" />
<glyph unicode="&#x101;" horiz-adv-x="1023" d="M412 145q19 0 40 4.5t46.5 16t56 32t68.5 52.5v221q-60 -10 -101 -19.5t-69 -19.5t-45.5 -21t-30.5 -24q-26 -26 -42 -56t-16 -72q0 -34 9.5 -56t24 -35t30.5 -18t29 -5zM1016 112q-42 -29 -87.5 -55t-86 -45.5t-74 -30.5t-51.5 -11q-37 0 -62.5 42t-30.5 117 q-45 -45 -90.5 -75.5t-88 -49t-81.5 -26.5t-71 -8q-42 0 -82.5 14.5t-73 43t-52.5 72t-20 101.5q0 68 24.5 115.5t61.5 84.5q24 24 55.5 46.5t84 43.5t132 40.5t200.5 37.5v118q0 31 -6 57.5t-21 45.5t-40 29.5t-63 10.5q-24 0 -48 -9t-42 -25.5t-28.5 -40t-7.5 -53.5 q1 -6 -16 -15t-43 -18.5t-57.5 -19t-60.5 -16t-52 -10t-31 -1.5l-21 54q24 60 75.5 111.5t120.5 90t150.5 60.5t164.5 22q69 0 119 -18t82.5 -50.5t48.5 -76.5t16 -95v-482q0 -42 11 -60t29 -18q7 0 14.5 1t18 4t24.5 8.5t34 13.5zM951 1307q-3 -11 -10.5 -29.5t-16.5 -38.5 t-17 -37.5t-12 -26.5h-764l-32 32q3 11 10 29t16 37.5t17 37t13 27.5h764z" />
<glyph unicode="&#x102;" horiz-adv-x="1287" d="M747 550l-165 465l-150 -465h315zM392 430l-96 -289q-10 -31 24.5 -45t116.5 -23v-73h-437v73q68 12 104.5 25t46.5 43l349 1066q24 20 51.5 37t57 30.5t58.5 24t55 18.5l420 -1176q5 -14 13 -25t22 -19t35.5 -14t53.5 -10v-73h-497v73q78 5 105.5 20t16.5 48l-102 289 h-397zM988 1688q-30 -81 -70 -138.5t-86 -94.5t-96 -54.5t-101 -17.5q-55 0 -106.5 17.5t-97 54.5t-84.5 94.5t-69 138.5q6 9 15.5 19t20 19.5t21 17t18.5 11.5q25 -46 59 -79.5t71.5 -56t76 -33.5t71.5 -11q35 0 74 11t76.5 33t71.5 56t59 80q9 -4 19.5 -11.5t21 -17 t20 -19.5t15.5 -19z" />
<glyph unicode="&#x103;" horiz-adv-x="1023" d="M412 145q19 0 40 4.5t46.5 16t56 32t68.5 52.5v221q-60 -10 -101 -19.5t-69 -19.5t-45.5 -21t-30.5 -24q-26 -26 -42 -56t-16 -72q0 -34 9.5 -56t24 -35t30.5 -18t29 -5zM1016 112q-42 -29 -87.5 -55t-86 -45.5t-74 -30.5t-51.5 -11q-37 0 -62.5 42t-30.5 117 q-45 -45 -90.5 -75.5t-88 -49t-81.5 -26.5t-71 -8q-42 0 -82.5 14.5t-73 43t-52.5 72t-20 101.5q0 68 24.5 115.5t61.5 84.5q24 24 55.5 46.5t84 43.5t132 40.5t200.5 37.5v118q0 31 -6 57.5t-21 45.5t-40 29.5t-63 10.5q-24 0 -48 -9t-42 -25.5t-28.5 -40t-7.5 -53.5 q1 -6 -16 -15t-43 -18.5t-57.5 -19t-60.5 -16t-52 -10t-31 -1.5l-21 54q24 60 75.5 111.5t120.5 90t150.5 60.5t164.5 22q69 0 119 -18t82.5 -50.5t48.5 -76.5t16 -95v-482q0 -42 11 -60t29 -18q7 0 14.5 1t18 4t24.5 8.5t34 13.5zM870 1368q-30 -81 -70 -138.5t-86 -94.5 t-96 -54.5t-101 -17.5q-55 0 -106.5 17.5t-97 54.5t-84.5 94.5t-69 138.5q6 9 15.5 19t20 19.5t21 17t18.5 11.5q25 -46 59 -79.5t71.5 -56t76 -33.5t71.5 -11q35 0 74 11t76.5 33t71.5 56t59 80q9 -4 19.5 -11.5t21 -17t20 -19.5t15.5 -19z" />
<glyph unicode="&#x106;" horiz-adv-x="1143" d="M1071 211q-64 -65 -126 -111t-123 -75t-120 -42t-116 -13q-101 0 -196.5 42t-170 121t-119.5 193.5t-45 259.5q0 160 49 290t135 222.5t202 142.5t250 49q54 0 107 -8t101 -21.5t87.5 -31.5t65.5 -39q4 -3 -0.5 -18t-13.5 -36t-21.5 -45.5t-25.5 -47t-24.5 -40.5 t-19.5 -26l-65 14q-51 88 -116.5 127.5t-143.5 39.5q-34 0 -70.5 -11t-71.5 -36t-66.5 -65.5t-55 -99.5t-37 -139t-13.5 -184q0 -128 33.5 -220t87 -151.5t120 -88t132.5 -28.5q27 0 63.5 6t80 22.5t92.5 44t102 71.5q5 -4 13 -14t15.5 -21t14 -20.5t9.5 -12.5zM505 1360 q-17 8 -35.5 28t-32.5 39l365 340q23 -12 51 -28.5t53.5 -32t45.5 -29.5t28 -22l9 -52z" />
<glyph unicode="&#x107;" horiz-adv-x="933" d="M893 190q-65 -74 -120 -117.5t-104.5 -66.5t-95.5 -29.5t-93 -6.5q-81 0 -156 32.5t-132.5 93.5t-92 149t-34.5 199q0 108 40 202t111.5 163.5t170.5 110t218 40.5q33 0 74.5 -5.5t81.5 -16t73.5 -25t50.5 -32.5q1 -8 -2.5 -28t-10 -46t-15.5 -55t-18 -55t-18 -47 t-15 -30l-67 10q-33 98 -81 151.5t-128 53.5q-44 0 -84.5 -20t-71.5 -63.5t-50 -111.5t-19 -165q0 -80 20.5 -142.5t56 -105.5t83.5 -66t102 -23q28 0 54 3.5t57 15.5t69.5 35t91.5 62zM451 1040q-9 1 -21.5 6.5t-25.5 12t-23.5 13t-16.5 11.5l211 429q12 -1 44.5 -5.5 t69.5 -10.5t70 -12.5t44 -9.5l30 -54z" />
<glyph unicode="&#x108;" horiz-adv-x="1143" d="M1071 211q-64 -65 -126 -111t-123 -75t-120 -42t-116 -13q-101 0 -196.5 42t-170 121t-119.5 193.5t-45 259.5q0 160 49 290t135 222.5t202 142.5t250 49q54 0 107 -8t101 -21.5t87.5 -31.5t65.5 -39q4 -3 -0.5 -18t-13.5 -36t-21.5 -45.5t-25.5 -47t-24.5 -40.5 t-19.5 -26l-65 14q-51 88 -116.5 127.5t-143.5 39.5q-34 0 -70.5 -11t-71.5 -36t-66.5 -65.5t-55 -99.5t-37 -139t-13.5 -184q0 -128 33.5 -220t87 -151.5t120 -88t132.5 -28.5q27 0 63.5 6t80 22.5t92.5 44t102 71.5q5 -4 13 -14t15.5 -21t14 -20.5t9.5 -12.5zM975 1420 q-12 -19 -26.5 -35.5t-31.5 -24.5l-281 163l-279 -163q-17 8 -31.5 24.5t-28.5 35.5l279 324h122z" />
<glyph unicode="&#x109;" horiz-adv-x="933" d="M893 190q-65 -74 -120 -117.5t-104.5 -66.5t-95.5 -29.5t-93 -6.5q-81 0 -156 32.5t-132.5 93.5t-92 149t-34.5 199q0 108 40 202t111.5 163.5t170.5 110t218 40.5q33 0 74.5 -5.5t81.5 -16t73.5 -25t50.5 -32.5q1 -8 -2.5 -28t-10 -46t-15.5 -55t-18 -55t-18 -47 t-15 -30l-67 10q-33 98 -81 151.5t-128 53.5q-44 0 -84.5 -20t-71.5 -63.5t-50 -111.5t-19 -165q0 -80 20.5 -142.5t56 -105.5t83.5 -66t102 -23q28 0 54 3.5t57 15.5t69.5 35t91.5 62zM850 1107q-12 -19 -26.5 -39t-31.5 -28l-281 223l-279 -223q-17 8 -35 28t-32 39 l279 387h137z" />
<glyph unicode="&#x10a;" horiz-adv-x="1143" d="M1071 211q-64 -65 -126 -111t-123 -75t-120 -42t-116 -13q-101 0 -196.5 42t-170 121t-119.5 193.5t-45 259.5q0 160 49 290t135 222.5t202 142.5t250 49q54 0 107 -8t101 -21.5t87.5 -31.5t65.5 -39q4 -3 -0.5 -18t-13.5 -36t-21.5 -45.5t-25.5 -47t-24.5 -40.5 t-19.5 -26l-65 14q-51 88 -116.5 127.5t-143.5 39.5q-34 0 -70.5 -11t-71.5 -36t-66.5 -65.5t-55 -99.5t-37 -139t-13.5 -184q0 -128 33.5 -220t87 -151.5t120 -88t132.5 -28.5q27 0 63.5 6t80 22.5t92.5 44t102 71.5q5 -4 13 -14t15.5 -21t14 -20.5t9.5 -12.5zM774 1548 q0 -37 -12.5 -69t-33.5 -56t-49.5 -38t-60.5 -14q-58 0 -88.5 31t-30.5 91q0 37 13 69t34.5 56t50 37.5t59.5 13.5q56 0 87 -30t31 -91z" />
<glyph unicode="&#x10b;" horiz-adv-x="933" d="M893 190q-65 -74 -120 -117.5t-104.5 -66.5t-95.5 -29.5t-93 -6.5q-81 0 -156 32.5t-132.5 93.5t-92 149t-34.5 199q0 108 40 202t111.5 163.5t170.5 110t218 40.5q33 0 74.5 -5.5t81.5 -16t73.5 -25t50.5 -32.5q1 -8 -2.5 -28t-10 -46t-15.5 -55t-18 -55t-18 -47 t-15 -30l-67 10q-33 98 -81 151.5t-128 53.5q-44 0 -84.5 -20t-71.5 -63.5t-50 -111.5t-19 -165q0 -80 20.5 -142.5t56 -105.5t83.5 -66t102 -23q28 0 54 3.5t57 15.5t69.5 35t91.5 62zM648 1268q0 -37 -12.5 -69t-33.5 -56t-49.5 -38t-60.5 -14q-58 0 -88.5 31t-30.5 91 q0 37 13 69t34.5 56t50 37.5t59.5 13.5q56 0 87 -30t31 -91z" />
<glyph unicode="&#x10c;" horiz-adv-x="1143" d="M1071 211q-64 -65 -126 -111t-123 -75t-120 -42t-116 -13q-101 0 -196.5 42t-170 121t-119.5 193.5t-45 259.5q0 160 49 290t135 222.5t202 142.5t250 49q54 0 107 -8t101 -21.5t87.5 -31.5t65.5 -39q4 -3 -0.5 -18t-13.5 -36t-21.5 -45.5t-25.5 -47t-24.5 -40.5 t-19.5 -26l-65 14q-51 88 -116.5 127.5t-143.5 39.5q-34 0 -70.5 -11t-71.5 -36t-66.5 -65.5t-55 -99.5t-37 -139t-13.5 -184q0 -128 33.5 -220t87 -151.5t120 -88t132.5 -28.5q27 0 63.5 6t80 22.5t92.5 44t102 71.5q5 -4 13 -14t15.5 -21t14 -20.5t9.5 -12.5zM706 1384 h-137l-272 329q14 20 28.5 36.5t31.5 25.5l283 -188l277 188q17 -9 31.5 -25.5t26.5 -36.5z" />
<glyph unicode="&#x10d;" horiz-adv-x="933" d="M893 190q-65 -74 -120 -117.5t-104.5 -66.5t-95.5 -29.5t-93 -6.5q-81 0 -156 32.5t-132.5 93.5t-92 149t-34.5 199q0 108 40 202t111.5 163.5t170.5 110t218 40.5q33 0 74.5 -5.5t81.5 -16t73.5 -25t50.5 -32.5q1 -8 -2.5 -28t-10 -46t-15.5 -55t-18 -55t-18 -47 t-15 -30l-67 10q-33 98 -81 151.5t-128 53.5q-44 0 -84.5 -20t-71.5 -63.5t-50 -111.5t-19 -165q0 -80 20.5 -142.5t56 -105.5t83.5 -66t102 -23q28 0 54 3.5t57 15.5t69.5 35t91.5 62zM575 1064h-137l-270 381q12 20 26.5 40t31.5 28l282 -218l278 218q17 -8 35 -28t32 -40 z" />
<glyph unicode="&#x10e;" horiz-adv-x="1304" d="M1221 676q0 -125 -25.5 -223.5t-69.5 -174t-103 -128t-126 -86t-138.5 -49t-139.5 -15.5h-576v73q68 14 102.5 30.5t34.5 30.5v1023l-137 -19l-13 92q49 12 116.5 23t142 19.5t149.5 13t140 4.5q153 0 273 -41.5t202 -120.5t125 -193t43 -259zM506 1184q-18 0 -37 -0.5 t-39 -1.5v-1015q0 -7 2 -14q3 -11 11 -19.5t25 -14.5t44.5 -9t69.5 -3q38 0 80.5 13t84 41t79 70.5t65.5 101.5t45 134.5t17 169.5q0 133 -29 235t-85.5 171.5t-140 105t-192.5 35.5zM659 1384h-137l-272 329q14 20 28.5 36.5t31.5 25.5l283 -188l277 188q17 -9 31.5 -25.5 t26.5 -36.5z" />
<glyph unicode="&#x110;" horiz-adv-x="1304" d="M1221 676q0 -125 -25.5 -223.5t-69.5 -174t-103 -128t-126 -86t-138.5 -49t-139.5 -15.5h-576v73q68 14 102.5 30.5t34.5 30.5v481h-130l-22 24q2 7 6.5 20t9.5 27.5t9.5 27.5t7.5 21h119v422l-137 -19l-13 92q49 12 116.5 23t142 19.5t149.5 13t140 4.5q153 0 273 -41.5 t202 -120.5t125 -193t43 -259zM506 1184q-18 0 -37 -0.5t-39 -1.5v-447h241l25 -23l-36 -97h-230v-448q0 -7 2 -14q3 -11 11 -19.5t25 -14.5t44.5 -9t69.5 -3q38 0 80.5 13t84 41t79 70.5t65.5 101.5t45 134.5t17 169.5q0 133 -29 235t-85.5 171.5t-140 105t-192.5 35.5z " />
<glyph unicode="&#x111;" horiz-adv-x="1148" d="M1141 114q-46 -31 -93 -57t-87.5 -45.5t-71.5 -30.5t-45 -11q-72 0 -92 175q-46 -47 -84.5 -80t-75.5 -54t-76 -31t-85 -10q-67 0 -132.5 32.5t-117.5 93.5t-84 149t-32 199q0 100 35.5 193.5t100 165t154 114.5t196.5 43q47 0 93.5 -11t100.5 -48v213h-289l-23 22 q2 8 6.5 21.5t9.5 27.5t10.5 27.5t9.5 21.5h276v25q0 49 -2.5 78.5t-16 45.5t-41 22.5t-77.5 10.5v69q110 11 198.5 29.5t140.5 35.5l38 -37v-279h144l22 -25l-35 -95h-131v-815q0 -35 1.5 -59t4 -39t7 -23t10.5 -12q6 -3 13 -4.5t18.5 0t29 7.5t44.5 18zM745 269v437 q-36 58 -89.5 90t-120.5 32q-50 0 -92 -19t-72.5 -59.5t-48 -102.5t-17.5 -149q0 -80 20 -142.5t52 -106t73 -66.5t82 -23q55 0 104.5 27.5t108.5 81.5z" />
<glyph unicode="&#x112;" horiz-adv-x="1076" d="M1029 304q-4 -43 -9 -90.5t-11 -90t-11.5 -75.5t-9.5 -48h-945v73q68 14 102.5 30.5t34.5 30.5v991q0 12 -32.5 30t-104.5 32v73h881l40 -32q-2 -26 -6 -65t-10 -80t-12.5 -77.5t-12.5 -55.5h-75q-5 93 -25 141.5t-57 48.5h-336v-405h398l33 -35q-8 -14 -19.5 -32.5 t-24 -36.5t-25 -33.5t-23.5 -23.5q-15 15 -32.5 25t-40 17t-53 10t-72.5 3h-141v-445q0 -15 7 -26.5t29 -20t62 -13t106 -4.5h99q46 0 78.5 11t57.5 35.5t45.5 64.5t41.5 99zM972 1587q-3 -11 -10.5 -29.5t-16.5 -38.5t-17 -37.5t-12 -26.5h-764l-32 32q3 11 10 29t16 37.5 t17 37t13 27.5h764z" />
<glyph unicode="&#x113;" horiz-adv-x="991" d="M511 840q-47 0 -81 -18t-57.5 -52t-37 -82t-19.5 -108h333q23 0 30.5 7.5t7.5 28.5q0 30 -8 68.5t-28.5 73t-54.5 58.5t-85 24zM926 550q-9 -10 -26 -22t-37 -23t-40.5 -21t-36.5 -16h-473q2 -72 19.5 -132.5t49.5 -104.5t77.5 -68.5t104.5 -24.5q31 0 60.5 3.5t64 16.5 t77.5 36.5t102 64.5q6 -3 14.5 -12t16 -19.5t13.5 -19.5t8 -13q-69 -70 -124 -114t-105.5 -68.5t-100.5 -33.5t-110 -9q-85 0 -160.5 34t-132 96t-89.5 149t-33 193q0 136 51.5 242.5t154.5 181.5q26 19 58.5 36.5t68 30t73.5 20t76 7.5q98 0 169.5 -34t118 -90.5t69 -130.5 t22.5 -155zM972 1307q-3 -11 -10.5 -29.5t-16.5 -38.5t-17 -37.5t-12 -26.5h-764l-32 32q3 11 10 29t16 37.5t17 37t13 27.5h764z" />
<glyph unicode="&#x114;" horiz-adv-x="1076" d="M1029 304q-4 -43 -9 -90.5t-11 -90t-11.5 -75.5t-9.5 -48h-945v73q68 14 102.5 30.5t34.5 30.5v991q0 12 -32.5 30t-104.5 32v73h881l40 -32q-2 -26 -6 -65t-10 -80t-12.5 -77.5t-12.5 -55.5h-75q-5 93 -25 141.5t-57 48.5h-336v-405h398l33 -35q-8 -14 -19.5 -32.5 t-24 -36.5t-25 -33.5t-23.5 -23.5q-15 15 -32.5 25t-40 17t-53 10t-72.5 3h-141v-445q0 -15 7 -26.5t29 -20t62 -13t106 -4.5h99q46 0 78.5 11t57.5 35.5t45.5 64.5t41.5 99zM891 1688q-30 -81 -70 -138.5t-86 -94.5t-96 -54.5t-101 -17.5q-55 0 -106.5 17.5t-97 54.5 t-84.5 94.5t-69 138.5q6 9 15.5 19t20 19.5t21 17t18.5 11.5q25 -46 59 -79.5t71.5 -56t76 -33.5t71.5 -11q35 0 74 11t76.5 33t71.5 56t59 80q9 -4 19.5 -11.5t21 -17t20 -19.5t15.5 -19z" />
<glyph unicode="&#x115;" horiz-adv-x="991" d="M511 840q-47 0 -81 -18t-57.5 -52t-37 -82t-19.5 -108h333q23 0 30.5 7.5t7.5 28.5q0 30 -8 68.5t-28.5 73t-54.5 58.5t-85 24zM926 550q-9 -10 -26 -22t-37 -23t-40.5 -21t-36.5 -16h-473q2 -72 19.5 -132.5t49.5 -104.5t77.5 -68.5t104.5 -24.5q31 0 60.5 3.5t64 16.5 t77.5 36.5t102 64.5q6 -3 14.5 -12t16 -19.5t13.5 -19.5t8 -13q-69 -70 -124 -114t-105.5 -68.5t-100.5 -33.5t-110 -9q-85 0 -160.5 34t-132 96t-89.5 149t-33 193q0 136 51.5 242.5t154.5 181.5q26 19 58.5 36.5t68 30t73.5 20t76 7.5q98 0 169.5 -34t118 -90.5t69 -130.5 t22.5 -155zM891 1368q-30 -81 -70 -138.5t-86 -94.5t-96 -54.5t-101 -17.5q-55 0 -106.5 17.5t-97 54.5t-84.5 94.5t-69 138.5q6 9 15.5 19t20 19.5t21 17t18.5 11.5q25 -46 59 -79.5t71.5 -56t76 -33.5t71.5 -11q35 0 74 11t76.5 33t71.5 56t59 80q9 -4 19.5 -11.5t21 -17 t20 -19.5t15.5 -19z" />
<glyph unicode="&#x116;" horiz-adv-x="1076" d="M1029 304q-4 -43 -9 -90.5t-11 -90t-11.5 -75.5t-9.5 -48h-945v73q68 14 102.5 30.5t34.5 30.5v991q0 12 -32.5 30t-104.5 32v73h881l40 -32q-2 -26 -6 -65t-10 -80t-12.5 -77.5t-12.5 -55.5h-75q-5 93 -25 141.5t-57 48.5h-336v-405h398l33 -35q-8 -14 -19.5 -32.5 t-24 -36.5t-25 -33.5t-23.5 -23.5q-15 15 -32.5 25t-40 17t-53 10t-72.5 3h-141v-445q0 -15 7 -26.5t29 -20t62 -13t106 -4.5h99q46 0 78.5 11t57.5 35.5t45.5 64.5t41.5 99zM673 1548q0 -37 -12.5 -69t-33.5 -56t-49.5 -38t-60.5 -14q-58 0 -88.5 31t-30.5 91q0 37 13 69 t34.5 56t50 37.5t59.5 13.5q56 0 87 -30t31 -91z" />
<glyph unicode="&#x117;" horiz-adv-x="991" d="M511 840q-47 0 -81 -18t-57.5 -52t-37 -82t-19.5 -108h333q23 0 30.5 7.5t7.5 28.5q0 30 -8 68.5t-28.5 73t-54.5 58.5t-85 24zM926 550q-9 -10 -26 -22t-37 -23t-40.5 -21t-36.5 -16h-473q2 -72 19.5 -132.5t49.5 -104.5t77.5 -68.5t104.5 -24.5q31 0 60.5 3.5t64 16.5 t77.5 36.5t102 64.5q6 -3 14.5 -12t16 -19.5t13.5 -19.5t8 -13q-69 -70 -124 -114t-105.5 -68.5t-100.5 -33.5t-110 -9q-85 0 -160.5 34t-132 96t-89.5 149t-33 193q0 136 51.5 242.5t154.5 181.5q26 19 58.5 36.5t68 30t73.5 20t76 7.5q98 0 169.5 -34t118 -90.5t69 -130.5 t22.5 -155zM673 1268q0 -37 -12.5 -69t-33.5 -56t-49.5 -38t-60.5 -14q-58 0 -88.5 31t-30.5 91q0 37 13 69t34.5 56t50 37.5t59.5 13.5q56 0 87 -30t31 -91z" />
<glyph unicode="&#x11a;" horiz-adv-x="1076" d="M1029 304q-4 -43 -9 -90.5t-11 -90t-11.5 -75.5t-9.5 -48h-945v73q68 14 102.5 30.5t34.5 30.5v991q0 12 -32.5 30t-104.5 32v73h881l40 -32q-2 -26 -6 -65t-10 -80t-12.5 -77.5t-12.5 -55.5h-75q-5 93 -25 141.5t-57 48.5h-336v-405h398l33 -35q-8 -14 -19.5 -32.5 t-24 -36.5t-25 -33.5t-23.5 -23.5q-15 15 -32.5 25t-40 17t-53 10t-72.5 3h-141v-445q0 -15 7 -26.5t29 -20t62 -13t106 -4.5h99q46 0 78.5 11t57.5 35.5t45.5 64.5t41.5 99zM605 1384h-137l-272 329q14 20 28.5 36.5t31.5 25.5l283 -188l277 188q17 -9 31.5 -25.5 t26.5 -36.5z" />
<glyph unicode="&#x11b;" horiz-adv-x="991" d="M511 840q-47 0 -81 -18t-57.5 -52t-37 -82t-19.5 -108h333q23 0 30.5 7.5t7.5 28.5q0 30 -8 68.5t-28.5 73t-54.5 58.5t-85 24zM926 550q-9 -10 -26 -22t-37 -23t-40.5 -21t-36.5 -16h-473q2 -72 19.5 -132.5t49.5 -104.5t77.5 -68.5t104.5 -24.5q31 0 60.5 3.5t64 16.5 t77.5 36.5t102 64.5q6 -3 14.5 -12t16 -19.5t13.5 -19.5t8 -13q-69 -70 -124 -114t-105.5 -68.5t-100.5 -33.5t-110 -9q-85 0 -160.5 34t-132 96t-89.5 149t-33 193q0 136 51.5 242.5t154.5 181.5q26 19 58.5 36.5t68 30t73.5 20t76 7.5q98 0 169.5 -34t118 -90.5t69 -130.5 t22.5 -155zM600 1064h-137l-270 381q12 20 26.5 40t31.5 28l282 -218l278 218q17 -8 35 -28t32 -40z" />
<glyph unicode="&#x11c;" horiz-adv-x="1232" d="M1095 1188q5 -4 1 -18.5t-13.5 -34.5t-23 -44t-27 -46t-26.5 -39t-22 -25l-63 14q-33 48 -66.5 81t-69.5 52.5t-75 28t-82 8.5q-25 0 -58.5 -10t-69 -34t-70 -64t-61.5 -98.5t-44 -138t-17 -183.5q0 -134 31 -230t82.5 -158t117.5 -91.5t137 -29.5q55 0 98.5 10t78.5 27 v305q0 11 -4 21.5t-20 20.5t-48.5 20t-88.5 20v73h498v-73q-57 -14 -77 -36.5t-20 -45.5v-301q-74 -61 -138.5 -99.5t-120.5 -60.5t-106 -30.5t-95 -8.5q-73 0 -144 16.5t-135 50t-119 84.5t-95 119t-62.5 153.5t-22.5 188.5q0 166 53 297.5t147 223t221 139.5t276 48 q33 0 78.5 -7t93.5 -20t93.5 -32t77.5 -43zM995 1420q-12 -19 -26.5 -35.5t-31.5 -24.5l-281 163l-279 -163q-17 8 -31.5 24.5t-28.5 35.5l279 324h122z" />
<glyph unicode="&#x11d;" horiz-adv-x="1059" d="M668 600q0 51 -13.5 95.5t-39.5 77.5t-64.5 52.5t-89.5 19.5q-25 0 -51 -11.5t-47 -34.5t-34.5 -58t-13.5 -82q0 -50 12 -94.5t37.5 -77.5t64.5 -52.5t93 -19.5q29 0 55.5 11.5t46.5 34.5t32 57.5t12 81.5zM556 -42q-48 6 -90 14t-79 16q-46 -32 -72.5 -57t-39.5 -45.5 t-16.5 -37t-3.5 -31.5q0 -33 24.5 -63.5t67.5 -53.5t101.5 -36.5t126.5 -13.5q59 0 102 14.5t71.5 39.5t42.5 57t14 67q0 19 -9 38t-36 36t-76 31.5t-128 24.5zM898 641q0 -77 -34 -140.5t-91 -109t-132 -71t-158 -25.5h-10q-38 -35 -48.5 -56.5t-10.5 -27.5q0 -9 6 -17.5 t28.5 -17t68 -17.5t123.5 -19q117 -15 194 -36.5t122.5 -51.5t63.5 -69t18 -88q0 -47 -21.5 -94t-59.5 -90.5t-89 -80.5t-110.5 -64.5t-124 -43t-128.5 -15.5q-52 0 -108.5 6.5t-111 20.5t-103.5 35.5t-86 52t-59 69.5t-22 87q0 25 10.5 51t38.5 55.5t76.5 64t125.5 76.5 q-114 46 -114 98q0 11 9.5 29.5t31 43t56.5 54.5t85 64q-56 15 -102 42t-78.5 64t-50.5 83t-18 99q0 73 36 138.5t96 114t139.5 77t166.5 28.5q69 0 129 -19t108 -51q87 11 157.5 33t111.5 37l28 -37q-3 -11 -9.5 -26t-14 -30.5t-16 -31t-17.5 -27.5q-34 -6 -69 -10t-77 -6 q21 -35 32.5 -72.5t11.5 -78.5zM864 1107q-12 -19 -26.5 -39t-31.5 -28l-281 223l-279 -223q-17 8 -35 28t-32 39l279 387h137z" />
<glyph unicode="&#x11e;" horiz-adv-x="1232" d="M1095 1188q5 -4 1 -18.5t-13.5 -34.5t-23 -44t-27 -46t-26.5 -39t-22 -25l-63 14q-33 48 -66.5 81t-69.5 52.5t-75 28t-82 8.5q-25 0 -58.5 -10t-69 -34t-70 -64t-61.5 -98.5t-44 -138t-17 -183.5q0 -134 31 -230t82.5 -158t117.5 -91.5t137 -29.5q55 0 98.5 10t78.5 27 v305q0 11 -4 21.5t-20 20.5t-48.5 20t-88.5 20v73h498v-73q-57 -14 -77 -36.5t-20 -45.5v-301q-74 -61 -138.5 -99.5t-120.5 -60.5t-106 -30.5t-95 -8.5q-73 0 -144 16.5t-135 50t-119 84.5t-95 119t-62.5 153.5t-22.5 188.5q0 166 53 297.5t147 223t221 139.5t276 48 q33 0 78.5 -7t93.5 -20t93.5 -32t77.5 -43zM1012 1688q-30 -81 -70 -138.5t-86 -94.5t-96 -54.5t-101 -17.5q-55 0 -106.5 17.5t-97 54.5t-84.5 94.5t-69 138.5q6 9 15.5 19t20 19.5t21 17t18.5 11.5q25 -46 59 -79.5t71.5 -56t76 -33.5t71.5 -11q35 0 74 11t76.5 33 t71.5 56t59 80q9 -4 19.5 -11.5t21 -17t20 -19.5t15.5 -19z" />
<glyph unicode="&#x11f;" horiz-adv-x="1059" d="M668 600q0 51 -13.5 95.5t-39.5 77.5t-64.5 52.5t-89.5 19.5q-25 0 -51 -11.5t-47 -34.5t-34.5 -58t-13.5 -82q0 -50 12 -94.5t37.5 -77.5t64.5 -52.5t93 -19.5q29 0 55.5 11.5t46.5 34.5t32 57.5t12 81.5zM556 -42q-48 6 -90 14t-79 16q-46 -32 -72.5 -57t-39.5 -45.5 t-16.5 -37t-3.5 -31.5q0 -33 24.5 -63.5t67.5 -53.5t101.5 -36.5t126.5 -13.5q59 0 102 14.5t71.5 39.5t42.5 57t14 67q0 19 -9 38t-36 36t-76 31.5t-128 24.5zM898 641q0 -77 -34 -140.5t-91 -109t-132 -71t-158 -25.5h-10q-38 -35 -48.5 -56.5t-10.5 -27.5q0 -9 6 -17.5 t28.5 -17t68 -17.5t123.5 -19q117 -15 194 -36.5t122.5 -51.5t63.5 -69t18 -88q0 -47 -21.5 -94t-59.5 -90.5t-89 -80.5t-110.5 -64.5t-124 -43t-128.5 -15.5q-52 0 -108.5 6.5t-111 20.5t-103.5 35.5t-86 52t-59 69.5t-22 87q0 25 10.5 51t38.5 55.5t76.5 64t125.5 76.5 q-114 46 -114 98q0 11 9.5 29.5t31 43t56.5 54.5t85 64q-56 15 -102 42t-78.5 64t-50.5 83t-18 99q0 73 36 138.5t96 114t139.5 77t166.5 28.5q69 0 129 -19t108 -51q87 11 157.5 33t111.5 37l28 -37q-3 -11 -9.5 -26t-14 -30.5t-16 -31t-17.5 -27.5q-34 -6 -69 -10t-77 -6 q21 -35 32.5 -72.5t11.5 -78.5zM880 1368q-30 -81 -70 -138.5t-86 -94.5t-96 -54.5t-101 -17.5q-55 0 -106.5 17.5t-97 54.5t-84.5 94.5t-69 138.5q6 9 15.5 19t20 19.5t21 17t18.5 11.5q25 -46 59 -79.5t71.5 -56t76 -33.5t71.5 -11q35 0 74 11t76.5 33t71.5 56t59 80 q9 -4 19.5 -11.5t21 -17t20 -19.5t15.5 -19z" />
<glyph unicode="&#x120;" horiz-adv-x="1232" d="M1095 1188q5 -4 1 -18.5t-13.5 -34.5t-23 -44t-27 -46t-26.5 -39t-22 -25l-63 14q-33 48 -66.5 81t-69.5 52.5t-75 28t-82 8.5q-25 0 -58.5 -10t-69 -34t-70 -64t-61.5 -98.5t-44 -138t-17 -183.5q0 -134 31 -230t82.5 -158t117.5 -91.5t137 -29.5q55 0 98.5 10t78.5 27 v305q0 11 -4 21.5t-20 20.5t-48.5 20t-88.5 20v73h498v-73q-57 -14 -77 -36.5t-20 -45.5v-301q-74 -61 -138.5 -99.5t-120.5 -60.5t-106 -30.5t-95 -8.5q-73 0 -144 16.5t-135 50t-119 84.5t-95 119t-62.5 153.5t-22.5 188.5q0 166 53 297.5t147 223t221 139.5t276 48 q33 0 78.5 -7t93.5 -20t93.5 -32t77.5 -43zM794 1548q0 -37 -12.5 -69t-33.5 -56t-49.5 -38t-60.5 -14q-58 0 -88.5 31t-30.5 91q0 37 13 69t34.5 56t50 37.5t59.5 13.5q56 0 87 -30t31 -91z" />
<glyph unicode="&#x121;" horiz-adv-x="1059" d="M668 600q0 51 -13.5 95.5t-39.5 77.5t-64.5 52.5t-89.5 19.5q-25 0 -51 -11.5t-47 -34.5t-34.5 -58t-13.5 -82q0 -50 12 -94.5t37.5 -77.5t64.5 -52.5t93 -19.5q29 0 55.5 11.5t46.5 34.5t32 57.5t12 81.5zM556 -42q-48 6 -90 14t-79 16q-46 -32 -72.5 -57t-39.5 -45.5 t-16.5 -37t-3.5 -31.5q0 -33 24.5 -63.5t67.5 -53.5t101.5 -36.5t126.5 -13.5q59 0 102 14.5t71.5 39.5t42.5 57t14 67q0 19 -9 38t-36 36t-76 31.5t-128 24.5zM898 641q0 -77 -34 -140.5t-91 -109t-132 -71t-158 -25.5h-10q-38 -35 -48.5 -56.5t-10.5 -27.5q0 -9 6 -17.5 t28.5 -17t68 -17.5t123.5 -19q117 -15 194 -36.5t122.5 -51.5t63.5 -69t18 -88q0 -47 -21.5 -94t-59.5 -90.5t-89 -80.5t-110.5 -64.5t-124 -43t-128.5 -15.5q-52 0 -108.5 6.5t-111 20.5t-103.5 35.5t-86 52t-59 69.5t-22 87q0 25 10.5 51t38.5 55.5t76.5 64t125.5 76.5 q-114 46 -114 98q0 11 9.5 29.5t31 43t56.5 54.5t85 64q-56 15 -102 42t-78.5 64t-50.5 83t-18 99q0 73 36 138.5t96 114t139.5 77t166.5 28.5q69 0 129 -19t108 -51q87 11 157.5 33t111.5 37l28 -37q-3 -11 -9.5 -26t-14 -30.5t-16 -31t-17.5 -27.5q-34 -6 -69 -10t-77 -6 q21 -35 32.5 -72.5t11.5 -78.5zM662 1268q0 -37 -12.5 -69t-33.5 -56t-49.5 -38t-60.5 -14q-58 0 -88.5 31t-30.5 91q0 37 13 69t34.5 56t50 37.5t59.5 13.5q56 0 87 -30t31 -91z" />
<glyph unicode="&#x124;" horiz-adv-x="1399" d="M43 0v73q68 14 102.5 30.5t34.5 30.5v991q0 12 -32.5 30t-104.5 32v73h525v-73q-68 -14 -103 -31t-35 -31v-405h520v405q0 12 -32.5 30t-104.5 32v73h525v-73q-68 -14 -103 -31t-35 -31v-991q0 -12 33 -29.5t105 -31.5v-73h-525v73q68 14 102.5 30.5t34.5 30.5v466h-520 v-466q0 -12 32.5 -29.5t105.5 -31.5v-73h-525zM1028 1420q-12 -19 -26.5 -35.5t-31.5 -24.5l-281 163l-279 -163q-17 8 -31.5 24.5t-28.5 35.5l279 324h122z" />
<glyph unicode="&#x125;" horiz-adv-x="1190" d="M663 0v73q72 19 102 33t30 28v439q0 61 -6.5 100.5t-20 62.5t-35 32.5t-51.5 9.5q-58 0 -119.5 -36t-142.5 -103v-505q0 -15 34 -31t99 -30v-73h-505v73q66 17 99 30.5t33 30.5v1134q0 42 -2.5 65.5t-15 36.5t-39.5 18.5t-75 11.5v70q56 8 100.5 16t82.5 17.5t73 20.5 t72 26l44 -41v-727q115 94 215.5 136t178.5 42q43 0 83 -13.5t70.5 -44t49 -79.5t18.5 -119v-570q0 -7 6 -13.5t21 -13.5t41 -15.5t65 -18.5v-73h-505zM945 1670q-12 -19 -26.5 -35.5t-31.5 -24.5l-281 163l-279 -163q-17 8 -31.5 24.5t-28.5 35.5l279 324h122z" />
<glyph unicode="&#x128;" horiz-adv-x="670" d="M63 0v73q68 14 102.5 30.5t34.5 30.5v991q0 12 -32.5 30t-104.5 32v73h525v-73q-68 -14 -103 -31t-35 -31v-991q0 -12 33 -29.5t105 -31.5v-73h-525zM719 1657q-18 -41 -44 -89.5t-59 -90.5t-73.5 -70.5t-86.5 -28.5q-43 0 -82 16.5t-76 36t-73.5 36t-74.5 16.5 q-23 0 -41 -7.5t-34.5 -22t-33 -36t-34.5 -49.5l-75 28q18 41 43.5 90t58.5 91.5t73 71t86 28.5t87.5 -16.5t79 -36t71.5 -36t66 -16.5q45 0 78 28t67 87z" />
<glyph unicode="&#x129;" horiz-adv-x="615" d="M63 0v73q68 14 100 30.5t32 30.5v514q0 51 -1 82.5t-12.5 49t-38.5 25.5t-80 13v70q86 12 163 29.5t145 42.5h64v-826q0 -12 30 -29.5t103 -31.5v-73h-505zM709 1377q-18 -41 -44 -89.5t-59 -90.5t-73.5 -70.5t-86.5 -28.5q-43 0 -82 16.5t-76 36t-73.5 36t-74.5 16.5 q-23 0 -41 -7.5t-34.5 -22t-33 -36t-34.5 -49.5l-75 28q18 41 43.5 90t58.5 91.5t73 71t86 28.5t87.5 -16.5t79 -36t71.5 -36t66 -16.5q45 0 78 28t67 87z" />
<glyph unicode="&#x12a;" horiz-adv-x="670" d="M63 0v73q68 14 102.5 30.5t34.5 30.5v991q0 12 -32.5 30t-104.5 32v73h525v-73q-68 -14 -103 -31t-35 -31v-991q0 -12 33 -29.5t105 -31.5v-73h-525zM651 1627q-3 -11 -10.5 -29.5t-16.5 -38.5t-17 -37.5t-12 -26.5h-544l-32 32q3 11 10 29t16 37.5t17 37t13 27.5h544z " />
<glyph unicode="&#x12b;" horiz-adv-x="615" d="M63 0v73q68 14 100 30.5t32 30.5v514q0 51 -1 82.5t-12.5 49t-38.5 25.5t-80 13v70q86 12 163 29.5t145 42.5h64v-826q0 -12 30 -29.5t103 -31.5v-73h-505zM641 1307q-3 -11 -10.5 -29.5t-16.5 -38.5t-17 -37.5t-12 -26.5h-544l-32 32q3 11 10 29t16 37.5t17 37t13 27.5 h544z" />
<glyph unicode="&#x12c;" horiz-adv-x="670" d="M63 0v73q68 14 102.5 30.5t34.5 30.5v991q0 12 -32.5 30t-104.5 32v73h525v-73q-68 -14 -103 -31t-35 -31v-991q0 -12 33 -29.5t105 -31.5v-73h-525zM680 1688q-30 -81 -70 -138.5t-86 -94.5t-96 -54.5t-101 -17.5q-55 0 -106.5 17.5t-97 54.5t-84.5 94.5t-69 138.5 q6 9 15.5 19t20 19.5t21 17t18.5 11.5q25 -46 59 -79.5t71.5 -56t76 -33.5t71.5 -11q35 0 74 11t76.5 33t71.5 56t59 80q9 -4 19.5 -11.5t21 -17t20 -19.5t15.5 -19z" />
<glyph unicode="&#x12d;" horiz-adv-x="615" d="M63 0v73q68 14 100 30.5t32 30.5v514q0 51 -1 82.5t-12.5 49t-38.5 25.5t-80 13v70q86 12 163 29.5t145 42.5h64v-826q0 -12 30 -29.5t103 -31.5v-73h-505zM670 1368q-30 -81 -70 -138.5t-86 -94.5t-96 -54.5t-101 -17.5q-55 0 -106.5 17.5t-97 54.5t-84.5 94.5 t-69 138.5q6 9 15.5 19t20 19.5t21 17t18.5 11.5q25 -46 59 -79.5t71.5 -56t76 -33.5t71.5 -11q35 0 74 11t76.5 33t71.5 56t59 80q9 -4 19.5 -11.5t21 -17t20 -19.5t15.5 -19z" />
<glyph unicode="&#x130;" horiz-adv-x="670" d="M63 0v73q68 14 102.5 30.5t34.5 30.5v991q0 12 -32.5 30t-104.5 32v73h525v-73q-68 -14 -103 -31t-35 -31v-991q0 -12 33 -29.5t105 -31.5v-73h-525zM462 1548q0 -37 -12.5 -69t-33.5 -56t-49.5 -38t-60.5 -14q-58 0 -88.5 31t-30.5 91q0 37 13 69t34.5 56t50 37.5 t59.5 13.5q56 0 87 -30t31 -91z" />
<glyph unicode="&#x131;" horiz-adv-x="615" d="M63 0v73q68 14 100 30.5t32 30.5v514q0 51 -1 82.5t-12.5 49t-38.5 25.5t-80 13v70q86 12 163 29.5t145 42.5h64v-826q0 -12 30 -29.5t103 -31.5v-73h-505z" />
<glyph unicode="&#x132;" horiz-adv-x="1355" d="M63 0v73q68 14 102.5 30.5t34.5 30.5v991q0 12 -32.5 30t-104.5 32v73h525v-73q-68 -14 -103 -31t-35 -31v-991q0 -12 33 -29.5t105 -31.5v-73h-525zM1293 1187q-68 -14 -103 -31t-35 -31v-942q0 -110 -22 -189t-56.5 -136t-76.5 -97t-81 -72q-27 -22 -60.5 -41.5 t-69.5 -34t-73 -23t-71 -8.5q-45 0 -88 10.5t-76.5 25.5t-54.5 31.5t-21 27.5t21 35.5t49 50.5t56 47.5t42 26.5q56 -48 103.5 -67.5t85.5 -19.5q26 0 51.5 12t46 50.5t33 109.5t12.5 189v1014q0 6 -6.5 13t-27 15t-57 16.5t-96.5 17.5v73h575v-73z" />
<glyph unicode="&#x133;" horiz-adv-x="1205" d="M63 0v73q68 14 100 30.5t32 30.5v514q0 51 -1 82.5t-12.5 49t-38.5 25.5t-80 13v70q86 12 163 29.5t145 42.5h64v-826q0 -12 30 -29.5t103 -31.5v-73h-505zM473 1261q0 -34 -13 -62t-35.5 -48t-53 -31t-66.5 -11q-28 0 -53 6.5t-43.5 20.5t-29.5 34.5t-11 49.5 q0 34 13 62t35.5 47.5t53 30.5t65.5 11q27 0 52 -6.5t44 -20t30.5 -34t11.5 -49.5zM1045 107q0 -116 -20.5 -195t-53 -134.5t-73 -93t-80.5 -69.5q-27 -21 -60 -40.5t-67.5 -34.5t-68 -24t-61.5 -9q-39 0 -80.5 10t-75.5 24.5t-56 30.5t-22 27q0 14 21.5 39t50 50t57 46 t43.5 28q16 -20 39 -35t47 -25.5t47.5 -16t42.5 -5.5q26 0 49.5 14.5t41.5 54t28.5 110.5t10.5 184v605q0 51 -1 82t-13 48.5t-39 25.5t-79 14v70q53 7 92.5 14.5t73.5 16t66.5 18.5t72.5 23h67v-853zM1086 1261q0 -34 -12.5 -62t-35 -48t-53 -31t-66.5 -11q-28 0 -53 6.5 t-44 20.5t-30 34.5t-11 49.5q0 34 13 62t36 47.5t53.5 30.5t65.5 11q27 0 52 -6.5t43.5 -20t30 -34t11.5 -49.5z" />
<glyph unicode="&#x139;" horiz-adv-x="1043" d="M1019 304q-4 -43 -9.5 -90.5t-11 -90t-11 -75.5t-9.5 -48h-935v73q68 14 102.5 30.5t34.5 30.5v991q0 12 -32.5 30t-104.5 32v73h525v-73q-68 -14 -103 -31t-35 -31v-931q0 -18 8.5 -31.5t29.5 -23t57 -14.5t91 -5h113q46 0 77.5 11t55.5 35.5t43.5 64.5t40.5 99z M366 1360q-17 8 -35.5 28t-32.5 39l365 340q23 -12 51 -28.5t53.5 -32t45.5 -29.5t28 -22l9 -52z" />
<glyph unicode="&#x13a;" horiz-adv-x="615" d="M53 0v73q43 7 70.5 14.5t43.5 15t22 15.5t6 16v1132q0 45 -5 70t-19 37.5t-40 17t-68 9.5v70q50 7 93 14.5t82 16.5t77 21t77 28l43 -41v-1375q0 -8 7 -15.5t23.5 -15.5t44 -15.5t68.5 -14.5v-73h-525zM183 1680q-17 8 -35.5 28t-32.5 39l365 340q23 -12 51 -28.5 t53.5 -32t45.5 -29.5t28 -22l9 -52z" />
<glyph unicode="&#x141;" horiz-adv-x="1043" d="M1019 304q-4 -43 -9.5 -90.5t-11 -90t-11 -75.5t-9.5 -48h-935v73q68 14 102.5 30.5t34.5 30.5v336l-128 -64l-27 22q2 15 7 33.5t11.5 37t13 34t12.5 24.5l111 56v512q0 12 -32.5 30t-104.5 32v73h525v-73q-68 -14 -103 -31t-35 -31v-387l285 144l26 -25 q-3 -15 -8 -32.5t-11 -34.5t-13 -32.5t-14 -26.5l-265 -134v-403q0 -18 8.5 -31.5t29.5 -23t57 -14.5t91 -5h113q46 0 77.5 11t55.5 35.5t43.5 64.5t40.5 99z" />
<glyph unicode="&#x142;" horiz-adv-x="650" d="M70 0v73q43 7 71 14.5t44 15t22 15.5t6 16v483l-151 -105l-26 21q2 16 7 37t11.5 42t13.5 40.5t13 32.5l132 91v498q0 45 -5 70t-19.5 37.5t-40.5 17t-68 9.5v70q50 7 93 14.5t82.5 16.5t77 21t76.5 28l44 -42v-573l152 107l25 -23q-2 -17 -7.5 -37.5t-12 -41t-14 -39.5 t-13.5 -32l-130 -92v-651q0 -8 7 -15.5t23.5 -15.5t43.5 -15.5t68 -14.5v-73h-525z" />
<glyph unicode="&#x143;" horiz-adv-x="1359" d="M43 0v73q73 9 105 28t32 33v980q-65 61 -137 73v73h279q15 0 24.5 -2.5t19.5 -10.5t21.5 -23.5t30.5 -41.5l612 -848v791q0 6 -6.5 14.5t-22 17t-42 16.5t-66.5 14v73h425v-73q-72 -10 -105 -29t-33 -33v-1155q-96 8 -154 37.5t-85 66.5l-611 846v-786q0 -6 7 -14.5 t23.5 -17t42.5 -16.5t65 -13v-73h-425zM548 1360q-17 8 -35.5 28t-32.5 39l365 340q23 -12 51 -28.5t53.5 -32t45.5 -29.5t28 -22l9 -52z" />
<glyph unicode="&#x144;" horiz-adv-x="1190" d="M663 0v73q72 19 102 33t30 28v454q0 55 -5.5 91.5t-17.5 58.5t-32 31t-50 9q-24 0 -51 -6.5t-59.5 -22t-72 -42.5t-87.5 -68v-505q0 -15 34 -31t99 -30v-73h-505v73q66 17 99 30.5t33 30.5v555q0 39 -1.5 62t-13.5 36t-39 19t-78 12v70q48 5 89.5 12t79.5 15.5t74 19.5 t72 25l42 -42l11 -144q117 100 218.5 143t179.5 43q43 0 83 -13.5t70.5 -44t49 -79.5t18.5 -119v-570q0 -7 6 -13.5t21 -13.5t41 -15.5t65 -18.5v-73h-505zM547 1040q-9 1 -21.5 6.5t-25.5 12t-23.5 13t-16.5 11.5l211 429q12 -1 44.5 -5.5t69.5 -10.5t70 -12.5t44 -9.5 l30 -54z" />
<glyph unicode="&#x147;" horiz-adv-x="1359" d="M43 0v73q73 9 105 28t32 33v980q-65 61 -137 73v73h279q15 0 24.5 -2.5t19.5 -10.5t21.5 -23.5t30.5 -41.5l612 -848v791q0 6 -6.5 14.5t-22 17t-42 16.5t-66.5 14v73h425v-73q-72 -10 -105 -29t-33 -33v-1155q-96 8 -154 37.5t-85 66.5l-611 846v-786q0 -6 7 -14.5 t23.5 -17t42.5 -16.5t65 -13v-73h-425zM749 1384h-137l-272 329q14 20 28.5 36.5t31.5 25.5l283 -188l277 188q17 -9 31.5 -25.5t26.5 -36.5z" />
<glyph unicode="&#x148;" horiz-adv-x="1190" d="M663 0v73q72 19 102 33t30 28v454q0 55 -5.5 91.5t-17.5 58.5t-32 31t-50 9q-24 0 -51 -6.5t-59.5 -22t-72 -42.5t-87.5 -68v-505q0 -15 34 -31t99 -30v-73h-505v73q66 17 99 30.5t33 30.5v555q0 39 -1.5 62t-13.5 36t-39 19t-78 12v70q48 5 89.5 12t79.5 15.5t74 19.5 t72 25l42 -42l11 -144q117 100 218.5 143t179.5 43q43 0 83 -13.5t70.5 -44t49 -79.5t18.5 -119v-570q0 -7 6 -13.5t21 -13.5t41 -15.5t65 -18.5v-73h-505zM671 1064h-137l-270 381q12 20 26.5 40t31.5 28l282 -218l278 218q17 -8 35 -28t32 -40z" />
<glyph unicode="&#x14a;" horiz-adv-x="1332" d="M1200 277q0 -104 -18 -186.5t-52.5 -150.5t-84 -125.5t-111.5 -110.5q-27 -22 -63 -44t-78.5 -39t-91 -28t-100.5 -11q-44 0 -95 12t-95 30t-73.5 38t-29.5 36q0 6 12 20t30.5 32.5t41.5 39t44.5 38.5t40 31t28.5 17q28 -27 56.5 -51t58.5 -42t62 -29t67 -11 q43 0 80 28.5t64 88t42 150t15 214.5v648q0 70 -7.5 114.5t-24 69t-43 33.5t-63.5 9q-29 0 -66.5 -11t-84.5 -40t-104.5 -79.5t-126.5 -129.5v-704q0 -12 36 -29.5t109 -31.5v-73h-533v73q68 14 103 30.5t35 30.5v866q0 39 -1.5 63.5t-13.5 39t-39 22t-78 12.5v73 q35 4 79.5 12t91 18.5t90.5 23t79 26.5l42 -42v-222q82 78 151.5 129t131 81t117 42t109.5 12q43 0 89 -13t84.5 -47.5t63 -94.5t24.5 -154v-704z" />
<glyph unicode="&#x14b;" horiz-adv-x="1150" d="M1035 111q0 -104 -16 -178t-45.5 -129.5t-70 -97t-88.5 -79.5q-27 -21 -62 -42.5t-75 -39t-84.5 -28t-91.5 -10.5q-51 0 -101 12.5t-89.5 30t-64.5 37t-25 34.5q0 12 24 38.5t56.5 55.5t65 53.5t49.5 31.5q23 -27 51 -50.5t56.5 -41.5t55 -28.5t47.5 -10.5q20 0 48.5 11 t55 48.5t45.5 110t19 196.5v553q0 55 -5.5 91.5t-17.5 58t-32 30.5t-50 9q-24 0 -51 -6t-59.5 -21.5t-72 -42.5t-87.5 -68v-505q0 -15 34 -31t99 -30v-73h-505v73q66 17 99 30.5t33 30.5v555q0 42 -3 65t-16 35.5t-39.5 17.5t-73.5 11v71q34 2 77 8.5t86.5 16t83.5 21.5 t68 26l42 -42l10 -145q117 100 219 143t180 43q49 0 89.5 -16.5t69.5 -47.5t45.5 -76t16.5 -101v-608z" />
<glyph unicode="&#x14c;" horiz-adv-x="1274" d="M946 629q0 103 -24.5 199t-69.5 170t-108 118t-140 44q-72 0 -127.5 -35.5t-93 -102t-56.5 -163t-19 -218.5q0 -112 26.5 -210t72 -170.5t106 -114t129.5 -41.5q66 0 121.5 32t96 97.5t63.5 164t23 230.5zM1198 647q0 -91 -22 -176t-61.5 -160.5t-94.5 -138t-122 -107.5 t-143 -70t-157 -25q-126 0 -227 53t-171 142t-107.5 205t-37.5 242q0 136 44.5 259t124 216t190 148t242.5 55t233 -54.5t170 -144.5t104 -206t35 -238zM1074 1587q-3 -11 -10.5 -29.5t-16.5 -38.5t-17 -37.5t-12 -26.5h-764l-32 32q3 11 10 29t16 37.5t17 37t13 27.5h764z " />
<glyph unicode="&#x14d;" horiz-adv-x="1075" d="M758 440q0 79 -16.5 150.5t-46.5 126t-72.5 86.5t-93.5 32q-62 0 -103 -27.5t-65 -76t-33.5 -115t-9.5 -143.5q0 -79 18.5 -148t50 -120t73 -80.5t87.5 -29.5q60 0 100 23t65 67t35.5 108t10.5 147zM1010 485q0 -67 -18 -131t-50.5 -121t-77.5 -105.5t-99.5 -83.5 t-117 -54.5t-128.5 -19.5q-103 0 -187 36t-143 99t-91.5 150t-32.5 189q0 99 36.5 192t102 165t156 115.5t198.5 43.5q102 0 185.5 -36t143 -99.5t91.5 -150.5t32 -189zM995 1307q-3 -11 -10.5 -29.5t-16.5 -38.5t-17 -37.5t-12 -26.5h-764l-32 32q3 11 10 29t16 37.5t17 37 t13 27.5h764z" />
<glyph unicode="&#x14e;" horiz-adv-x="1274" d="M946 629q0 103 -24.5 199t-69.5 170t-108 118t-140 44q-72 0 -127.5 -35.5t-93 -102t-56.5 -163t-19 -218.5q0 -112 26.5 -210t72 -170.5t106 -114t129.5 -41.5q66 0 121.5 32t96 97.5t63.5 164t23 230.5zM1198 647q0 -91 -22 -176t-61.5 -160.5t-94.5 -138t-122 -107.5 t-143 -70t-157 -25q-126 0 -227 53t-171 142t-107.5 205t-37.5 242q0 136 44.5 259t124 216t190 148t242.5 55t233 -54.5t170 -144.5t104 -206t35 -238zM993 1688q-30 -81 -70 -138.5t-86 -94.5t-96 -54.5t-101 -17.5q-55 0 -106.5 17.5t-97 54.5t-84.5 94.5t-69 138.5 q6 9 15.5 19t20 19.5t21 17t18.5 11.5q25 -46 59 -79.5t71.5 -56t76 -33.5t71.5 -11q35 0 74 11t76.5 33t71.5 56t59 80q9 -4 19.5 -11.5t21 -17t20 -19.5t15.5 -19z" />
<glyph unicode="&#x14f;" horiz-adv-x="1075" d="M758 440q0 79 -16.5 150.5t-46.5 126t-72.5 86.5t-93.5 32q-62 0 -103 -27.5t-65 -76t-33.5 -115t-9.5 -143.5q0 -79 18.5 -148t50 -120t73 -80.5t87.5 -29.5q60 0 100 23t65 67t35.5 108t10.5 147zM1010 485q0 -67 -18 -131t-50.5 -121t-77.5 -105.5t-99.5 -83.5 t-117 -54.5t-128.5 -19.5q-103 0 -187 36t-143 99t-91.5 150t-32.5 189q0 99 36.5 192t102 165t156 115.5t198.5 43.5q102 0 185.5 -36t143 -99.5t91.5 -150.5t32 -189zM914 1368q-30 -81 -70 -138.5t-86 -94.5t-96 -54.5t-101 -17.5q-55 0 -106.5 17.5t-97 54.5t-84.5 94.5 t-69 138.5q6 9 15.5 19t20 19.5t21 17t18.5 11.5q25 -46 59 -79.5t71.5 -56t76 -33.5t71.5 -11q35 0 74 11t76.5 33t71.5 56t59 80q9 -4 19.5 -11.5t21 -17t20 -19.5t15.5 -19z" />
<glyph unicode="&#x150;" horiz-adv-x="1274" d="M946 629q0 103 -24.5 199t-69.5 170t-108 118t-140 44q-72 0 -127.5 -35.5t-93 -102t-56.5 -163t-19 -218.5q0 -112 26.5 -210t72 -170.5t106 -114t129.5 -41.5q66 0 121.5 32t96 97.5t63.5 164t23 230.5zM1198 647q0 -91 -22 -176t-61.5 -160.5t-94.5 -138t-122 -107.5 t-143 -70t-157 -25q-126 0 -227 53t-171 142t-107.5 205t-37.5 242q0 136 44.5 259t124 216t190 148t242.5 55t233 -54.5t170 -144.5t104 -206t35 -238zM476 1360q-17 4 -42 17t-45 25l154 422q12 -2 36.5 -4.5t51 -6t50 -7t33.5 -7.5l30 -56zM797 1360q-17 4 -42.5 17 t-44.5 25l153 422q12 -2 36.5 -4.5t51 -6t50 -7t34.5 -7.5l29 -56z" />
<glyph unicode="&#x151;" horiz-adv-x="1075" d="M758 440q0 79 -16.5 150.5t-46.5 126t-72.5 86.5t-93.5 32q-62 0 -103 -27.5t-65 -76t-33.5 -115t-9.5 -143.5q0 -79 18.5 -148t50 -120t73 -80.5t87.5 -29.5q60 0 100 23t65 67t35.5 108t10.5 147zM1010 485q0 -67 -18 -131t-50.5 -121t-77.5 -105.5t-99.5 -83.5 t-117 -54.5t-128.5 -19.5q-103 0 -187 36t-143 99t-91.5 150t-32.5 189q0 99 36.5 192t102 165t156 115.5t198.5 43.5q102 0 185.5 -36t143 -99.5t91.5 -150.5t32 -189zM397 1040q-17 4 -42 17t-45 25l154 422q12 -2 36.5 -4.5t51 -6t50 -7t33.5 -7.5l30 -56zM718 1040 q-17 4 -42.5 17t-44.5 25l153 422q12 -2 36.5 -4.5t51 -6t50 -7t34.5 -7.5l29 -56z" />
<glyph unicode="&#x152;" horiz-adv-x="1726" d="M642 105q37 0 64.5 3t50.5 9.5t42.5 16.5t40.5 25v908q-47 48 -109 71t-127 23q-71 0 -126.5 -35.5t-93 -102.5t-57 -163.5t-19.5 -218.5q0 -112 26 -210t71 -170.5t106 -114t131 -41.5zM1679 304q-4 -43 -9 -90.5t-11 -90t-11.5 -75.5t-9.5 -48h-758q-53 -1 -87 -5.5 t-62.5 -10t-58.5 -10t-74 -4.5q-125 0 -225.5 53t-171 142t-108.5 205t-38 242q0 136 45 259t125.5 216t190.5 148t240 55q40 0 69 -4.5t54.5 -10t51 -10t58.5 -5.5h685l40 -32q-2 -26 -6 -65t-10 -80t-12.5 -77.5t-12.5 -55.5h-75q-5 93 -25 141.5t-57 48.5h-326v-405h387 l34 -35q-8 -14 -19.5 -33t-24 -38t-25 -35t-23.5 -24q-15 15 -32.5 25t-40 17t-53 10t-72.5 3h-131v-441q0 -15 5.5 -26.5t25.5 -20t58.5 -13t104.5 -4.5h99q46 0 78.5 11t57.5 35.5t45.5 64.5t41.5 99z" />
<glyph unicode="&#x153;" horiz-adv-x="1650" d="M1188 841q-85 0 -137 -68t-65 -193h334q22 0 30.5 7.5t8.5 28.5q0 27 -6 65.5t-24.5 74t-52 60.5t-88.5 25zM746 455q0 80 -17 149.5t-48 120.5t-74 80.5t-94 29.5q-54 0 -92.5 -25.5t-63.5 -72t-37 -111.5t-12 -145q0 -79 19.5 -149.5t52 -123t75 -83t88.5 -30.5 q54 0 92 26.5t63 74t36.5 113.5t11.5 146zM1585 550q-10 -10 -26 -22t-34.5 -23.5t-38 -21.5t-35.5 -16h-467q3 -69 20 -129t48.5 -104t77.5 -69t107 -25q28 0 56.5 4t62.5 17t75 36.5t94 61.5q6 -3 14.5 -12t16 -19.5t13.5 -19.5t8 -13q-66 -73 -121.5 -117.5t-106 -68.5 t-99.5 -31.5t-101 -7.5q-85 0 -165 44t-139 124q-67 -77 -156 -122.5t-191 -45.5q-94 0 -173.5 36t-137 99t-90 150t-32.5 189q0 66 16.5 130t47 121.5t74 106t97.5 83.5t117 55t133 20q101 0 186 -40.5t144 -112.5q37 40 85 73q45 31 110.5 55.5t140.5 24.5q71 0 126 -18.5 t96 -50t69 -73t45.5 -87t25 -92t7.5 -89.5z" />
<glyph unicode="&#x154;" horiz-adv-x="1239" d="M43 0v73q68 14 102.5 30.5t34.5 30.5v1023q-36 -5 -70.5 -9.5t-66.5 -9.5l-13 92q106 23 230.5 41.5t268.5 18.5q136 0 231.5 -23t156 -64t88 -96.5t27.5 -119.5q0 -69 -20.5 -126.5t-57 -104t-88 -81t-113.5 -55.5l315 -436q16 -21 30.5 -34t32 -19.5t41 -7.5t57.5 2 l15 -73q-33 -11 -74 -22.5t-81.5 -21.5t-75 -16t-53.5 -6q-29 0 -56.5 16t-41.5 39l-287 545q-10 -1 -20 -1h-19q-26 0 -52 2.5t-54 8.5v-462q0 -12 32.5 -29.5t105.5 -31.5v-73h-525zM485 1184q-13 0 -27 -0.5t-28 -1.5v-476q27 -5 47 -6t42 -1q135 0 198 68t63 189 q0 46 -14 87.5t-47.5 73t-90.5 49.5t-143 18zM427 1360q-17 8 -35.5 28t-32.5 39l365 340q23 -12 51 -28.5t53.5 -32t45.5 -29.5t28 -22l9 -52z" />
<glyph unicode="&#x155;" horiz-adv-x="909" d="M875 916q6 -4 6 -25.5t-4.5 -52.5t-12.5 -69t-17 -74t-19 -67t-18 -49h-73q-3 40 -12 76t-22.5 62.5t-33 42t-43.5 15.5q-20 0 -43.5 -7.5t-49.5 -29t-54.5 -61.5t-58.5 -106v-437q0 -15 41.5 -31t135.5 -30v-73h-549v73q132 30 132 61v530q0 33 -2 55.5t-5 36.5t-7.5 22 t-8.5 13q-7 7 -14.5 11.5t-19 7.5t-29.5 4.5t-46 3.5v70q55 8 95.5 15t75.5 15t68.5 18t75.5 24l42 -42l13 -145q27 39 61 73t72.5 59.5t80.5 40t85 14.5q38 0 79.5 -11.5t78.5 -32.5zM443 1040q-9 1 -21.5 6.5t-25.5 12t-23.5 13t-16.5 11.5l211 429q12 -1 44.5 -5.5 t69.5 -10.5t70 -12.5t44 -9.5l30 -54z" />
<glyph unicode="&#x158;" horiz-adv-x="1239" d="M43 0v73q68 14 102.5 30.5t34.5 30.5v1023q-36 -5 -70.5 -9.5t-66.5 -9.5l-13 92q106 23 230.5 41.5t268.5 18.5q136 0 231.5 -23t156 -64t88 -96.5t27.5 -119.5q0 -69 -20.5 -126.5t-57 -104t-88 -81t-113.5 -55.5l315 -436q16 -21 30.5 -34t32 -19.5t41 -7.5t57.5 2 l15 -73q-33 -11 -74 -22.5t-81.5 -21.5t-75 -16t-53.5 -6q-29 0 -56.5 16t-41.5 39l-287 545q-10 -1 -20 -1h-19q-26 0 -52 2.5t-54 8.5v-462q0 -12 32.5 -29.5t105.5 -31.5v-73h-525zM485 1184q-13 0 -27 -0.5t-28 -1.5v-476q27 -5 47 -6t42 -1q135 0 198 68t63 189 q0 46 -14 87.5t-47.5 73t-90.5 49.5t-143 18zM628 1384h-137l-272 329q14 20 28.5 36.5t31.5 25.5l283 -188l277 188q17 -9 31.5 -25.5t26.5 -36.5z" />
<glyph unicode="&#x159;" horiz-adv-x="909" d="M875 916q6 -4 6 -25.5t-4.5 -52.5t-12.5 -69t-17 -74t-19 -67t-18 -49h-73q-3 40 -12 76t-22.5 62.5t-33 42t-43.5 15.5q-20 0 -43.5 -7.5t-49.5 -29t-54.5 -61.5t-58.5 -106v-437q0 -15 41.5 -31t135.5 -30v-73h-549v73q132 30 132 61v530q0 33 -2 55.5t-5 36.5t-7.5 22 t-8.5 13q-7 7 -14.5 11.5t-19 7.5t-29.5 4.5t-46 3.5v70q55 8 95.5 15t75.5 15t68.5 18t75.5 24l42 -42l13 -145q27 39 61 73t72.5 59.5t80.5 40t85 14.5q38 0 79.5 -11.5t78.5 -32.5zM567 1064h-137l-270 381q12 20 26.5 40t31.5 28l282 -218l278 218q17 -8 35 -28t32 -40z " />
<glyph unicode="&#x15a;" horiz-adv-x="1050" d="M968 377q0 -45 -13.5 -92t-40.5 -92.5t-68 -86t-96.5 -70.5t-125 -48t-154.5 -18q-36 0 -82.5 7t-95 19.5t-95 30.5t-81.5 41q-5 2 -8 19.5t-4.5 44t-1 60t3 67.5t7 67t11.5 58l71 -5q23 -59 56 -108t74 -84t88 -54.5t98 -19.5q45 0 87 13t74 37.5t51.5 61t19.5 84.5 q0 61 -27 105.5t-71.5 79t-101 62.5t-116 55.5t-116 58t-101 71t-71.5 93.5t-27 126q0 47 26.5 104.5t82 107.5t142.5 84t208 34q54 0 106 -7t97 -19t79.5 -29t52.5 -37q5 -4 2.5 -18t-9 -33t-17 -41t-21.5 -42t-22 -36t-19 -23l-66 6q-22 47 -50.5 78.5t-60 50.5t-63.5 27 t-60 8q-50 0 -85.5 -13t-58.5 -35t-33.5 -49.5t-10.5 -55.5q0 -47 27.5 -83.5t72 -68t101.5 -59.5t117 -58t117 -65t101.5 -79t72 -101t27.5 -131zM403 1360q-17 8 -35.5 28t-32.5 39l365 340q23 -12 51 -28.5t53.5 -32t45.5 -29.5t28 -22l9 -52z" />
<glyph unicode="&#x15b;" horiz-adv-x="858" d="M782 283q0 -71 -21.5 -121.5t-56 -85.5t-77.5 -56t-87.5 -32t-85 -14.5t-69.5 -3.5q-32 0 -69.5 4.5t-76.5 13.5t-77.5 23t-71.5 32q-7 3 -10.5 35.5t-2.5 77.5t5.5 94t14.5 86l81 -11q10 -53 33 -96t55 -73t71.5 -46.5t82.5 -16.5q72 0 107 26t35 86q0 40 -20.5 72 t-54.5 59t-77 50.5t-89 47.5q-42 21 -83.5 46.5t-74.5 57t-54 69.5t-21 86q0 62 30.5 111.5t80.5 84t114 53t132 18.5q43 0 86.5 -5.5t83.5 -15.5t74 -24t57 -32q6 -5 2.5 -33.5t-13 -64t-22.5 -69.5t-25 -50l-69 8q-25 88 -72 134.5t-113 46.5q-60 0 -93 -27.5t-33 -69.5 q0 -32 16 -57t45.5 -47t72 -44.5t95.5 -50.5q43 -22 87 -47t79 -57.5t57 -74t22 -97.5zM369 1040q-9 1 -21.5 6.5t-25.5 12t-23.5 13t-16.5 11.5l211 429q12 -1 44.5 -5.5t69.5 -10.5t70 -12.5t44 -9.5l30 -54z" />
<glyph unicode="&#x15c;" horiz-adv-x="1050" d="M968 377q0 -45 -13.5 -92t-40.5 -92.5t-68 -86t-96.5 -70.5t-125 -48t-154.5 -18q-36 0 -82.5 7t-95 19.5t-95 30.5t-81.5 41q-5 2 -8 19.5t-4.5 44t-1 60t3 67.5t7 67t11.5 58l71 -5q23 -59 56 -108t74 -84t88 -54.5t98 -19.5q45 0 87 13t74 37.5t51.5 61t19.5 84.5 q0 61 -27 105.5t-71.5 79t-101 62.5t-116 55.5t-116 58t-101 71t-71.5 93.5t-27 126q0 47 26.5 104.5t82 107.5t142.5 84t208 34q54 0 106 -7t97 -19t79.5 -29t52.5 -37q5 -4 2.5 -18t-9 -33t-17 -41t-21.5 -42t-22 -36t-19 -23l-66 6q-22 47 -50.5 78.5t-60 50.5t-63.5 27 t-60 8q-50 0 -85.5 -13t-58.5 -35t-33.5 -49.5t-10.5 -55.5q0 -47 27.5 -83.5t72 -68t101.5 -59.5t117 -58t117 -65t101.5 -79t72 -101t27.5 -131zM873 1420q-12 -19 -26.5 -35.5t-31.5 -24.5l-281 163l-279 -163q-17 8 -31.5 24.5t-28.5 35.5l279 324h122z" />
<glyph unicode="&#x15d;" horiz-adv-x="858" d="M782 283q0 -71 -21.5 -121.5t-56 -85.5t-77.5 -56t-87.5 -32t-85 -14.5t-69.5 -3.5q-32 0 -69.5 4.5t-76.5 13.5t-77.5 23t-71.5 32q-7 3 -10.5 35.5t-2.5 77.5t5.5 94t14.5 86l81 -11q10 -53 33 -96t55 -73t71.5 -46.5t82.5 -16.5q72 0 107 26t35 86q0 40 -20.5 72 t-54.5 59t-77 50.5t-89 47.5q-42 21 -83.5 46.5t-74.5 57t-54 69.5t-21 86q0 62 30.5 111.5t80.5 84t114 53t132 18.5q43 0 86.5 -5.5t83.5 -15.5t74 -24t57 -32q6 -5 2.5 -33.5t-13 -64t-22.5 -69.5t-25 -50l-69 8q-25 88 -72 134.5t-113 46.5q-60 0 -93 -27.5t-33 -69.5 q0 -32 16 -57t45.5 -47t72 -44.5t95.5 -50.5q43 -22 87 -47t79 -57.5t57 -74t22 -97.5zM768 1107q-12 -19 -26.5 -39t-31.5 -28l-281 223l-279 -223q-17 8 -35 28t-32 39l279 387h137z" />
<glyph unicode="&#x160;" horiz-adv-x="1050" d="M968 377q0 -45 -13.5 -92t-40.5 -92.5t-68 -86t-96.5 -70.5t-125 -48t-154.5 -18q-36 0 -82.5 7t-95 19.5t-95 30.5t-81.5 41q-5 2 -8 19.5t-4.5 44t-1 60t3 67.5t7 67t11.5 58l71 -5q23 -59 56 -108t74 -84t88 -54.5t98 -19.5q45 0 87 13t74 37.5t51.5 61t19.5 84.5 q0 61 -27 105.5t-71.5 79t-101 62.5t-116 55.5t-116 58t-101 71t-71.5 93.5t-27 126q0 47 26.5 104.5t82 107.5t142.5 84t208 34q54 0 106 -7t97 -19t79.5 -29t52.5 -37q5 -4 2.5 -18t-9 -33t-17 -41t-21.5 -42t-22 -36t-19 -23l-66 6q-22 47 -50.5 78.5t-60 50.5t-63.5 27 t-60 8q-50 0 -85.5 -13t-58.5 -35t-33.5 -49.5t-10.5 -55.5q0 -47 27.5 -83.5t72 -68t101.5 -59.5t117 -58t117 -65t101.5 -79t72 -101t27.5 -131zM604 1384h-137l-272 329q14 20 28.5 36.5t31.5 25.5l283 -188l277 188q17 -9 31.5 -25.5t26.5 -36.5z" />
<glyph unicode="&#x161;" horiz-adv-x="858" d="M782 283q0 -71 -21.5 -121.5t-56 -85.5t-77.5 -56t-87.5 -32t-85 -14.5t-69.5 -3.5q-32 0 -69.5 4.5t-76.5 13.5t-77.5 23t-71.5 32q-7 3 -10.5 35.5t-2.5 77.5t5.5 94t14.5 86l81 -11q10 -53 33 -96t55 -73t71.5 -46.5t82.5 -16.5q72 0 107 26t35 86q0 40 -20.5 72 t-54.5 59t-77 50.5t-89 47.5q-42 21 -83.5 46.5t-74.5 57t-54 69.5t-21 86q0 62 30.5 111.5t80.5 84t114 53t132 18.5q43 0 86.5 -5.5t83.5 -15.5t74 -24t57 -32q6 -5 2.5 -33.5t-13 -64t-22.5 -69.5t-25 -50l-69 8q-25 88 -72 134.5t-113 46.5q-60 0 -93 -27.5t-33 -69.5 q0 -32 16 -57t45.5 -47t72 -44.5t95.5 -50.5q43 -22 87 -47t79 -57.5t57 -74t22 -97.5zM493 1064h-137l-270 381q12 20 26.5 40t31.5 28l282 -218l278 218q17 -8 35 -28t32 -40z" />
<glyph unicode="&#x164;" horiz-adv-x="1188" d="M300 0v73q46 9 76 19t48 19.5t25 18t7 15.5v995h-254q-15 0 -28.5 -10.5t-27.5 -35.5t-31 -65t-39 -98l-73 27q2 29 6.5 70t10.5 84t12 82.5t11 65.5h1070l38 -32q-1 -26 -4.5 -62t-9 -76t-12 -79.5t-12.5 -70.5h-75q-10 46 -16.5 83.5t-14.5 63t-20.5 39.5t-33.5 14 h-247v-995q0 -6 7 -14.5t25 -18.5t48.5 -20t76.5 -19v-73h-563zM645 1384h-137l-272 329q14 20 28.5 36.5t31.5 25.5l283 -188l277 188q17 -9 31.5 -25.5t26.5 -36.5z" />
<glyph unicode="&#x168;" horiz-adv-x="1369" d="M1313 1187q-68 -14 -103 -31t-35 -31v-601q0 -131 -36.5 -234t-102.5 -174t-156.5 -108.5t-198.5 -37.5q-103 0 -194 28.5t-159.5 87t-108 147.5t-39.5 211v681q0 12 -32.5 30t-104.5 32v73h525v-73q-68 -14 -103 -31t-35 -31v-616q0 -96 17 -169.5t54 -123.5t96.5 -75.5 t145.5 -25.5q71 0 120 32t79.5 85t44 122.5t13.5 143.5v627q0 12 -32.5 30t-104.5 32v73h450v-73zM1086 1657q-18 -41 -44 -89.5t-59 -90.5t-73.5 -70.5t-86.5 -28.5q-43 0 -82 16.5t-76 36t-73.5 36t-74.5 16.5q-23 0 -41 -7.5t-34.5 -22t-33 -36t-34.5 -49.5l-75 28 q18 41 43.5 90t58.5 91.5t73 71t86 28.5t87.5 -16.5t79 -36t71.5 -36t66 -16.5q45 0 78 28t67 87z" />
<glyph unicode="&#x169;" horiz-adv-x="1153" d="M1144 112q-37 -24 -81.5 -49t-86 -46t-74 -34t-44.5 -13q-18 0 -34.5 6.5t-31 25t-25.5 51t-17 83.5q-62 -54 -111.5 -86.5t-90 -50.5t-74.5 -23.5t-66 -5.5q-47 0 -92 13t-81 47.5t-58 94.5t-22 154v410q0 48 -1.5 74.5t-13 40t-36 18.5t-70.5 10v70q50 4 91.5 9 t79.5 11.5t75.5 15.5t79.5 22l35 -46v-572q0 -62 7.5 -101t22.5 -60.5t36.5 -29.5t49.5 -8q21 0 45.5 5t54 18.5t64 36.5t75.5 59v427q0 45 -3.5 72t-16.5 42t-39.5 21t-72.5 8v70q100 9 181.5 24.5t153.5 33.5l37 -46v-630q0 -31 1 -51.5t3.5 -34t7 -21.5t11.5 -13 q12 -8 33.5 -3.5t72.5 26.5zM971 1377q-18 -41 -44 -89.5t-59 -90.5t-73.5 -70.5t-86.5 -28.5q-43 0 -82 16.5t-76 36t-73.5 36t-74.5 16.5q-23 0 -41 -7.5t-34.5 -22t-33 -36t-34.5 -49.5l-75 28q18 41 43.5 90t58.5 91.5t73 71t86 28.5t87.5 -16.5t79 -36t71.5 -36 t66 -16.5q45 0 78 28t67 87z" />
<glyph unicode="&#x16a;" horiz-adv-x="1369" d="M1313 1187q-68 -14 -103 -31t-35 -31v-601q0 -131 -36.5 -234t-102.5 -174t-156.5 -108.5t-198.5 -37.5q-103 0 -194 28.5t-159.5 87t-108 147.5t-39.5 211v681q0 12 -32.5 30t-104.5 32v73h525v-73q-68 -14 -103 -31t-35 -31v-616q0 -96 17 -169.5t54 -123.5t96.5 -75.5 t145.5 -25.5q71 0 120 32t79.5 85t44 122.5t13.5 143.5v627q0 12 -32.5 30t-104.5 32v73h450v-73zM1128 1587q-3 -11 -10.5 -29.5t-16.5 -38.5t-17 -37.5t-12 -26.5h-764l-32 32q3 11 10 29t16 37.5t17 37t13 27.5h764z" />
<glyph unicode="&#x16b;" horiz-adv-x="1153" d="M1144 112q-37 -24 -81.5 -49t-86 -46t-74 -34t-44.5 -13q-18 0 -34.5 6.5t-31 25t-25.5 51t-17 83.5q-62 -54 -111.5 -86.5t-90 -50.5t-74.5 -23.5t-66 -5.5q-47 0 -92 13t-81 47.5t-58 94.5t-22 154v410q0 48 -1.5 74.5t-13 40t-36 18.5t-70.5 10v70q50 4 91.5 9 t79.5 11.5t75.5 15.5t79.5 22l35 -46v-572q0 -62 7.5 -101t22.5 -60.5t36.5 -29.5t49.5 -8q21 0 45.5 5t54 18.5t64 36.5t75.5 59v427q0 45 -3.5 72t-16.5 42t-39.5 21t-72.5 8v70q100 9 181.5 24.5t153.5 33.5l37 -46v-630q0 -31 1 -51.5t3.5 -34t7 -21.5t11.5 -13 q12 -8 33.5 -3.5t72.5 26.5zM1013 1307q-3 -11 -10.5 -29.5t-16.5 -38.5t-17 -37.5t-12 -26.5h-764l-32 32q3 11 10 29t16 37.5t17 37t13 27.5h764z" />
<glyph unicode="&#x16c;" horiz-adv-x="1369" d="M1313 1187q-68 -14 -103 -31t-35 -31v-601q0 -131 -36.5 -234t-102.5 -174t-156.5 -108.5t-198.5 -37.5q-103 0 -194 28.5t-159.5 87t-108 147.5t-39.5 211v681q0 12 -32.5 30t-104.5 32v73h525v-73q-68 -14 -103 -31t-35 -31v-616q0 -96 17 -169.5t54 -123.5t96.5 -75.5 t145.5 -25.5q71 0 120 32t79.5 85t44 122.5t13.5 143.5v627q0 12 -32.5 30t-104.5 32v73h450v-73zM1047 1688q-30 -81 -70 -138.5t-86 -94.5t-96 -54.5t-101 -17.5q-55 0 -106.5 17.5t-97 54.5t-84.5 94.5t-69 138.5q6 9 15.5 19t20 19.5t21 17t18.5 11.5q25 -46 59 -79.5 t71.5 -56t76 -33.5t71.5 -11q35 0 74 11t76.5 33t71.5 56t59 80q9 -4 19.5 -11.5t21 -17t20 -19.5t15.5 -19z" />
<glyph unicode="&#x16d;" horiz-adv-x="1153" d="M1144 112q-37 -24 -81.5 -49t-86 -46t-74 -34t-44.5 -13q-18 0 -34.5 6.5t-31 25t-25.5 51t-17 83.5q-62 -54 -111.5 -86.5t-90 -50.5t-74.5 -23.5t-66 -5.5q-47 0 -92 13t-81 47.5t-58 94.5t-22 154v410q0 48 -1.5 74.5t-13 40t-36 18.5t-70.5 10v70q50 4 91.5 9 t79.5 11.5t75.5 15.5t79.5 22l35 -46v-572q0 -62 7.5 -101t22.5 -60.5t36.5 -29.5t49.5 -8q21 0 45.5 5t54 18.5t64 36.5t75.5 59v427q0 45 -3.5 72t-16.5 42t-39.5 21t-72.5 8v70q100 9 181.5 24.5t153.5 33.5l37 -46v-630q0 -31 1 -51.5t3.5 -34t7 -21.5t11.5 -13 q12 -8 33.5 -3.5t72.5 26.5zM932 1368q-30 -81 -70 -138.5t-86 -94.5t-96 -54.5t-101 -17.5q-55 0 -106.5 17.5t-97 54.5t-84.5 94.5t-69 138.5q6 9 15.5 19t20 19.5t21 17t18.5 11.5q25 -46 59 -79.5t71.5 -56t76 -33.5t71.5 -11q35 0 74 11t76.5 33t71.5 56t59 80 q9 -4 19.5 -11.5t21 -17t20 -19.5t15.5 -19z" />
<glyph unicode="&#x16e;" horiz-adv-x="1369" d="M1313 1187q-68 -14 -103 -31t-35 -31v-601q0 -131 -36.5 -234t-102.5 -174t-156.5 -108.5t-198.5 -37.5q-103 0 -194 28.5t-159.5 87t-108 147.5t-39.5 211v681q0 12 -32.5 30t-104.5 32v73h525v-73q-68 -14 -103 -31t-35 -31v-616q0 -96 17 -169.5t54 -123.5t96.5 -75.5 t145.5 -25.5q71 0 120 32t79.5 85t44 122.5t13.5 143.5v627q0 12 -32.5 30t-104.5 32v73h450v-73zM765 1563q0 48 -20 73.5t-43 25.5q-21 0 -36.5 -8.5t-26 -22t-16 -31t-5.5 -35.5q0 -46 20.5 -71t43.5 -25q40 0 61.5 27t21.5 67zM900 1604q0 -53 -20 -100t-53.5 -81.5 t-76.5 -54.5t-89 -20q-39 0 -72 12.5t-56.5 35.5t-36.5 55.5t-13 72.5q0 54 20 101t53 82.5t76.5 55.5t90.5 20q40 0 73 -13.5t56 -37t35.5 -56.5t12.5 -72z" />
<glyph unicode="&#x16f;" horiz-adv-x="1153" d="M1144 112q-37 -24 -81.5 -49t-86 -46t-74 -34t-44.5 -13q-18 0 -34.5 6.5t-31 25t-25.5 51t-17 83.5q-62 -54 -111.5 -86.5t-90 -50.5t-74.5 -23.5t-66 -5.5q-47 0 -92 13t-81 47.5t-58 94.5t-22 154v410q0 48 -1.5 74.5t-13 40t-36 18.5t-70.5 10v70q50 4 91.5 9 t79.5 11.5t75.5 15.5t79.5 22l35 -46v-572q0 -62 7.5 -101t22.5 -60.5t36.5 -29.5t49.5 -8q21 0 45.5 5t54 18.5t64 36.5t75.5 59v427q0 45 -3.5 72t-16.5 42t-39.5 21t-72.5 8v70q100 9 181.5 24.5t153.5 33.5l37 -46v-630q0 -31 1 -51.5t3.5 -34t7 -21.5t11.5 -13 q12 -8 33.5 -3.5t72.5 26.5zM650 1243q0 48 -20 73.5t-43 25.5q-21 0 -36.5 -8.5t-26 -22t-16 -31t-5.5 -35.5q0 -46 20.5 -71t43.5 -25q40 0 61.5 27t21.5 67zM785 1284q0 -53 -20 -100t-53.5 -81.5t-76.5 -54.5t-89 -20q-39 0 -72 12.5t-56.5 35.5t-36.5 55.5t-13 72.5 q0 54 20 101t53 82.5t76.5 55.5t90.5 20q40 0 73 -13.5t56 -37t35.5 -56.5t12.5 -72z" />
<glyph unicode="&#x170;" horiz-adv-x="1369" d="M1313 1187q-68 -14 -103 -31t-35 -31v-601q0 -131 -36.5 -234t-102.5 -174t-156.5 -108.5t-198.5 -37.5q-103 0 -194 28.5t-159.5 87t-108 147.5t-39.5 211v681q0 12 -32.5 30t-104.5 32v73h525v-73q-68 -14 -103 -31t-35 -31v-616q0 -96 17 -169.5t54 -123.5t96.5 -75.5 t145.5 -25.5q71 0 120 32t79.5 85t44 122.5t13.5 143.5v627q0 12 -32.5 30t-104.5 32v73h450v-73zM530 1360q-17 4 -42 17t-45 25l154 422q12 -2 36.5 -4.5t51 -6t50 -7t33.5 -7.5l30 -56zM851 1360q-17 4 -42.5 17t-44.5 25l153 422q12 -2 36.5 -4.5t51 -6t50 -7t34.5 -7.5 l29 -56z" />
<glyph unicode="&#x171;" horiz-adv-x="1153" d="M1144 112q-37 -24 -81.5 -49t-86 -46t-74 -34t-44.5 -13q-18 0 -34.5 6.5t-31 25t-25.5 51t-17 83.5q-62 -54 -111.5 -86.5t-90 -50.5t-74.5 -23.5t-66 -5.5q-47 0 -92 13t-81 47.5t-58 94.5t-22 154v410q0 48 -1.5 74.5t-13 40t-36 18.5t-70.5 10v70q50 4 91.5 9 t79.5 11.5t75.5 15.5t79.5 22l35 -46v-572q0 -62 7.5 -101t22.5 -60.5t36.5 -29.5t49.5 -8q21 0 45.5 5t54 18.5t64 36.5t75.5 59v427q0 45 -3.5 72t-16.5 42t-39.5 21t-72.5 8v70q100 9 181.5 24.5t153.5 33.5l37 -46v-630q0 -31 1 -51.5t3.5 -34t7 -21.5t11.5 -13 q12 -8 33.5 -3.5t72.5 26.5zM415 1040q-17 4 -42 17t-45 25l154 422q12 -2 36.5 -4.5t51 -6t50 -7t33.5 -7.5l30 -56zM736 1040q-17 4 -42.5 17t-44.5 25l153 422q12 -2 36.5 -4.5t51 -6t50 -7t34.5 -7.5l29 -56z" />
<glyph unicode="&#x174;" horiz-adv-x="1741" d="M1732 1187q-44 -9 -73 -17t-46 -15.5t-24.5 -14.5t-8.5 -15l-229 -1066q-5 -21 -22.5 -36.5t-40 -26t-45.5 -17t-38 -9.5l-341 907l-287 -818q-7 -21 -25 -36t-41 -25.5t-48 -17t-45 -10.5l-260 1147q-5 25 -36 41t-102 29v73h489v-73q-49 -5 -76 -12.5t-39 -16.5 t-13.5 -19.5t0.5 -21.5l171 -732l292 875h100l335 -875l161 740q2 12 -9 21t-32 16t-50 13t-63 12v73h446v-73zM1214 1420q-12 -19 -26.5 -35.5t-31.5 -24.5l-281 163l-279 -163q-17 8 -31.5 24.5t-28.5 35.5l279 324h122z" />
<glyph unicode="&#x175;" horiz-adv-x="1469" d="M1455 857q-28 -7 -45.5 -13.5t-28.5 -13t-16.5 -15t-9.5 -20.5l-221 -736q-6 -22 -24.5 -37.5t-41 -26t-44 -16.5t-34.5 -9l-255 584l-203 -495q-8 -23 -26 -38.5t-39 -26t-42 -16t-34 -8.5l-269 825q-6 18 -32.5 34.5t-76.5 27.5v73h453v-73q-43 -5 -67 -11.5t-34.5 -15 t-11 -17.5t2.5 -18l150 -472l239 607h77l251 -607l144 472q4 11 3.5 20t-9 16.5t-28 13.5t-53.5 12v73h325v-73zM1100 1107q-12 -19 -26.5 -39t-31.5 -28l-281 223l-279 -223q-17 8 -35 28t-32 39l279 387h137z" />
<glyph unicode="&#x176;" horiz-adv-x="1255" d="M345 0v73q45 9 75.5 19t48.5 19.5t25.5 18t7.5 15.5v384q-36 80 -81 165t-91 164.5t-90 147.5t-79 115q-9 11 -19 20t-27 15t-43 9.5t-68 3.5l-4 73q29 4 66.5 9t74.5 9t69.5 7t53.5 3q28 0 56 -12t45 -34q37 -50 77.5 -114t82 -136t81 -147.5t74.5 -147.5l234 442 q15 26 -9.5 41t-101.5 25v73h418v-73q-68 -13 -101 -27t-47 -39l-321 -598v-378q0 -6 7 -14.5t25 -18.5t48.5 -20t77.5 -19v-73h-565zM965 1420q-12 -19 -26.5 -35.5t-31.5 -24.5l-281 163l-279 -163q-17 8 -31.5 24.5t-28.5 35.5l279 324h122z" />
<glyph unicode="&#x177;" horiz-adv-x="1040" d="M1027 857q-30 -7 -49 -13t-31 -13.5t-18.5 -17t-11.5 -24.5l-334 -864q-43 -110 -93 -189t-106 -130t-117 -75t-125 -24q-38 0 -75 7t-65.5 17.5t-46 22.5t-17.5 21t17 34.5t40.5 54.5t48.5 55t41 36q50 -32 100.5 -39.5t87.5 6.5q37 13 79.5 56.5t77.5 129.5l29 69 l-335 812q-11 27 -36 42t-75 26v73h453v-73q-39 -5 -60 -10.5t-30 -13t-8 -18t8 -26.5l206 -502l196 502q6 15 7.5 25.5t-6 18t-26.5 13t-53 11.5v73h327v-73zM883 1107q-12 -19 -26.5 -39t-31.5 -28l-281 223l-279 -223q-17 8 -35 28t-32 39l279 387h137z" />
<glyph unicode="&#x178;" horiz-adv-x="1255" d="M345 0v73q45 9 75.5 19t48.5 19.5t25.5 18t7.5 15.5v384q-36 80 -81 165t-91 164.5t-90 147.5t-79 115q-9 11 -19 20t-27 15t-43 9.5t-68 3.5l-4 73q29 4 66.5 9t74.5 9t69.5 7t53.5 3q28 0 56 -12t45 -34q37 -50 77.5 -114t82 -136t81 -147.5t74.5 -147.5l234 442 q15 26 -9.5 41t-101.5 25v73h418v-73q-68 -13 -101 -27t-47 -39l-321 -598v-378q0 -6 7 -14.5t25 -18.5t48.5 -20t77.5 -19v-73h-565zM976 1548q0 -37 -12.5 -69t-34 -56t-50 -38t-60.5 -14q-58 0 -88 31t-30 91q0 37 13 69t34.5 56t49.5 37.5t59 13.5q56 0 87.5 -30 t31.5 -91zM553 1548q0 -37 -12.5 -69t-33.5 -56t-49.5 -38t-60.5 -14q-58 0 -88.5 31t-30.5 91q0 37 13 69t34.5 56t50 37.5t58.5 13.5q57 0 88 -30t31 -91z" />
<glyph unicode="&#x179;" horiz-adv-x="1116" d="M1044 353q-2 -32 -3.5 -80.5t-3 -99t-3 -97.5t-2.5 -76h-944l-36 53l673 1077h-391q-16 0 -36 -17t-39.5 -48t-37 -74t-28.5 -95l-87 19l37 361q27 -6 49.5 -9.5t44 -5t44.5 -1.5h720l33 -50l-668 -1080h456q21 0 38 15t32.5 46t31.5 76.5t35 107.5zM447 1360 q-17 8 -35.5 28t-32.5 39l365 340q23 -12 51 -28.5t53.5 -32t45.5 -29.5t28 -22l9 -52z" />
<glyph unicode="&#x17a;" horiz-adv-x="959" d="M882 331q0 -21 -0.5 -50.5t-1 -62.5t-1.5 -66.5t-2.5 -63.5t-3 -53t-3.5 -35h-783l-26 45l529 765h-260q-44 0 -82.5 -50t-64.5 -160l-71 20l25 326q22 -6 40 -9.5t37.5 -5t42.5 -1.5h616l22 -43l-531 -767h343q18 0 31.5 15.5t25 45t23 71.5t25.5 96zM448 1040 q-9 1 -21.5 6.5t-25.5 12t-23.5 13t-16.5 11.5l211 429q12 -1 44.5 -5.5t69.5 -10.5t70 -12.5t44 -9.5l30 -54z" />
<glyph unicode="&#x17b;" horiz-adv-x="1116" d="M1044 353q-2 -32 -3.5 -80.5t-3 -99t-3 -97.5t-2.5 -76h-944l-36 53l673 1077h-391q-16 0 -36 -17t-39.5 -48t-37 -74t-28.5 -95l-87 19l37 361q27 -6 49.5 -9.5t44 -5t44.5 -1.5h720l33 -50l-668 -1080h456q21 0 38 15t32.5 46t31.5 76.5t35 107.5zM716 1548 q0 -37 -12.5 -69t-33.5 -56t-49.5 -38t-60.5 -14q-58 0 -88.5 31t-30.5 91q0 37 13 69t34.5 56t50 37.5t59.5 13.5q56 0 87 -30t31 -91z" />
<glyph unicode="&#x17c;" horiz-adv-x="959" d="M882 331q0 -21 -0.5 -50.5t-1 -62.5t-1.5 -66.5t-2.5 -63.5t-3 -53t-3.5 -35h-783l-26 45l529 765h-260q-44 0 -82.5 -50t-64.5 -160l-71 20l25 326q22 -6 40 -9.5t37.5 -5t42.5 -1.5h616l22 -43l-531 -767h343q18 0 31.5 15.5t25 45t23 71.5t25.5 96zM645 1268 q0 -37 -12.5 -69t-33.5 -56t-49.5 -38t-60.5 -14q-58 0 -88.5 31t-30.5 91q0 37 13 69t34.5 56t50 37.5t59.5 13.5q56 0 87 -30t31 -91z" />
<glyph unicode="&#x17d;" horiz-adv-x="1116" d="M1044 353q-2 -32 -3.5 -80.5t-3 -99t-3 -97.5t-2.5 -76h-944l-36 53l673 1077h-391q-16 0 -36 -17t-39.5 -48t-37 -74t-28.5 -95l-87 19l37 361q27 -6 49.5 -9.5t44 -5t44.5 -1.5h720l33 -50l-668 -1080h456q21 0 38 15t32.5 46t31.5 76.5t35 107.5zM648 1384h-137 l-272 329q14 20 28.5 36.5t31.5 25.5l283 -188l277 188q17 -9 31.5 -25.5t26.5 -36.5z" />
<glyph unicode="&#x17e;" horiz-adv-x="959" d="M882 331q0 -21 -0.5 -50.5t-1 -62.5t-1.5 -66.5t-2.5 -63.5t-3 -53t-3.5 -35h-783l-26 45l529 765h-260q-44 0 -82.5 -50t-64.5 -160l-71 20l25 326q22 -6 40 -9.5t37.5 -5t42.5 -1.5h616l22 -43l-531 -767h343q18 0 31.5 15.5t25 45t23 71.5t25.5 96zM572 1064h-137 l-270 381q12 20 26.5 40t31.5 28l282 -218l278 218q17 -8 35 -28t32 -40z" />
<glyph unicode="&#x181;" horiz-adv-x="1514" d="M979 1129q-16 13 -35.5 23t-49.5 17t-74 10.5t-107 4.5v-444h19q102 0 164 20t95.5 52.5t44.5 74t11 84.5q0 49 -16.5 88t-51.5 70zM848 634q-38 0 -71.5 -4t-63.5 -10v-486q0 -5 8 -15q58 -26 136 -26q145 0 219 65.5t74 178.5q0 55 -14.5 108.5t-49.5 95.5t-93 67.5 t-145 25.5zM23 973q0 73 41.5 132t128.5 100t220.5 63t318.5 22q85 0 155 -4.5t126.5 -15t101 -27t80.5 -40.5q45 -30 75 -78t30 -105q0 -108 -56 -182.5t-171 -114.5q76 -15 138.5 -48t106.5 -81t68.5 -108.5t24.5 -129.5q0 -85 -35 -153.5t-102 -116.5t-163 -74t-217 -26 q-22 0 -55.5 0.5t-72.5 1.5t-82 2t-85 3q-98 3 -208 7h-66v73q68 14 103 30.5t35 30.5v1031q-87 -18 -136.5 -54.5t-49.5 -96.5q0 -43 22.5 -79t53.5 -50q-3 -6 -32.5 -21.5t-68.5 -32.5t-77.5 -31.5t-59.5 -18.5q-18 8 -35 26.5t-29.5 44.5t-20 57t-7.5 64z" />
<glyph unicode="&#x186;" horiz-adv-x="1136" d="M1071 678q0 -158 -45 -288t-125.5 -223.5t-191.5 -145t-243 -51.5q-111 0 -190.5 29t-130.5 75t-75 102.5t-24 112.5q0 21 3 44.5t10 47.5t18.5 47t28.5 42q22 12 55.5 26t68 27.5t65.5 25t49 17.5l35 -79q-29 -17 -46.5 -35.5t-27.5 -40t-13.5 -45.5t-3.5 -52 q0 -38 17 -73.5t47.5 -63.5t73 -45t93.5 -17q58 0 112.5 24.5t95.5 84.5t66 161.5t25 255.5q0 133 -34 226.5t-89 152.5t-124.5 86.5t-141.5 27.5q-27 0 -60.5 -5t-75 -19t-92 -39t-110.5 -65q-5 2 -13 12t-15.5 21.5t-14 21.5t-8.5 13q67 64 134.5 106t131 66.5t122 34 t109.5 9.5q104 0 200.5 -41t170.5 -119.5t118.5 -192.5t44.5 -259z" />
<glyph unicode="&#x189;" horiz-adv-x="1304" d="M1221 676q0 -125 -25.5 -223.5t-69.5 -174t-103 -128t-126 -86t-138.5 -49t-139.5 -15.5h-576v73q68 14 102.5 30.5t34.5 30.5v481h-130l-22 24q2 7 6.5 20t9.5 27.5t9.5 27.5t7.5 21h119v422l-137 -19l-13 92q49 12 116.5 23t142 19.5t149.5 13t140 4.5q153 0 273 -41.5 t202 -120.5t125 -193t43 -259zM506 1184q-18 0 -37 -0.5t-39 -1.5v-447h241l25 -23l-36 -97h-230v-448q0 -7 2 -14q3 -11 11 -19.5t25 -14.5t44.5 -9t69.5 -3q38 0 80.5 13t84 41t79 70.5t65.5 101.5t45 134.5t17 169.5q0 133 -29 235t-85.5 171.5t-140 105t-192.5 35.5z " />
<glyph unicode="&#x18a;" horiz-adv-x="1587" d="M1101 1064q-27 30 -61.5 52.5t-81.5 37t-107 22t-138 8.5v-1000q0 -28 20 -48q35 -29 132 -29q55 0 119.5 30t120.5 94.5t93.5 164.5t37.5 241q0 68 -7 126.5t-22.5 110.5t-41.5 99t-64 91zM23 973q0 76 42.5 135t133 99.5t232.5 61.5t340 21q85 0 155 -5t127 -15.5 t102.5 -27t83.5 -40.5q73 -46 123.5 -103.5t81.5 -125t45 -142.5t14 -155q0 -125 -26 -223.5t-70 -174t-102.5 -128t-123.5 -86t-133 -49t-131 -15.5h-592v73q68 14 103 30.5t35 30.5v1032q-100 -20 -150.5 -58t-50.5 -94q0 -36 16 -70.5t60 -58.5q-6 -7 -34 -22.5t-63 -32 t-70 -31t-56 -18.5q-24 13 -41.5 34.5t-29 47.5t-16.5 54.5t-5 55.5z" />
<glyph unicode="&#x18e;" horiz-adv-x="1089" d="M98 0l-40 33q1 17 4.5 44t8.5 59t11.5 65.5t12.5 64t11.5 54.5t9.5 37h75q2 -46 5.5 -89t10.5 -76t19 -52.5t30 -19.5h185q64 0 103.5 4t61.5 12.5t29 22.5t7 34v432h-203q-23 0 -54 -1.5t-61.5 -4.5t-58 -6.5t-43.5 -7.5l-26 28q8 14 23 36t31.5 44.5t32.5 41.5t27 27 q15 -15 32.5 -23.5t40 -13t53 -5.5t72.5 -1h134v401h-221q-46 0 -77 -6t-54 -25t-41.5 -54.5t-39.5 -93.5l-73 25q4 43 8.5 86t10 79.5t10.5 65t9 43.5h855v-73q-68 -14 -102.5 -30.5t-34.5 -30.5v-991q0 -12 32.5 -30t104.5 -32v-73h-931z" />
<glyph unicode="&#x190;" horiz-adv-x="1077" d="M1012 212q-60 -64 -120 -109.5t-123 -75t-130.5 -43.5t-143.5 -14q-115 0 -196.5 31.5t-133.5 79t-76 104t-24 106.5q0 58 18.5 111.5t50 98t73 79t88.5 55.5q-96 34 -146.5 102.5t-50.5 167.5q0 87 52 165t142 132q65 40 149.5 64t176.5 24q54 0 107.5 -6.5t103 -19 t93 -32t75.5 -46.5q-8 -20 -21 -48.5t-28 -58.5t-30 -57.5t-26 -46.5l-73 16q-20 34 -46 64t-57.5 53t-69 36.5t-81.5 13.5q-47 0 -90 -15t-75.5 -42.5t-52 -66.5t-19.5 -88q0 -41 19.5 -80.5t64.5 -71t117 -53t177 -25.5v-101q-102 -6 -176 -30.5t-122 -61t-70.5 -81.5 t-22.5 -90q0 -44 18.5 -82.5t53.5 -67t85.5 -45.5t115.5 -17q44 0 87 6t87.5 21.5t93 43t102.5 70.5z" />
<glyph unicode="&#x192;" horiz-adv-x="659" d="M867 1454q0 -17 -20 -43t-47 -52t-54 -47.5t-42 -28.5q-50 60 -95.5 87t-74.5 27q-32 0 -57 -20t-42 -66.5t-26 -124t-9 -192.5v-64h252l35 -36q-9 -14 -22 -33t-27 -37.5t-27.5 -33.5t-23.5 -19q-23 12 -66 23.5t-121 11.5v-708q0 -109 -20 -187t-52.5 -133.5t-73 -94.5 t-80.5 -70q-28 -21 -60 -40.5t-66 -34t-67.5 -23t-63.5 -8.5q-41 0 -82.5 10.5t-74.5 25.5t-54 30.5t-21 25.5q0 11 19.5 34t46.5 48.5t56.5 48.5t49.5 32q42 -45 90 -63.5t86 -18.5q28 0 51 13.5t39.5 53.5t26 111t9.5 187v761h-118l-28 36l78 88h68v31q0 90 13 159 t35.5 122.5t54 94.5t68.5 76q34 33 73.5 58.5t78.5 43t76 26.5t67 9q45 0 88 -12t77.5 -27.5t55.5 -31.5t21 -25z" />
<glyph unicode="&#x197;" horiz-adv-x="670" d="M584 600h-134v-466q0 -12 33 -29.5t105 -31.5v-73h-525v73q68 14 102.5 30.5t34.5 30.5v466h-145l-22 24q2 7 6.5 20t9.5 27.5t9.5 27.5t7.5 21h134v405q0 12 -32.5 30t-104.5 32v73h525v-73q-68 -14 -103 -31t-35 -31v-405h145l25 -23z" />
<glyph unicode="&#x198;" horiz-adv-x="1316" d="M43 0v73q68 14 102.5 30.5t34.5 30.5v991q0 12 -32.5 30t-104.5 32v73h525v-73q-68 -14 -103 -31t-35 -31v-464l340 442q64 84 138.5 125.5t166.5 41.5q48 0 89 -15t71.5 -45t48 -74.5t17.5 -104.5q0 -13 -2 -29.5t-5 -34t-6.5 -33.5t-6.5 -28q-3 -8 -28 -22.5t-59 -30 t-69.5 -29.5t-59.5 -20l-33 51q9 16 18 36t15.5 40t11 39.5t4.5 34.5q-1 53 -19 72.5t-46 19.5q-29 0 -52 -18.5t-43 -42.5l-305 -361l482 -510q16 -19 33.5 -28.5t36.5 -13t41 -2.5t48 4l7 -73q-29 -9 -65 -20.5t-72 -21.5t-69 -17t-57 -7q-29 0 -51.5 9t-42.5 34l-477 596 v-491q0 -12 32.5 -29.5t105.5 -31.5v-73h-525z" />
<glyph unicode="&#x199;" horiz-adv-x="1129" d="M1137 33q-29 -7 -64.5 -14.5t-68.5 -14t-59.5 -10.5t-36.5 -4q-42 0 -75 12t-55 41l-358 469v-378q0 -8 3.5 -14t14.5 -12.5t33 -14.5t59 -20v-73h-482v73q66 17 99 30t33 31v762q1 120 18.5 205.5t49.5 149t77.5 110.5t103.5 91q30 22 66.5 40.5t75.5 31t78 19.5t73 7 q52 0 106 -17.5t97.5 -40.5t71.5 -46.5t28 -35.5q0 -14 -21 -40t-48.5 -54t-55.5 -51t-43 -29q-20 29 -48 57.5t-59.5 51t-65 36.5t-64.5 14q-37 0 -72.5 -17.5t-63.5 -65.5t-45.5 -133.5t-18.5 -221.5v-425l263 237q31 28 41.5 45t5.5 26.5t-23 13t-44 3.5v73h439v-73 q-45 -5 -89 -20t-86 -49l-304 -230l361 -409q14 -16 27.5 -25.5t30.5 -14t38.5 -5t50.5 1.5z" />
<glyph unicode="&#x19a;" horiz-adv-x="711" d="M621 721h-145v-587q0 -8 7 -15.5t23.5 -15.5t43.5 -15.5t68 -14.5v-73h-525v73q43 7 71 14.5t44 15t22 15.5t6 16v587h-166l-22 22q2 8 7.5 21.5t12 27.5t13 27.5t10.5 21.5h145v425q0 45 -5 70t-19.5 37.5t-40.5 17t-68 9.5v70q50 7 93 14.5t82.5 16.5t77 21t76.5 28 l44 -41v-668h166l22 -25z" />
<glyph unicode="&#x19d;" horiz-adv-x="1359" d="M1180 -30q-96 8 -154 37.5t-85 66.5l-611 846v-788q0 -67 -4.5 -124.5t-17 -107t-34.5 -92.5t-58 -81q-24 -25 -56 -51t-70 -47t-80 -34t-84 -13q-45 0 -89.5 9.5t-80.5 23.5t-58 31t-22 31q0 5 10 18.5t25.5 30.5t35 35.5t38 35t35 28.5t25.5 16q45 -51 94 -71t95 -20 q71 0 108.5 81t37.5 243v1040q-32 29 -67 48t-70 25v73h279q15 0 24.5 -2.5t19.5 -10.5t21.5 -23.5t30.5 -41.5l612 -848v791q0 6 -6.5 14.5t-22 17t-42 16.5t-66.5 14v73h425v-73q-72 -10 -105 -29t-33 -33v-1155z" />
<glyph unicode="&#x19f;" horiz-adv-x="1274" d="M940 720q-10 89 -38 169t-71.5 140t-101 95.5t-125.5 35.5q-66 0 -118 -29.5t-89.5 -86t-59 -138.5t-27.5 -186h630zM308 600q5 -105 33 -195.5t73 -157t103.5 -104.5t124.5 -38q64 0 118 30.5t94.5 92t64 154.5t26.5 218h-637zM1198 647q0 -91 -22 -176t-61.5 -160.5 t-94.5 -138t-122 -107.5t-143 -70t-157 -25q-126 0 -227 53t-171 142t-107.5 205t-37.5 242q0 136 44.5 259t124 216t190 148t242.5 55t233 -54.5t170 -144.5t104 -206t35 -238z" />
<glyph unicode="&#x1a0;" horiz-adv-x="1274" d="M946 629q0 103 -24.5 199t-69.5 170t-108 118t-140 44q-72 0 -127.5 -35.5t-93 -102t-56.5 -163t-19 -218.5q0 -112 26.5 -210t72 -170.5t106 -114t129.5 -41.5q66 0 121.5 32t96 97.5t63.5 164t23 230.5zM1265 1392q0 -59 -56 -130.5t-175 -140.5q81 -93 122.5 -216.5 t41.5 -257.5q0 -91 -22 -176t-61.5 -160.5t-94.5 -138t-122 -107.5t-143 -70t-157 -25q-126 0 -227 53t-171 142t-107.5 205t-37.5 242q0 136 44.5 259t124 216t190 148t242.5 55q86 0 158.5 -24t132.5 -66q33 31 44.5 60t11.5 51q0 29 -18.5 55t-46.5 49l260 118 q28 -22 47.5 -60.5t19.5 -80.5z" />
<glyph unicode="&#x1a1;" horiz-adv-x="1205" d="M758 440q0 79 -16.5 150.5t-46.5 126t-72.5 86.5t-93.5 32q-62 0 -103 -27.5t-65 -76t-33.5 -115t-9.5 -143.5q0 -79 18.5 -148t50 -120t73 -80.5t87.5 -29.5q60 0 100 23t65 67t35.5 108t10.5 147zM1205 1042q0 -63 -64 -140t-201 -150q34 -57 52 -124t18 -143 q0 -67 -18 -131t-50.5 -121t-77.5 -105.5t-99.5 -83.5t-117 -54.5t-128.5 -19.5q-103 0 -187 36t-143 99t-91.5 150t-32.5 189q0 99 36.5 192t102 165t156 115.5t198.5 43.5q97 0 176.5 -32t138.5 -90q42 34 56 66.5t14 56.5q0 29 -18.5 55t-46.5 49l260 118 q28 -22 47.5 -60.5t19.5 -80.5z" />
<glyph unicode="&#x1a9;" horiz-adv-x="1121" d="M1055 390q-2 -40 -5.5 -96t-7.5 -112t-7.5 -105.5t-5.5 -76.5h-946l-38 51l414 562l-393 597v50h734q56 0 104.5 2t108.5 14l4 -346l-86 -19q-18 74 -36 117.5t-35 66t-33 29t-31 6.5h-412l296 -456l-350 -481h491q31 0 52 9.5t36.5 33.5t30 66t32.5 108z" />
<glyph unicode="&#x1aa;" horiz-adv-x="796" d="M307 1213q32 0 57.5 13t45.5 31q-5 41 -12.5 74.5t-20 57.5t-29.5 37.5t-40 13.5q-16 0 -32.5 -8t-30 -22.5t-22 -35.5t-8.5 -47q0 -54 24 -84t68 -30zM15 1275q0 49 24 98.5t70.5 88.5t113 63.5t152.5 24.5q80 0 136 -29t91 -77t50.5 -110t15.5 -127q0 -152 -9.5 -309.5 t-20.5 -310.5t-20.5 -297t-9.5 -269q0 -120 8 -197t24 -121t39.5 -61t55.5 -17q29 0 51.5 17.5t35 42.5t13.5 53.5t-12 49.5q-2 3 12 10t37.5 16t52.5 18.5t56.5 17t50 11.5t32.5 3l27 -54q3 -49 -27 -102.5t-85.5 -98t-134.5 -73.5t-173 -29q-77 0 -135.5 31t-98 89 t-59.5 142t-20 191q0 148 9 297.5t20.5 292.5t21 275t9.5 246v41q-40 -34 -82 -49.5t-85 -15.5q-109 0 -172.5 59.5t-63.5 168.5z" />
<glyph unicode="&#x1af;" horiz-adv-x="1498" d="M1498 1392q0 -35 -19 -74.5t-59 -80.5t-100.5 -82.5t-144.5 -80.5v-550q0 -131 -36.5 -234t-102.5 -174t-156.5 -108.5t-198.5 -37.5q-103 0 -194 28.5t-159.5 87t-108 147.5t-39.5 211v681q0 12 -32.5 30t-104.5 32v73h525v-73q-68 -14 -103 -31t-35 -31v-616 q0 -96 17 -169.5t54 -123.5t96.5 -75.5t145.5 -25.5q71 0 120 32t79.5 85t44 122.5t13.5 143.5v627q0 12 -32.5 30t-104.5 32v73h361q7 14 9.5 27t2.5 24q0 29 -19 55t-47 49l261 118q28 -22 47.5 -60.5t19.5 -80.5z" />
<glyph unicode="&#x1b0;" horiz-adv-x="1386" d="M1386 1042q0 -38 -23 -82t-71.5 -89.5t-123.5 -91.5t-178 -87v-408q0 -31 1 -51.5t3.5 -34t7 -21.5t11.5 -13q12 -8 33.5 -3.5t72.5 26.5l25 -75q-37 -24 -81.5 -49t-86 -46t-74 -34t-44.5 -13q-18 0 -34.5 6.5t-31 25t-25.5 51t-17 83.5q-62 -54 -111.5 -86.5t-90 -50.5 t-74.5 -23.5t-66 -5.5q-47 0 -92 13t-81 47.5t-58 94.5t-22 154v410q0 48 -1.5 74.5t-13 40t-36 18.5t-70.5 10v70q50 4 91.5 9t79.5 11.5t75.5 15.5t79.5 22l35 -46v-572q0 -62 7.5 -101t22.5 -60.5t36.5 -29.5t49.5 -8q21 0 45.5 5t54 18.5t64 36.5t75.5 59v427 q0 45 -3.5 72t-16.5 42t-39.5 21t-72.5 8v70q100 9 181.5 24.5t153.5 33.5l37 -46v-117q40 21 66 43.5t41 44t21 41t6 35.5q0 29 -18.5 55t-46.5 49l260 118q28 -22 47.5 -60.5t19.5 -80.5z" />
<glyph unicode="&#x1b3;" horiz-adv-x="1490" d="M1145 0h-565v73q45 9 75.5 19t48.5 19.5t25.5 18t7.5 15.5v343q-36 78 -73.5 154.5t-74.5 147.5t-71.5 134t-63.5 114q-18 31 -33.5 51t-30.5 31t-30.5 14.5t-33.5 3.5q-20 0 -35.5 -10t-26 -26.5t-16 -37.5t-5.5 -43q0 -36 23.5 -71t64.5 -57q-2 -4 -15.5 -12.5 t-33.5 -19t-44.5 -22t-48.5 -22t-45.5 -18t-35.5 -10.5q-18 8 -35 24t-30 39t-20.5 52t-7.5 62q0 68 28.5 123.5t76 95t109.5 61.5t130 24q57 1 101.5 -6.5t77.5 -21.5t56.5 -33t38.5 -39q72 -95 143.5 -220t141.5 -270l231 441q15 26 -9.5 41t-101.5 25v73h418v-73 q-68 -13 -101.5 -26.5t-46.5 -39.5l-321 -632v-344q0 -6 7 -14.5t25 -18.5t48.5 -20t77.5 -19v-73z" />
<glyph unicode="&#x1b4;" horiz-adv-x="1040" d="M466 857q-39 -5 -60 -10t-30 -12.5t-7.5 -18.5t7.5 -27l202 -502l226 620q48 132 106 215.5t118 130.5t118.5 64.5t107.5 17.5q30 0 65 -7t64.5 -17.5t49 -22t19.5 -20.5q0 -7 -15.5 -31.5t-38 -53.5t-48 -56.5t-44.5 -39.5q-39 25 -74.5 34t-57.5 9q-73 0 -127 -52 t-97 -166l-374 -1005q-44 -119 -100 -196.5t-115.5 -122.5t-118 -63t-107.5 -18q-30 0 -65 6.5t-65 16t-50 22t-20 24.5q0 7 15.5 31.5t38 53t47.5 55.5t45 39q39 -25 74.5 -34.5t57.5 -9.5q31 0 60.5 8.5t57.5 31t53.5 60.5t48.5 98l26 66l-335 814q-9 28 -35 42.5 t-76 25.5v73h453v-73z" />
<glyph unicode="&#x1b7;" horiz-adv-x="1107" d="M1024 436q0 -71 -22 -132.5t-60 -113t-89.5 -92t-110.5 -68.5t-123.5 -43t-127.5 -15q-86 0 -159.5 19t-127 45.5t-84 55t-30.5 48.5q0 9 14.5 34t37 54t49.5 55t53 37q24 -47 56.5 -85t69.5 -64.5t77.5 -41t82.5 -14.5q128 0 198.5 71t70.5 199q0 60 -19.5 111 t-53.5 88.5t-80.5 58.5t-100.5 21q-24 0 -44.5 -2t-41 -7.5t-42.5 -15t-49 -24.5l-36 -22l-3 3q-4 4 -10.5 11.5t-13.5 16t-13.5 16.5t-9.5 13l-2 3v1l1 1l380 472h-327q-18 0 -38 -19.5t-38.5 -51.5t-35 -74.5t-26.5 -88.5l-87 19l38 361q21 -6 42.5 -9.5t45.5 -5t51 -1.5 h651l32 -50l-328 -412q14 2 27.5 3.5t25.5 1.5q70 0 130.5 -24.5t105 -71.5t69.5 -115t25 -156z" />
<glyph unicode="&#x1cd;" horiz-adv-x="1287" d="M747 550l-165 465l-150 -465h315zM392 430l-96 -289q-10 -31 24.5 -45t116.5 -23v-73h-437v73q68 12 104.5 25t46.5 43l349 1066q24 20 51.5 37t57 30.5t58.5 24t55 18.5l420 -1176q5 -14 13 -25t22 -19t35.5 -14t53.5 -10v-73h-497v73q78 5 105.5 20t16.5 48l-102 289 h-397zM702 1384h-137l-272 329q14 20 28.5 36.5t31.5 25.5l283 -188l277 188q17 -9 31.5 -25.5t26.5 -36.5z" />
<glyph unicode="&#x1ce;" horiz-adv-x="1023" d="M412 145q19 0 40 4.5t46.5 16t56 32t68.5 52.5v221q-60 -10 -101 -19.5t-69 -19.5t-45.5 -21t-30.5 -24q-26 -26 -42 -56t-16 -72q0 -34 9.5 -56t24 -35t30.5 -18t29 -5zM1016 112q-42 -29 -87.5 -55t-86 -45.5t-74 -30.5t-51.5 -11q-37 0 -62.5 42t-30.5 117 q-45 -45 -90.5 -75.5t-88 -49t-81.5 -26.5t-71 -8q-42 0 -82.5 14.5t-73 43t-52.5 72t-20 101.5q0 68 24.5 115.5t61.5 84.5q24 24 55.5 46.5t84 43.5t132 40.5t200.5 37.5v118q0 31 -6 57.5t-21 45.5t-40 29.5t-63 10.5q-24 0 -48 -9t-42 -25.5t-28.5 -40t-7.5 -53.5 q1 -6 -16 -15t-43 -18.5t-57.5 -19t-60.5 -16t-52 -10t-31 -1.5l-21 54q24 60 75.5 111.5t120.5 90t150.5 60.5t164.5 22q69 0 119 -18t82.5 -50.5t48.5 -76.5t16 -95v-482q0 -42 11 -60t29 -18q7 0 14.5 1t18 4t24.5 8.5t34 13.5zM579 1064h-137l-270 381q12 20 26.5 40 t31.5 28l282 -218l278 218q17 -8 35 -28t32 -40z" />
<glyph unicode="&#x1cf;" horiz-adv-x="670" d="M63 0v73q68 14 102.5 30.5t34.5 30.5v991q0 12 -32.5 30t-104.5 32v73h525v-73q-68 -14 -103 -31t-35 -31v-991q0 -12 33 -29.5t105 -31.5v-73h-525zM394 1384h-137l-272 329q14 20 28.5 36.5t31.5 25.5l283 -188l277 188q17 -9 31.5 -25.5t26.5 -36.5z" />
<glyph unicode="&#x1d0;" horiz-adv-x="615" d="M63 0v73q68 14 100 30.5t32 30.5v514q0 51 -1 82.5t-12.5 49t-38.5 25.5t-80 13v70q86 12 163 29.5t145 42.5h64v-826q0 -12 30 -29.5t103 -31.5v-73h-505zM379 1064h-137l-270 381q12 20 26.5 40t31.5 28l282 -218l278 218q17 -8 35 -28t32 -40z" />
<glyph unicode="&#x1d1;" horiz-adv-x="1274" d="M946 629q0 103 -24.5 199t-69.5 170t-108 118t-140 44q-72 0 -127.5 -35.5t-93 -102t-56.5 -163t-19 -218.5q0 -112 26.5 -210t72 -170.5t106 -114t129.5 -41.5q66 0 121.5 32t96 97.5t63.5 164t23 230.5zM1198 647q0 -91 -22 -176t-61.5 -160.5t-94.5 -138t-122 -107.5 t-143 -70t-157 -25q-126 0 -227 53t-171 142t-107.5 205t-37.5 242q0 136 44.5 259t124 216t190 148t242.5 55t233 -54.5t170 -144.5t104 -206t35 -238zM702 1384h-137l-270 381q12 20 26.5 40t31.5 28l282 -218l278 218q17 -8 35 -28t32 -40z" />
<glyph unicode="&#x1d2;" horiz-adv-x="1075" d="M758 440q0 79 -16.5 150.5t-46.5 126t-72.5 86.5t-93.5 32q-62 0 -103 -27.5t-65 -76t-33.5 -115t-9.5 -143.5q0 -79 18.5 -148t50 -120t73 -80.5t87.5 -29.5q60 0 100 23t65 67t35.5 108t10.5 147zM1010 485q0 -67 -18 -131t-50.5 -121t-77.5 -105.5t-99.5 -83.5 t-117 -54.5t-128.5 -19.5q-103 0 -187 36t-143 99t-91.5 150t-32.5 189q0 99 36.5 192t102 165t156 115.5t198.5 43.5q102 0 185.5 -36t143 -99.5t91.5 -150.5t32 -189zM623 1064h-137l-270 381q12 20 26.5 40t31.5 28l282 -218l278 218q17 -8 35 -28t32 -40z" />
<glyph unicode="&#x1d3;" horiz-adv-x="1369" d="M1313 1187q-68 -14 -103 -31t-35 -31v-601q0 -131 -36.5 -234t-102.5 -174t-156.5 -108.5t-198.5 -37.5q-103 0 -194 28.5t-159.5 87t-108 147.5t-39.5 211v681q0 12 -32.5 30t-104.5 32v73h525v-73q-68 -14 -103 -31t-35 -31v-616q0 -96 17 -169.5t54 -123.5t96.5 -75.5 t145.5 -25.5q71 0 120 32t79.5 85t44 122.5t13.5 143.5v627q0 12 -32.5 30t-104.5 32v73h450v-73zM761 1384h-137l-272 329q14 20 28.5 36.5t31.5 25.5l283 -188l277 188q17 -9 31.5 -25.5t26.5 -36.5z" />
<glyph unicode="&#x1d4;" horiz-adv-x="1153" d="M1144 112q-37 -24 -81.5 -49t-86 -46t-74 -34t-44.5 -13q-18 0 -34.5 6.5t-31 25t-25.5 51t-17 83.5q-62 -54 -111.5 -86.5t-90 -50.5t-74.5 -23.5t-66 -5.5q-47 0 -92 13t-81 47.5t-58 94.5t-22 154v410q0 48 -1.5 74.5t-13 40t-36 18.5t-70.5 10v70q50 4 91.5 9 t79.5 11.5t75.5 15.5t79.5 22l35 -46v-572q0 -62 7.5 -101t22.5 -60.5t36.5 -29.5t49.5 -8q21 0 45.5 5t54 18.5t64 36.5t75.5 59v427q0 45 -3.5 72t-16.5 42t-39.5 21t-72.5 8v70q100 9 181.5 24.5t153.5 33.5l37 -46v-630q0 -31 1 -51.5t3.5 -34t7 -21.5t11.5 -13 q12 -8 33.5 -3.5t72.5 26.5zM641 1064h-137l-270 381q12 20 26.5 40t31.5 28l282 -218l278 218q17 -8 35 -28t32 -40z" />
<glyph unicode="&#x1d5;" horiz-adv-x="1369" d="M1313 1187q-68 -14 -103 -31t-35 -31v-601q0 -131 -36.5 -234t-102.5 -174t-156.5 -108.5t-198.5 -37.5q-103 0 -194 28.5t-159.5 87t-108 147.5t-39.5 211v681q0 12 -32.5 30t-104.5 32v73h525v-73q-68 -14 -103 -31t-35 -31v-616q0 -96 17 -169.5t54 -123.5t96.5 -75.5 t145.5 -25.5q71 0 120 32t79.5 85t44 122.5t13.5 143.5v627q0 12 -32.5 30t-104.5 32v73h450v-73zM1041 1548q0 -37 -12.5 -69t-34 -56t-50 -38t-60.5 -14q-58 0 -88 31t-30 91q0 37 13 69t34.5 56t49.5 37.5t59 13.5q56 0 87.5 -30t31.5 -91zM618 1548q0 -37 -12.5 -69 t-33.5 -56t-49.5 -38t-60.5 -14q-58 0 -88.5 31t-30.5 91q0 37 13 69t34.5 56t50 37.5t58.5 13.5q57 0 88 -30t31 -91zM1128 1915q-3 -11 -10.5 -29.5t-16.5 -38.5t-17 -37.5t-12 -26.5h-764l-32 32q3 11 10 29t16 37.5t17 37t13 27.5h764z" />
<glyph unicode="&#x1d6;" horiz-adv-x="1153" d="M1144 112q-37 -24 -81.5 -49t-86 -46t-74 -34t-44.5 -13q-18 0 -34.5 6.5t-31 25t-25.5 51t-17 83.5q-62 -54 -111.5 -86.5t-90 -50.5t-74.5 -23.5t-66 -5.5q-47 0 -92 13t-81 47.5t-58 94.5t-22 154v410q0 48 -1.5 74.5t-13 40t-36 18.5t-70.5 10v70q50 4 91.5 9 t79.5 11.5t75.5 15.5t79.5 22l35 -46v-572q0 -62 7.5 -101t22.5 -60.5t36.5 -29.5t49.5 -8q21 0 45.5 5t54 18.5t64 36.5t75.5 59v427q0 45 -3.5 72t-16.5 42t-39.5 21t-72.5 8v70q100 9 181.5 24.5t153.5 33.5l37 -46v-630q0 -31 1 -51.5t3.5 -34t7 -21.5t11.5 -13 q12 -8 33.5 -3.5t72.5 26.5zM926 1268q0 -37 -12.5 -69t-34 -56t-50 -38t-60.5 -14q-58 0 -88 31t-30 91q0 37 13 69t34.5 56t49.5 37.5t59 13.5q56 0 87.5 -30t31.5 -91zM503 1268q0 -37 -12.5 -69t-33.5 -56t-49.5 -38t-60.5 -14q-58 0 -88.5 31t-30.5 91q0 37 13 69 t34.5 56t50 37.5t58.5 13.5q57 0 88 -30t31 -91zM1013 1675q-3 -11 -10.5 -29.5t-16.5 -38.5t-17 -37.5t-12 -26.5h-764l-32 32q3 11 10 29t16 37.5t17 37t13 27.5h764z" />
<glyph unicode="&#x1d7;" horiz-adv-x="1369" d="M1313 1187q-68 -14 -103 -31t-35 -31v-601q0 -131 -36.5 -234t-102.5 -174t-156.5 -108.5t-198.5 -37.5q-103 0 -194 28.5t-159.5 87t-108 147.5t-39.5 211v681q0 12 -32.5 30t-104.5 32v73h525v-73q-68 -14 -103 -31t-35 -31v-616q0 -96 17 -169.5t54 -123.5t96.5 -75.5 t145.5 -25.5q71 0 120 32t79.5 85t44 122.5t13.5 143.5v627q0 12 -32.5 30t-104.5 32v73h450v-73zM1041 1548q0 -37 -12.5 -69t-34 -56t-50 -38t-60.5 -14q-58 0 -88 31t-30 91q0 37 13 69t34.5 56t49.5 37.5t59 13.5q56 0 87.5 -30t31.5 -91zM618 1548q0 -37 -12.5 -69 t-33.5 -56t-49.5 -38t-60.5 -14q-58 0 -88.5 31t-30.5 91q0 37 13 69t34.5 56t50 37.5t58.5 13.5q57 0 88 -30t31 -91zM560 1688q-17 8 -35.5 28t-32.5 39l365 340q23 -12 51 -28.5t53.5 -32t45.5 -29.5t28 -22l9 -52z" />
<glyph unicode="&#x1d8;" horiz-adv-x="1153" d="M1144 112q-37 -24 -81.5 -49t-86 -46t-74 -34t-44.5 -13q-18 0 -34.5 6.5t-31 25t-25.5 51t-17 83.5q-62 -54 -111.5 -86.5t-90 -50.5t-74.5 -23.5t-66 -5.5q-47 0 -92 13t-81 47.5t-58 94.5t-22 154v410q0 48 -1.5 74.5t-13 40t-36 18.5t-70.5 10v70q50 4 91.5 9 t79.5 11.5t75.5 15.5t79.5 22l35 -46v-572q0 -62 7.5 -101t22.5 -60.5t36.5 -29.5t49.5 -8q21 0 45.5 5t54 18.5t64 36.5t75.5 59v427q0 45 -3.5 72t-16.5 42t-39.5 21t-72.5 8v70q100 9 181.5 24.5t153.5 33.5l37 -46v-630q0 -31 1 -51.5t3.5 -34t7 -21.5t11.5 -13 q12 -8 33.5 -3.5t72.5 26.5zM926 1268q0 -37 -12.5 -69t-34 -56t-50 -38t-60.5 -14q-58 0 -88 31t-30 91q0 37 13 69t34.5 56t49.5 37.5t59 13.5q56 0 87.5 -30t31.5 -91zM503 1268q0 -37 -12.5 -69t-33.5 -56t-49.5 -38t-60.5 -14q-58 0 -88.5 31t-30.5 91q0 37 13 69 t34.5 56t50 37.5t58.5 13.5q57 0 88 -30t31 -91zM517 1408q-9 1 -21.5 6.5t-25.5 12t-23.5 13t-16.5 11.5l211 429q12 -1 44.5 -5.5t69.5 -10.5t70 -12.5t44 -9.5l30 -54z" />
<glyph unicode="&#x1d9;" horiz-adv-x="1369" d="M1313 1187q-68 -14 -103 -31t-35 -31v-601q0 -131 -36.5 -234t-102.5 -174t-156.5 -108.5t-198.5 -37.5q-103 0 -194 28.5t-159.5 87t-108 147.5t-39.5 211v681q0 12 -32.5 30t-104.5 32v73h525v-73q-68 -14 -103 -31t-35 -31v-616q0 -96 17 -169.5t54 -123.5t96.5 -75.5 t145.5 -25.5q71 0 120 32t79.5 85t44 122.5t13.5 143.5v627q0 12 -32.5 30t-104.5 32v73h450v-73zM1041 1548q0 -37 -12.5 -69t-34 -56t-50 -38t-60.5 -14q-58 0 -88 31t-30 91q0 37 13 69t34.5 56t49.5 37.5t59 13.5q56 0 87.5 -30t31.5 -91zM618 1548q0 -37 -12.5 -69 t-33.5 -56t-49.5 -38t-60.5 -14q-58 0 -88.5 31t-30.5 91q0 37 13 69t34.5 56t50 37.5t58.5 13.5q57 0 88 -30t31 -91zM761 1712h-137l-272 329q14 20 28.5 36.5t31.5 25.5l283 -188l277 188q17 -9 31.5 -25.5t26.5 -36.5z" />
<glyph unicode="&#x1da;" horiz-adv-x="1153" d="M1144 112q-37 -24 -81.5 -49t-86 -46t-74 -34t-44.5 -13q-18 0 -34.5 6.5t-31 25t-25.5 51t-17 83.5q-62 -54 -111.5 -86.5t-90 -50.5t-74.5 -23.5t-66 -5.5q-47 0 -92 13t-81 47.5t-58 94.5t-22 154v410q0 48 -1.5 74.5t-13 40t-36 18.5t-70.5 10v70q50 4 91.5 9 t79.5 11.5t75.5 15.5t79.5 22l35 -46v-572q0 -62 7.5 -101t22.5 -60.5t36.5 -29.5t49.5 -8q21 0 45.5 5t54 18.5t64 36.5t75.5 59v427q0 45 -3.5 72t-16.5 42t-39.5 21t-72.5 8v70q100 9 181.5 24.5t153.5 33.5l37 -46v-630q0 -31 1 -51.5t3.5 -34t7 -21.5t11.5 -13 q12 -8 33.5 -3.5t72.5 26.5zM926 1268q0 -37 -12.5 -69t-34 -56t-50 -38t-60.5 -14q-58 0 -88 31t-30 91q0 37 13 69t34.5 56t49.5 37.5t59 13.5q56 0 87.5 -30t31.5 -91zM503 1268q0 -37 -12.5 -69t-33.5 -56t-49.5 -38t-60.5 -14q-58 0 -88.5 31t-30.5 91q0 37 13 69 t34.5 56t50 37.5t58.5 13.5q57 0 88 -30t31 -91zM641 1432h-137l-270 381q12 20 26.5 40t31.5 28l282 -218l278 218q17 -8 35 -28t32 -40z" />
<glyph unicode="&#x1db;" horiz-adv-x="1369" d="M1313 1187q-68 -14 -103 -31t-35 -31v-601q0 -131 -36.5 -234t-102.5 -174t-156.5 -108.5t-198.5 -37.5q-103 0 -194 28.5t-159.5 87t-108 147.5t-39.5 211v681q0 12 -32.5 30t-104.5 32v73h525v-73q-68 -14 -103 -31t-35 -31v-616q0 -96 17 -169.5t54 -123.5t96.5 -75.5 t145.5 -25.5q71 0 120 32t79.5 85t44 122.5t13.5 143.5v627q0 12 -32.5 30t-104.5 32v73h450v-73zM1041 1548q0 -37 -12.5 -69t-34 -56t-50 -38t-60.5 -14q-58 0 -88 31t-30 91q0 37 13 69t34.5 56t49.5 37.5t59 13.5q56 0 87.5 -30t31.5 -91zM618 1548q0 -37 -12.5 -69 t-33.5 -56t-49.5 -38t-60.5 -14q-58 0 -88.5 31t-30.5 91q0 37 13 69t34.5 56t50 37.5t58.5 13.5q57 0 88 -30t31 -91zM884 1748q-14 -19 -28.5 -35.5t-31.5 -24.5l-479 234l10 63q7 8 29.5 24t49 33t50.5 32t35 21z" />
<glyph unicode="&#x1dc;" horiz-adv-x="1153" d="M1144 112q-37 -24 -81.5 -49t-86 -46t-74 -34t-44.5 -13q-18 0 -34.5 6.5t-31 25t-25.5 51t-17 83.5q-62 -54 -111.5 -86.5t-90 -50.5t-74.5 -23.5t-66 -5.5q-47 0 -92 13t-81 47.5t-58 94.5t-22 154v410q0 48 -1.5 74.5t-13 40t-36 18.5t-70.5 10v70q50 4 91.5 9 t79.5 11.5t75.5 15.5t79.5 22l35 -46v-572q0 -62 7.5 -101t22.5 -60.5t36.5 -29.5t49.5 -8q21 0 45.5 5t54 18.5t64 36.5t75.5 59v427q0 45 -3.5 72t-16.5 42t-39.5 21t-72.5 8v70q100 9 181.5 24.5t153.5 33.5l37 -46v-630q0 -31 1 -51.5t3.5 -34t7 -21.5t11.5 -13 q12 -8 33.5 -3.5t72.5 26.5zM926 1268q0 -37 -12.5 -69t-34 -56t-50 -38t-60.5 -14q-58 0 -88 31t-30 91q0 37 13 69t34.5 56t49.5 37.5t59 13.5q56 0 87.5 -30t31.5 -91zM503 1268q0 -37 -12.5 -69t-33.5 -56t-49.5 -38t-60.5 -14q-58 0 -88.5 31t-30.5 91q0 37 13 69 t34.5 56t50 37.5t58.5 13.5q57 0 88 -30t31 -91zM738 1454q-6 -6 -17 -13t-23.5 -13.5t-24.5 -11.5t-21 -8l-382 377l29 56q10 3 41 9t67 12.5t68.5 11.5t44.5 6z" />
<glyph unicode="&#x1dd;" horiz-adv-x="994" d="M482 89q98 0 143.5 71.5t53.5 219.5h-308q-31 0 -48.5 -23.5t-17.5 -63.5q0 -47 13.5 -84.5t37 -64t56 -41t70.5 -14.5zM929 500q0 -118 -37.5 -219.5t-106.5 -175.5q-28 -31 -64 -56t-77.5 -42.5t-85.5 -27t-89 -9.5q-92 0 -166.5 25t-128 69.5t-82.5 105.5t-29 132 q0 40 9.5 69.5t26.5 52.5q15 7 34.5 16.5t40.5 19t42 18t39 15.5h425q-5 76 -28 132t-57.5 93t-78 55t-89.5 18q-27 0 -58 -4t-67.5 -16t-79.5 -34.5t-94 -59.5q-6 3 -14 11.5t-15.5 18.5t-13.5 19.5t-9 13.5q61 64 114.5 106.5t104.5 68t103 35.5t109 10q84 0 160.5 -30 t134.5 -88.5t92.5 -144.5t34.5 -197z" />
<glyph unicode="&#x1de;" horiz-adv-x="1287" d="M747 550l-165 465l-150 -465h315zM392 430l-96 -289q-10 -31 24.5 -45t116.5 -23v-73h-437v73q68 12 104.5 25t46.5 43l349 1066q24 20 51.5 37t57 30.5t58.5 24t55 18.5l420 -1176q5 -14 13 -25t22 -19t35.5 -14t53.5 -10v-73h-497v73q78 5 105.5 20t16.5 48l-102 289 h-397zM982 1548q0 -37 -12.5 -69t-34 -56t-50 -38t-60.5 -14q-58 0 -88 31t-30 91q0 37 13 69t34.5 56t49.5 37.5t59 13.5q56 0 87.5 -30t31.5 -91zM559 1548q0 -37 -12.5 -69t-33.5 -56t-49.5 -38t-60.5 -14q-58 0 -88.5 31t-30.5 91q0 37 13 69t34.5 56t50 37.5t58.5 13.5 q57 0 88 -30t31 -91zM1069 1915q-3 -11 -10.5 -29.5t-16.5 -38.5t-17 -37.5t-12 -26.5h-764l-32 32q3 11 10 29t16 37.5t17 37t13 27.5h764z" />
<glyph unicode="&#x1df;" horiz-adv-x="1023" d="M412 145q19 0 40 4.5t46.5 16t56 32t68.5 52.5v221q-60 -10 -101 -19.5t-69 -19.5t-45.5 -21t-30.5 -24q-26 -26 -42 -56t-16 -72q0 -34 9.5 -56t24 -35t30.5 -18t29 -5zM1016 112q-42 -29 -87.5 -55t-86 -45.5t-74 -30.5t-51.5 -11q-37 0 -62.5 42t-30.5 117 q-45 -45 -90.5 -75.5t-88 -49t-81.5 -26.5t-71 -8q-42 0 -82.5 14.5t-73 43t-52.5 72t-20 101.5q0 68 24.5 115.5t61.5 84.5q24 24 55.5 46.5t84 43.5t132 40.5t200.5 37.5v118q0 31 -6 57.5t-21 45.5t-40 29.5t-63 10.5q-24 0 -48 -9t-42 -25.5t-28.5 -40t-7.5 -53.5 q1 -6 -16 -15t-43 -18.5t-57.5 -19t-60.5 -16t-52 -10t-31 -1.5l-21 54q24 60 75.5 111.5t120.5 90t150.5 60.5t164.5 22q69 0 119 -18t82.5 -50.5t48.5 -76.5t16 -95v-482q0 -42 11 -60t29 -18q7 0 14.5 1t18 4t24.5 8.5t34 13.5zM864 1268q0 -37 -12.5 -69t-34 -56 t-50 -38t-60.5 -14q-58 0 -88 31t-30 91q0 37 13 69t34.5 56t49.5 37.5t59 13.5q56 0 87.5 -30t31.5 -91zM441 1268q0 -37 -12.5 -69t-33.5 -56t-49.5 -38t-60.5 -14q-58 0 -88.5 31t-30.5 91q0 37 13 69t34.5 56t50 37.5t58.5 13.5q57 0 88 -30t31 -91zM951 1675 q-3 -11 -10.5 -29.5t-16.5 -38.5t-17 -37.5t-12 -26.5h-764l-32 32q3 11 10 29t16 37.5t17 37t13 27.5h764z" />
<glyph unicode="&#x1e0;" horiz-adv-x="1287" d="M747 550l-165 465l-150 -465h315zM392 430l-96 -289q-10 -31 24.5 -45t116.5 -23v-73h-437v73q68 12 104.5 25t46.5 43l349 1066q24 20 51.5 37t57 30.5t58.5 24t55 18.5l420 -1176q5 -14 13 -25t22 -19t35.5 -14t53.5 -10v-73h-497v73q78 5 105.5 20t16.5 48l-102 289 h-397zM770 1548q0 -37 -12.5 -69t-33.5 -56t-49.5 -38t-60.5 -14q-58 0 -88.5 31t-30.5 91q0 37 13 69t34.5 56t50 37.5t59.5 13.5q56 0 87 -30t31 -91zM1069 1907q-3 -11 -10.5 -29.5t-16.5 -38.5t-17 -37.5t-12 -26.5h-764l-32 32q3 11 10 29t16 37.5t17 37t13 27.5h764z " />
<glyph unicode="&#x1e1;" horiz-adv-x="1023" d="M412 145q19 0 40 4.5t46.5 16t56 32t68.5 52.5v221q-60 -10 -101 -19.5t-69 -19.5t-45.5 -21t-30.5 -24q-26 -26 -42 -56t-16 -72q0 -34 9.5 -56t24 -35t30.5 -18t29 -5zM1016 112q-42 -29 -87.5 -55t-86 -45.5t-74 -30.5t-51.5 -11q-37 0 -62.5 42t-30.5 117 q-45 -45 -90.5 -75.5t-88 -49t-81.5 -26.5t-71 -8q-42 0 -82.5 14.5t-73 43t-52.5 72t-20 101.5q0 68 24.5 115.5t61.5 84.5q24 24 55.5 46.5t84 43.5t132 40.5t200.5 37.5v118q0 31 -6 57.5t-21 45.5t-40 29.5t-63 10.5q-24 0 -48 -9t-42 -25.5t-28.5 -40t-7.5 -53.5 q1 -6 -16 -15t-43 -18.5t-57.5 -19t-60.5 -16t-52 -10t-31 -1.5l-21 54q24 60 75.5 111.5t120.5 90t150.5 60.5t164.5 22q69 0 119 -18t82.5 -50.5t48.5 -76.5t16 -95v-482q0 -42 11 -60t29 -18q7 0 14.5 1t18 4t24.5 8.5t34 13.5zM652 1268q0 -37 -12.5 -69t-33.5 -56 t-49.5 -38t-60.5 -14q-58 0 -88.5 31t-30.5 91q0 37 13 69t34.5 56t50 37.5t59.5 13.5q56 0 87 -30t31 -91zM951 1667q-3 -11 -10.5 -29.5t-16.5 -38.5t-17 -37.5t-12 -26.5h-764l-32 32q3 11 10 29t16 37.5t17 37t13 27.5h764z" />
<glyph unicode="&#x1e2;" horiz-adv-x="1655" d="M759 1118q0 11 -7 16t-17 3.5t-21 -10.5t-18 -26l-149 -366h212v383zM1609 304q-5 -43 -10.5 -90.5t-11 -90t-10.5 -75.5t-9 -48h-944v73q68 14 101.5 30.5t33.5 30.5v490h-255l-196 -483q-13 -29 10.5 -44t97.5 -24v-73h-416v73q62 9 97 24t48 44l389 962q7 17 2.5 28.5 t-22.5 21t-51 17.5t-82 17v73h1125l37 -32q-2 -26 -5.5 -65t-9 -80t-12.5 -77.5t-14 -55.5h-75q-5 93 -24 141.5t-58 48.5h-336v-405h398l34 -35q-9 -14 -20.5 -33t-24.5 -38t-25 -35t-22 -25q-15 15 -35 25t-39 17t-33 10t-17 3h-216v-440q0 -15 7.5 -26.5t30 -20t63 -13 t106.5 -4.5h95q46 0 79 11t58.5 35.5t46 64.5t41.5 99zM1404 1587q-3 -11 -10.5 -29.5t-16.5 -38.5t-17 -37.5t-12 -26.5h-764l-32 32q3 11 10 29t16 37.5t17 37t13 27.5h764z" />
<glyph unicode="&#x1e3;" horiz-adv-x="1501" d="M1436 550q-10 -10 -26 -22t-34.5 -23.5t-38 -21.5t-35.5 -16h-444q-1 -4 -1 -13v-13q0 -47 15 -99.5t44.5 -97.5t73.5 -74.5t102 -29.5q31 0 62 5.5t64.5 19t72 36.5t85.5 58q6 -3 14.5 -12t16 -19.5t13.5 -19.5t8 -13q-60 -66 -110.5 -109.5t-99.5 -69t-100 -36 t-112 -10.5q-43 0 -89 14.5t-89.5 41.5t-81.5 66t-66 89q-45 -56 -94 -96t-98.5 -65.5t-99 -37.5t-95.5 -12q-36 0 -76 12t-74 39.5t-56 71.5t-22 108q0 59 22.5 113t70 100t121.5 82.5t177 61.5q27 7 76 11.5t100 6.5v79q0 90 -31 132.5t-96 42.5q-26 0 -54.5 -10t-51 -28 t-34 -43.5t-2.5 -57.5q1 -7 -15 -16t-41.5 -18.5t-57 -18.5t-60.5 -15.5t-51.5 -9.5t-30.5 -1l-21 51q20 53 55.5 95.5t79.5 75.5t94 56.5t99 39t94.5 23t79.5 7.5q75 0 130 -24.5t89 -79.5q33 29 68 49t70.5 32t69.5 17.5t64 5.5q88 0 155 -34.5t112 -91.5t67.5 -131 t22.5 -153zM645 264q-6 23 -9.5 48.5t-3.5 52.5v98q-35 -2 -65.5 -3.5t-40.5 -3.5q-63 -14 -104.5 -35.5t-65.5 -47.5t-34 -55t-10 -59q0 -31 9.5 -53t24.5 -35.5t32.5 -19.5t33.5 -6q23 0 50 6t56.5 20t61.5 36.5t65 56.5zM1050 845q-23 0 -51 -8.5t-54.5 -36.5t-48 -80.5 t-31.5 -139.5h307q21 0 29.5 7.5t8.5 28.5q0 53 -11.5 95.5t-32.5 72t-50.5 45.5t-65.5 16zM1218 1307q-3 -11 -10.5 -29.5t-16.5 -38.5t-17 -37.5t-12 -26.5h-764l-32 32q3 11 10 29t16 37.5t17 37t13 27.5h764z" />
<glyph unicode="&#x1e6;" horiz-adv-x="1232" d="M1095 1188q5 -4 1 -18.5t-13.5 -34.5t-23 -44t-27 -46t-26.5 -39t-22 -25l-63 14q-33 48 -66.5 81t-69.5 52.5t-75 28t-82 8.5q-25 0 -58.5 -10t-69 -34t-70 -64t-61.5 -98.5t-44 -138t-17 -183.5q0 -134 31 -230t82.5 -158t117.5 -91.5t137 -29.5q55 0 98.5 10t78.5 27 v305q0 11 -4 21.5t-20 20.5t-48.5 20t-88.5 20v73h498v-73q-57 -14 -77 -36.5t-20 -45.5v-301q-74 -61 -138.5 -99.5t-120.5 -60.5t-106 -30.5t-95 -8.5q-73 0 -144 16.5t-135 50t-119 84.5t-95 119t-62.5 153.5t-22.5 188.5q0 166 53 297.5t147 223t221 139.5t276 48 q33 0 78.5 -7t93.5 -20t93.5 -32t77.5 -43zM726 1384h-137l-272 329q14 20 28.5 36.5t31.5 25.5l283 -188l277 188q17 -9 31.5 -25.5t26.5 -36.5z" />
<glyph unicode="&#x1e7;" horiz-adv-x="1059" d="M668 600q0 51 -13.5 95.5t-39.5 77.5t-64.5 52.5t-89.5 19.5q-25 0 -51 -11.5t-47 -34.5t-34.5 -58t-13.5 -82q0 -50 12 -94.5t37.5 -77.5t64.5 -52.5t93 -19.5q29 0 55.5 11.5t46.5 34.5t32 57.5t12 81.5zM556 -42q-48 6 -90 14t-79 16q-46 -32 -72.5 -57t-39.5 -45.5 t-16.5 -37t-3.5 -31.5q0 -33 24.5 -63.5t67.5 -53.5t101.5 -36.5t126.5 -13.5q59 0 102 14.5t71.5 39.5t42.5 57t14 67q0 19 -9 38t-36 36t-76 31.5t-128 24.5zM898 641q0 -77 -34 -140.5t-91 -109t-132 -71t-158 -25.5h-10q-38 -35 -48.5 -56.5t-10.5 -27.5q0 -9 6 -17.5 t28.5 -17t68 -17.5t123.5 -19q117 -15 194 -36.5t122.5 -51.5t63.5 -69t18 -88q0 -47 -21.5 -94t-59.5 -90.5t-89 -80.5t-110.5 -64.5t-124 -43t-128.5 -15.5q-52 0 -108.5 6.5t-111 20.5t-103.5 35.5t-86 52t-59 69.5t-22 87q0 25 10.5 51t38.5 55.5t76.5 64t125.5 76.5 q-114 46 -114 98q0 11 9.5 29.5t31 43t56.5 54.5t85 64q-56 15 -102 42t-78.5 64t-50.5 83t-18 99q0 73 36 138.5t96 114t139.5 77t166.5 28.5q69 0 129 -19t108 -51q87 11 157.5 33t111.5 37l28 -37q-3 -11 -9.5 -26t-14 -30.5t-16 -31t-17.5 -27.5q-34 -6 -69 -10t-77 -6 q21 -35 32.5 -72.5t11.5 -78.5zM589 1064h-137l-270 381q12 20 26.5 40t31.5 28l282 -218l278 218q17 -8 35 -28t32 -40z" />
<glyph unicode="&#x1e8;" horiz-adv-x="1267" d="M43 0v73q68 14 102.5 30.5t34.5 30.5v991q0 12 -32.5 30t-104.5 32v73h525v-73q-68 -14 -103 -31t-35 -31v-466l372 439q23 27 32.5 43t4 25t-27.5 13.5t-61 7.5v73h450v-73q-32 -4 -54.5 -8t-39.5 -10.5t-31 -17t-30 -26.5l-429 -449l482 -511q16 -18 33 -27.5t36.5 -13 t41.5 -3t48 3.5l7 -73q-29 -9 -65 -20.5t-72 -21.5t-69 -17t-57 -7q-29 0 -51.5 9t-42.5 34l-477 596v-491q0 -12 32.5 -29.5t105.5 -31.5v-73h-525zM698 1384h-137l-272 329q14 20 28.5 36.5t31.5 25.5l283 -188l277 188q17 -9 31.5 -25.5t26.5 -36.5z" />
<glyph unicode="&#x1e9;" horiz-adv-x="1129" d="M48 0v73q66 17 99 30t33 31v1132q0 46 -4.5 71t-18.5 37.5t-40 16.5t-69 9v70q97 14 178.5 32t149.5 48l44 -41v-975l263 235q33 30 42.5 47.5t2.5 26.5t-27 11.5t-46 2.5v73h447v-73q-45 -5 -88.5 -21t-86.5 -48l-304 -230l361 -409q14 -16 27.5 -25.5t30.5 -14t38.5 -5 t50.5 1.5l6 -73q-29 -7 -66 -14.5t-71.5 -14t-62 -10.5t-37.5 -4q-42 0 -71 12t-51 41l-358 474v-383q0 -8 3.5 -14t14.5 -12.5t33 -14.5t59 -20v-73h-482zM661 1634h-137l-272 329q14 20 28.5 36.5t31.5 25.5l283 -188l277 188q17 -9 31.5 -25.5t26.5 -36.5z" />
<glyph unicode="&#x1ee;" horiz-adv-x="1107" d="M1024 436q0 -71 -22 -132.5t-60 -113t-89.5 -92t-110.5 -68.5t-123.5 -43t-127.5 -15q-86 0 -159.5 19t-127 45.5t-84 55t-30.5 48.5q0 9 14.5 34t37 54t49.5 55t53 37q24 -47 56.5 -85t69.5 -64.5t77.5 -41t82.5 -14.5q128 0 198.5 71t70.5 199q0 60 -19.5 111 t-53.5 88.5t-80.5 58.5t-100.5 21q-24 0 -44.5 -2t-41 -7.5t-42.5 -15t-49 -24.5l-36 -22l-3 3q-4 4 -10.5 11.5t-13.5 16t-13.5 16.5t-9.5 13l-2 3v1l1 1l380 472h-327q-18 0 -38 -19.5t-38.5 -51.5t-35 -74.5t-26.5 -88.5l-87 19l38 361q21 -6 42.5 -9.5t45.5 -5t51 -1.5 h651l32 -50l-328 -412q14 2 27.5 3.5t25.5 1.5q70 0 130.5 -24.5t105 -71.5t69.5 -115t25 -156zM621 1384h-137l-270 381q12 20 26.5 40t31.5 28l282 -218l278 218q17 -8 35 -28t32 -40z" />
<glyph unicode="&#x1ef;" horiz-adv-x="976" d="M921 -34q0 -71 -21 -132t-58 -112t-86.5 -91t-106 -67.5t-117.5 -42t-120 -14.5q-85 0 -157 22.5t-124 54t-81 65t-29 56.5q0 11 25.5 35t60 49t70 45t56.5 23q45 -101 100 -156t133 -55q43 0 82 15.5t68.5 47.5t47 81.5t17.5 117.5q0 67 -14.5 129.5t-47.5 110t-87 75 t-133 25.5q-39 0 -84.5 -11t-96.5 -28q-3 4 -8.5 13.5t-11 20t-10 19.5t-5.5 13l418 535h-299q-45 0 -83 -50t-64 -160l-72 20l25 326q21 -6 40.5 -9.5t40.5 -5t45 -1.5h640l23 -43l-406 -530q9 1 21.5 2t20.5 1q77 -2 147.5 -25.5t124 -71.5t85 -122t31.5 -175zM540 1064 h-137l-272 329q14 20 28.5 36.5t31.5 25.5l283 -188l277 188q17 -9 31.5 -25.5t26.5 -36.5z" />
<glyph unicode="&#x1f4;" horiz-adv-x="1232" d="M1095 1188q5 -4 1 -18.5t-13.5 -34.5t-23 -44t-27 -46t-26.5 -39t-22 -25l-63 14q-33 48 -66.5 81t-69.5 52.5t-75 28t-82 8.5q-25 0 -58.5 -10t-69 -34t-70 -64t-61.5 -98.5t-44 -138t-17 -183.5q0 -134 31 -230t82.5 -158t117.5 -91.5t137 -29.5q55 0 98.5 10t78.5 27 v305q0 11 -4 21.5t-20 20.5t-48.5 20t-88.5 20v73h498v-73q-57 -14 -77 -36.5t-20 -45.5v-301q-74 -61 -138.5 -99.5t-120.5 -60.5t-106 -30.5t-95 -8.5q-73 0 -144 16.5t-135 50t-119 84.5t-95 119t-62.5 153.5t-22.5 188.5q0 166 53 297.5t147 223t221 139.5t276 48 q33 0 78.5 -7t93.5 -20t93.5 -32t77.5 -43zM525 1360q-17 8 -35.5 28t-32.5 39l365 340q23 -12 51 -28.5t53.5 -32t45.5 -29.5t28 -22l9 -52z" />
<glyph unicode="&#x1f5;" horiz-adv-x="1059" d="M668 600q0 51 -13.5 95.5t-39.5 77.5t-64.5 52.5t-89.5 19.5q-25 0 -51 -11.5t-47 -34.5t-34.5 -58t-13.5 -82q0 -50 12 -94.5t37.5 -77.5t64.5 -52.5t93 -19.5q29 0 55.5 11.5t46.5 34.5t32 57.5t12 81.5zM556 -42q-48 6 -90 14t-79 16q-46 -32 -72.5 -57t-39.5 -45.5 t-16.5 -37t-3.5 -31.5q0 -33 24.5 -63.5t67.5 -53.5t101.5 -36.5t126.5 -13.5q59 0 102 14.5t71.5 39.5t42.5 57t14 67q0 19 -9 38t-36 36t-76 31.5t-128 24.5zM898 641q0 -77 -34 -140.5t-91 -109t-132 -71t-158 -25.5h-10q-38 -35 -48.5 -56.5t-10.5 -27.5q0 -9 6 -17.5 t28.5 -17t68 -17.5t123.5 -19q117 -15 194 -36.5t122.5 -51.5t63.5 -69t18 -88q0 -47 -21.5 -94t-59.5 -90.5t-89 -80.5t-110.5 -64.5t-124 -43t-128.5 -15.5q-52 0 -108.5 6.5t-111 20.5t-103.5 35.5t-86 52t-59 69.5t-22 87q0 25 10.5 51t38.5 55.5t76.5 64t125.5 76.5 q-114 46 -114 98q0 11 9.5 29.5t31 43t56.5 54.5t85 64q-56 15 -102 42t-78.5 64t-50.5 83t-18 99q0 73 36 138.5t96 114t139.5 77t166.5 28.5q69 0 129 -19t108 -51q87 11 157.5 33t111.5 37l28 -37q-3 -11 -9.5 -26t-14 -30.5t-16 -31t-17.5 -27.5q-34 -6 -69 -10t-77 -6 q21 -35 32.5 -72.5t11.5 -78.5zM465 1040q-9 1 -21.5 6.5t-25.5 12t-23.5 13t-16.5 11.5l211 429q12 -1 44.5 -5.5t69.5 -10.5t70 -12.5t44 -9.5l30 -54z" />
<glyph unicode="&#x1f8;" horiz-adv-x="1359" d="M43 0v73q73 9 105 28t32 33v980q-65 61 -137 73v73h279q15 0 24.5 -2.5t19.5 -10.5t21.5 -23.5t30.5 -41.5l612 -848v791q0 6 -6.5 14.5t-22 17t-42 16.5t-66.5 14v73h425v-73q-72 -10 -105 -29t-33 -33v-1155q-96 8 -154 37.5t-85 66.5l-611 846v-786q0 -6 7 -14.5 t23.5 -17t42.5 -16.5t65 -13v-73h-425zM872 1420q-14 -19 -28.5 -35.5t-31.5 -24.5l-479 234l10 63q7 8 29.5 24t49 33t50.5 32t35 21z" />
<glyph unicode="&#x1f9;" horiz-adv-x="1190" d="M663 0v73q72 19 102 33t30 28v454q0 55 -5.5 91.5t-17.5 58.5t-32 31t-50 9q-24 0 -51 -6.5t-59.5 -22t-72 -42.5t-87.5 -68v-505q0 -15 34 -31t99 -30v-73h-505v73q66 17 99 30.5t33 30.5v555q0 39 -1.5 62t-13.5 36t-39 19t-78 12v70q48 5 89.5 12t79.5 15.5t74 19.5 t72 25l42 -42l11 -144q117 100 218.5 143t179.5 43q43 0 83 -13.5t70.5 -44t49 -79.5t18.5 -119v-570q0 -7 6 -13.5t21 -13.5t41 -15.5t65 -18.5v-73h-505zM768 1086q-6 -6 -17 -13t-23.5 -13.5t-24.5 -11.5t-21 -8l-382 377l29 56q10 3 41 9t67 12.5t68.5 11.5t44.5 6z" />
<glyph unicode="&#x1fa;" horiz-adv-x="1287" d="M747 550l-165 465l-150 -465h315zM392 430l-96 -289q-10 -31 24.5 -45t116.5 -23v-73h-437v73q68 12 104.5 25t46.5 43l349 1066q24 20 51.5 37t57 30.5t58.5 24t55 18.5l420 -1176q5 -14 13 -25t22 -19t35.5 -14t53.5 -10v-73h-497v73q78 5 105.5 20t16.5 48l-102 289 h-397zM706 1563q0 48 -20 73.5t-43 25.5q-21 0 -36.5 -8.5t-26 -22t-16 -31t-5.5 -35.5q0 -46 20.5 -71t43.5 -25q40 0 61.5 27t21.5 67zM841 1604q0 -53 -20 -100t-53.5 -81.5t-76.5 -54.5t-89 -20q-39 0 -72 12.5t-56.5 35.5t-36.5 55.5t-13 72.5q0 54 20 101t53 82.5 t76.5 55.5t90.5 20q40 0 73 -13.5t56 -37t35.5 -56.5t12.5 -72zM501 1800q-17 8 -35.5 28t-32.5 39l365 340q23 -12 51 -28.5t53.5 -32t45.5 -29.5t28 -22l9 -52z" />
<glyph unicode="&#x1fb;" horiz-adv-x="1023" d="M412 145q19 0 40 4.5t46.5 16t56 32t68.5 52.5v221q-60 -10 -101 -19.5t-69 -19.5t-45.5 -21t-30.5 -24q-26 -26 -42 -56t-16 -72q0 -34 9.5 -56t24 -35t30.5 -18t29 -5zM1016 112q-42 -29 -87.5 -55t-86 -45.5t-74 -30.5t-51.5 -11q-37 0 -62.5 42t-30.5 117 q-45 -45 -90.5 -75.5t-88 -49t-81.5 -26.5t-71 -8q-42 0 -82.5 14.5t-73 43t-52.5 72t-20 101.5q0 68 24.5 115.5t61.5 84.5q24 24 55.5 46.5t84 43.5t132 40.5t200.5 37.5v118q0 31 -6 57.5t-21 45.5t-40 29.5t-63 10.5q-24 0 -48 -9t-42 -25.5t-28.5 -40t-7.5 -53.5 q1 -6 -16 -15t-43 -18.5t-57.5 -19t-60.5 -16t-52 -10t-31 -1.5l-21 54q24 60 75.5 111.5t120.5 90t150.5 60.5t164.5 22q69 0 119 -18t82.5 -50.5t48.5 -76.5t16 -95v-482q0 -42 11 -60t29 -18q7 0 14.5 1t18 4t24.5 8.5t34 13.5zM588 1243q0 48 -20 73.5t-43 25.5 q-21 0 -36.5 -8.5t-26 -22t-16 -31t-5.5 -35.5q0 -46 20.5 -71t43.5 -25q40 0 61.5 27t21.5 67zM723 1284q0 -53 -20 -100t-53.5 -81.5t-76.5 -54.5t-89 -20q-39 0 -72 12.5t-56.5 35.5t-36.5 55.5t-13 72.5q0 54 20 101t53 82.5t76.5 55.5t90.5 20q40 0 73 -13.5t56 -37 t35.5 -56.5t12.5 -72zM455 1480q-9 1 -21.5 6.5t-25.5 12t-23.5 13t-16.5 11.5l211 429q12 -1 44.5 -5.5t69.5 -10.5t70 -12.5t44 -9.5l30 -54z" />
<glyph unicode="&#x1fc;" horiz-adv-x="1655" d="M759 1118q0 11 -7 16t-17 3.5t-21 -10.5t-18 -26l-149 -366h212v383zM1609 304q-5 -43 -10.5 -90.5t-11 -90t-10.5 -75.5t-9 -48h-944v73q68 14 101.5 30.5t33.5 30.5v490h-255l-196 -483q-13 -29 10.5 -44t97.5 -24v-73h-416v73q62 9 97 24t48 44l389 962q7 17 2.5 28.5 t-22.5 21t-51 17.5t-82 17v73h1125l37 -32q-2 -26 -5.5 -65t-9 -80t-12.5 -77.5t-14 -55.5h-75q-5 93 -24 141.5t-58 48.5h-336v-405h398l34 -35q-9 -14 -20.5 -33t-24.5 -38t-25 -35t-22 -25q-15 15 -35 25t-39 17t-33 10t-17 3h-216v-440q0 -15 7.5 -26.5t30 -20t63 -13 t106.5 -4.5h95q46 0 79 11t58.5 35.5t46 64.5t41.5 99zM836 1360q-17 8 -35.5 28t-32.5 39l365 340q23 -12 51 -28.5t53.5 -32t45.5 -29.5t28 -22l9 -52z" />
<glyph unicode="&#x1fd;" horiz-adv-x="1501" d="M1436 550q-10 -10 -26 -22t-34.5 -23.5t-38 -21.5t-35.5 -16h-444q-1 -4 -1 -13v-13q0 -47 15 -99.5t44.5 -97.5t73.5 -74.5t102 -29.5q31 0 62 5.5t64.5 19t72 36.5t85.5 58q6 -3 14.5 -12t16 -19.5t13.5 -19.5t8 -13q-60 -66 -110.5 -109.5t-99.5 -69t-100 -36 t-112 -10.5q-43 0 -89 14.5t-89.5 41.5t-81.5 66t-66 89q-45 -56 -94 -96t-98.5 -65.5t-99 -37.5t-95.5 -12q-36 0 -76 12t-74 39.5t-56 71.5t-22 108q0 59 22.5 113t70 100t121.5 82.5t177 61.5q27 7 76 11.5t100 6.5v79q0 90 -31 132.5t-96 42.5q-26 0 -54.5 -10t-51 -28 t-34 -43.5t-2.5 -57.5q1 -7 -15 -16t-41.5 -18.5t-57 -18.5t-60.5 -15.5t-51.5 -9.5t-30.5 -1l-21 51q20 53 55.5 95.5t79.5 75.5t94 56.5t99 39t94.5 23t79.5 7.5q75 0 130 -24.5t89 -79.5q33 29 68 49t70.5 32t69.5 17.5t64 5.5q88 0 155 -34.5t112 -91.5t67.5 -131 t22.5 -153zM645 264q-6 23 -9.5 48.5t-3.5 52.5v98q-35 -2 -65.5 -3.5t-40.5 -3.5q-63 -14 -104.5 -35.5t-65.5 -47.5t-34 -55t-10 -59q0 -31 9.5 -53t24.5 -35.5t32.5 -19.5t33.5 -6q23 0 50 6t56.5 20t61.5 36.5t65 56.5zM1050 845q-23 0 -51 -8.5t-54.5 -36.5t-48 -80.5 t-31.5 -139.5h307q21 0 29.5 7.5t8.5 28.5q0 53 -11.5 95.5t-32.5 72t-50.5 45.5t-65.5 16zM722 1040q-9 1 -21.5 6.5t-25.5 12t-23.5 13t-16.5 11.5l211 429q12 -1 44.5 -5.5t69.5 -10.5t70 -12.5t44 -9.5l30 -54z" />
<glyph unicode="&#x1fe;" horiz-adv-x="1274" d="M946 629q0 68 -11 132.5t-31 123.5l-477 -655q44 -59 98.5 -92t116.5 -33q66 0 121.5 32t96 97.5t63.5 164t23 230.5zM308 641q0 -72 11.5 -138.5t31.5 -124.5l477 655q-44 59 -100.5 93t-123.5 34q-72 0 -127.5 -35.5t-93 -102t-56.5 -163t-19 -218.5zM1056 1094 q70 -91 106 -207t36 -240q0 -91 -22 -176t-61.5 -160.5t-94.5 -138t-122 -107.5t-143 -70t-157 -25q-85 0 -158.5 24t-133.5 69l-47 -65q-9 -8 -31 -16t-47 -15.5t-49 -12.5t-36 -7l-32 37l134 184q-69 89 -106 203.5t-37 240.5q0 136 44.5 259t124 216t190 148t242.5 55 q87 0 159.5 -24t132.5 -67l48 65q14 8 35 16t44 15t45 11.5t37 6.5l32 -37zM495 1360q-17 8 -35.5 28t-32.5 39l365 340q23 -12 51 -28.5t53.5 -32t45.5 -29.5t28 -22l9 -52z" />
<glyph unicode="&#x1ff;" horiz-adv-x="1075" d="M760 440q0 44 -8.5 91t-19.5 85l-335 -430q31 -39 70 -65t80 -26q60 0 100.5 23t65.5 67t36 108t11 147zM316 473q0 -41 7 -84.5t18 -77.5l337 435q-29 39 -68 64t-81 25q-62 0 -103 -27.5t-65.5 -76t-34.5 -115t-10 -143.5zM997 952l-104 -134q54 -63 85.5 -149 t31.5 -184q0 -67 -18 -131t-50.5 -121t-77.5 -105.5t-99.5 -83.5t-117 -54.5t-128.5 -19.5q-67 0 -129 17t-112 46l-14 -19q-9 -8 -29 -18t-43.5 -19.5t-46.5 -17.5t-38 -12l-26 31l103 133q-54 63 -86.5 149t-32.5 184q0 99 36.5 192t102 165t156 115.5t198.5 43.5 q66 0 127 -17t110 -46l15 18q13 9 33 19t41.5 20t43.5 17.5t39 11.5zM488 1040q-9 1 -21.5 6.5t-25.5 12t-23.5 13t-16.5 11.5l211 429q12 -1 44.5 -5.5t69.5 -10.5t70 -12.5t44 -9.5l30 -54z" />
<glyph unicode="&#x21e;" horiz-adv-x="1399" d="M43 0v73q68 14 102.5 30.5t34.5 30.5v991q0 12 -32.5 30t-104.5 32v73h525v-73q-68 -14 -103 -31t-35 -31v-405h520v405q0 12 -32.5 30t-104.5 32v73h525v-73q-68 -14 -103 -31t-35 -31v-991q0 -12 33 -29.5t105 -31.5v-73h-525v73q68 14 102.5 30.5t34.5 30.5v466h-520 v-466q0 -12 32.5 -29.5t105.5 -31.5v-73h-525zM759 1384h-137l-272 329q14 20 28.5 36.5t31.5 25.5l283 -188l277 188q17 -9 31.5 -25.5t26.5 -36.5z" />
<glyph unicode="&#x21f;" horiz-adv-x="1190" d="M663 0v73q72 19 102 33t30 28v439q0 61 -6.5 100.5t-20 62.5t-35 32.5t-51.5 9.5q-58 0 -119.5 -36t-142.5 -103v-505q0 -15 34 -31t99 -30v-73h-505v73q66 17 99 30.5t33 30.5v1134q0 42 -2.5 65.5t-15 36.5t-39.5 18.5t-75 11.5v70q56 8 100.5 16t82.5 17.5t73 20.5 t72 26l44 -41v-727q115 94 215.5 136t178.5 42q43 0 83 -13.5t70.5 -44t49 -79.5t18.5 -119v-570q0 -7 6 -13.5t21 -13.5t41 -15.5t65 -18.5v-73h-505zM676 1634h-137l-272 329q14 20 28.5 36.5t31.5 25.5l283 -188l277 188q17 -9 31.5 -25.5t26.5 -36.5z" />
<glyph unicode="&#x226;" horiz-adv-x="1287" d="M747 550l-165 465l-150 -465h315zM392 430l-96 -289q-10 -31 24.5 -45t116.5 -23v-73h-437v73q68 12 104.5 25t46.5 43l349 1066q24 20 51.5 37t57 30.5t58.5 24t55 18.5l420 -1176q5 -14 13 -25t22 -19t35.5 -14t53.5 -10v-73h-497v73q78 5 105.5 20t16.5 48l-102 289 h-397zM770 1548q0 -37 -12.5 -69t-33.5 -56t-49.5 -38t-60.5 -14q-58 0 -88.5 31t-30.5 91q0 37 13 69t34.5 56t50 37.5t59.5 13.5q56 0 87 -30t31 -91z" />
<glyph unicode="&#x227;" horiz-adv-x="1023" d="M412 145q19 0 40 4.5t46.5 16t56 32t68.5 52.5v221q-60 -10 -101 -19.5t-69 -19.5t-45.5 -21t-30.5 -24q-26 -26 -42 -56t-16 -72q0 -34 9.5 -56t24 -35t30.5 -18t29 -5zM1016 112q-42 -29 -87.5 -55t-86 -45.5t-74 -30.5t-51.5 -11q-37 0 -62.5 42t-30.5 117 q-45 -45 -90.5 -75.5t-88 -49t-81.5 -26.5t-71 -8q-42 0 -82.5 14.5t-73 43t-52.5 72t-20 101.5q0 68 24.5 115.5t61.5 84.5q24 24 55.5 46.5t84 43.5t132 40.5t200.5 37.5v118q0 31 -6 57.5t-21 45.5t-40 29.5t-63 10.5q-24 0 -48 -9t-42 -25.5t-28.5 -40t-7.5 -53.5 q1 -6 -16 -15t-43 -18.5t-57.5 -19t-60.5 -16t-52 -10t-31 -1.5l-21 54q24 60 75.5 111.5t120.5 90t150.5 60.5t164.5 22q69 0 119 -18t82.5 -50.5t48.5 -76.5t16 -95v-482q0 -42 11 -60t29 -18q7 0 14.5 1t18 4t24.5 8.5t34 13.5zM652 1268q0 -37 -12.5 -69t-33.5 -56 t-49.5 -38t-60.5 -14q-58 0 -88.5 31t-30.5 91q0 37 13 69t34.5 56t50 37.5t59.5 13.5q56 0 87 -30t31 -91z" />
<glyph unicode="&#x228;" horiz-adv-x="1076" d="M735 -229q0 -37 -27 -72t-75 -64t-114.5 -50t-144.5 -29l-37 71q87 13 124.5 42.5t37.5 61.5q0 34 -23 48.5t-67 18.5l3 4q3 4 11.5 25t23.5 65q14 39 36 108h-440v73q68 14 102.5 30.5t34.5 30.5v991q0 12 -32.5 30t-104.5 32v73h881l40 -32q-2 -26 -6 -65t-10 -80 t-12.5 -77.5t-12.5 -55.5h-75q-5 93 -25 141.5t-57 48.5h-336v-405h398l33 -35q-8 -14 -19.5 -32.5t-24 -36.5t-25 -33.5t-23.5 -23.5q-15 15 -32.5 25t-40 17t-53 10t-72.5 3h-141v-445q0 -15 7 -26.5t29 -20t62 -13t106 -4.5h99q46 0 78.5 11t57.5 35.5t45.5 64.5t41.5 99 l73 -26q-4 -43 -9 -90.5t-11 -90t-11.5 -75.5t-9.5 -48h-382l-34 -89q78 -14 120.5 -48.5t42.5 -91.5z" />
<glyph unicode="&#x229;" horiz-adv-x="991" d="M724 -229q0 -37 -27 -72t-75 -64t-114.5 -50t-144.5 -29l-37 71q87 13 124.5 42.5t37.5 61.5q0 34 -23 48.5t-67 18.5l3 4q3 4 11.5 25t23.5 65q11 30 27 79q-76 3 -144 33q-75 34 -131.5 96t-89.5 149t-33 193q0 136 51.5 242.5t154.5 181.5q26 19 58.5 36.5t68 30 t73.5 20t76 7.5q98 0 169.5 -34t118 -90.5t69 -130.5t22.5 -155q-9 -10 -26 -22t-37 -23t-40.5 -21t-36.5 -16h-473q2 -72 19.5 -132.5t49.5 -104.5t77.5 -68.5t104.5 -24.5q31 0 60.5 3.5t64 16.5t77.5 36.5t102 64.5q6 -3 14.5 -12t16 -19.5t13.5 -19.5t8 -13 q-69 -70 -124 -114t-105.5 -68.5t-100.5 -33.5h-3l-26 -68q78 -14 120.5 -48.5t42.5 -91.5zM511 840q-47 0 -81 -18t-57.5 -52t-37 -82t-19.5 -108h333q23 0 30.5 7.5t7.5 28.5q0 30 -8 68.5t-28.5 73t-54.5 58.5t-85 24z" />
<glyph unicode="&#x22a;" horiz-adv-x="1274" d="M946 629q0 103 -24.5 199t-69.5 170t-108 118t-140 44q-72 0 -127.5 -35.5t-93 -102t-56.5 -163t-19 -218.5q0 -112 26.5 -210t72 -170.5t106 -114t129.5 -41.5q66 0 121.5 32t96 97.5t63.5 164t23 230.5zM1198 647q0 -91 -22 -176t-61.5 -160.5t-94.5 -138t-122 -107.5 t-143 -70t-157 -25q-126 0 -227 53t-171 142t-107.5 205t-37.5 242q0 136 44.5 259t124 216t190 148t242.5 55t233 -54.5t170 -144.5t104 -206t35 -238zM987 1548q0 -37 -12.5 -69t-34 -56t-50 -38t-60.5 -14q-58 0 -88 31t-30 91q0 37 13 69t34.5 56t49.5 37.5t59 13.5 q56 0 87.5 -30t31.5 -91zM564 1548q0 -37 -12.5 -69t-33.5 -56t-49.5 -38t-60.5 -14q-58 0 -88.5 31t-30.5 91q0 37 13 69t34.5 56t50 37.5t58.5 13.5q57 0 88 -30t31 -91zM1074 1915q-3 -11 -10.5 -29.5t-16.5 -38.5t-17 -37.5t-12 -26.5h-764l-32 32q3 11 10 29t16 37.5 t17 37t13 27.5h764z" />
<glyph unicode="&#x22b;" horiz-adv-x="1075" d="M758 440q0 79 -16.5 150.5t-46.5 126t-72.5 86.5t-93.5 32q-62 0 -103 -27.5t-65 -76t-33.5 -115t-9.5 -143.5q0 -79 18.5 -148t50 -120t73 -80.5t87.5 -29.5q60 0 100 23t65 67t35.5 108t10.5 147zM1010 485q0 -67 -18 -131t-50.5 -121t-77.5 -105.5t-99.5 -83.5 t-117 -54.5t-128.5 -19.5q-103 0 -187 36t-143 99t-91.5 150t-32.5 189q0 99 36.5 192t102 165t156 115.5t198.5 43.5q102 0 185.5 -36t143 -99.5t91.5 -150.5t32 -189zM908 1268q0 -37 -12.5 -69t-34 -56t-50 -38t-60.5 -14q-58 0 -88 31t-30 91q0 37 13 69t34.5 56 t49.5 37.5t59 13.5q56 0 87.5 -30t31.5 -91zM485 1268q0 -37 -12.5 -69t-33.5 -56t-49.5 -38t-60.5 -14q-58 0 -88.5 31t-30.5 91q0 37 13 69t34.5 56t50 37.5t58.5 13.5q57 0 88 -30t31 -91zM995 1675q-3 -11 -10.5 -29.5t-16.5 -38.5t-17 -37.5t-12 -26.5h-764l-32 32 q3 11 10 29t16 37.5t17 37t13 27.5h764z" />
<glyph unicode="&#x22c;" horiz-adv-x="1274" d="M946 629q0 103 -24.5 199t-69.5 170t-108 118t-140 44q-72 0 -127.5 -35.5t-93 -102t-56.5 -163t-19 -218.5q0 -112 26.5 -210t72 -170.5t106 -114t129.5 -41.5q66 0 121.5 32t96 97.5t63.5 164t23 230.5zM1198 647q0 -91 -22 -176t-61.5 -160.5t-94.5 -138t-122 -107.5 t-143 -70t-157 -25q-126 0 -227 53t-171 142t-107.5 205t-37.5 242q0 136 44.5 259t124 216t190 148t242.5 55t233 -54.5t170 -144.5t104 -206t35 -238zM1032 1657q-18 -41 -44 -89.5t-59 -90.5t-73.5 -70.5t-86.5 -28.5q-43 0 -82 16.5t-76 36t-73.5 36t-74.5 16.5 q-23 0 -41 -7.5t-34.5 -22t-33 -36t-34.5 -49.5l-75 28q18 41 43.5 90t58.5 91.5t73 71t86 28.5t87.5 -16.5t79 -36t71.5 -36t66 -16.5q45 0 78 28t67 87zM1074 1945q-3 -11 -10.5 -29.5t-16.5 -38.5t-17 -37.5t-12 -26.5h-764l-32 32q3 11 10 29t16 37.5t17 37t13 27.5h764 z" />
<glyph unicode="&#x22d;" horiz-adv-x="1075" d="M758 440q0 79 -16.5 150.5t-46.5 126t-72.5 86.5t-93.5 32q-62 0 -103 -27.5t-65 -76t-33.5 -115t-9.5 -143.5q0 -79 18.5 -148t50 -120t73 -80.5t87.5 -29.5q60 0 100 23t65 67t35.5 108t10.5 147zM1010 485q0 -67 -18 -131t-50.5 -121t-77.5 -105.5t-99.5 -83.5 t-117 -54.5t-128.5 -19.5q-103 0 -187 36t-143 99t-91.5 150t-32.5 189q0 99 36.5 192t102 165t156 115.5t198.5 43.5q102 0 185.5 -36t143 -99.5t91.5 -150.5t32 -189zM953 1377q-18 -41 -44 -89.5t-59 -90.5t-73.5 -70.5t-86.5 -28.5q-43 0 -82 16.5t-76 36t-73.5 36 t-74.5 16.5q-23 0 -41 -7.5t-34.5 -22t-33 -36t-34.5 -49.5l-75 28q18 41 43.5 90t58.5 91.5t73 71t86 28.5t87.5 -16.5t79 -36t71.5 -36t66 -16.5q45 0 78 28t67 87zM1004 1697q-3 -11 -10.5 -29.5t-16.5 -38.5t-17 -37.5t-12 -26.5h-764l-32 32q3 11 10 29t16 37.5t17 37 t13 27.5h764z" />
</font>
</defs>
</svg>
