<?xml version="1.0" standalone="no"?>
<!DOCTYPE svg PUBLIC "-//W3C//DTD SVG 1.1//EN" "http://www.w3.org/Graphics/SVG/1.1/DTD/svg11.dtd" >
<svg xmlns="http://www.w3.org/2000/svg">
<metadata>Generated by IcoMoon</metadata>
<defs>
<font id="icomoon" horiz-adv-x="512">
<font-face units-per-em="512" ascent="480" descent="-32" />
<missing-glyph horiz-adv-x="512" />
<glyph unicode="&#x20;" d="" horiz-adv-x="256" />
<glyph unicode="&#xe600;" d="M505.216 60.624l-191.984 384c-10.832 21.68-32.976 35.376-57.232 35.376s-46.4-13.696-57.232-35.376l-191.984-384c-9.92-19.84-8.864-43.408 2.8-62.288 11.664-18.848 32.256-30.336 54.432-30.336h383.952c22.192 0 42.784 11.488 54.432 30.336 11.664 18.88 12.72 42.448 2.816 62.288zM287.968 48c0-8.848-7.152-16-16-16h-32c-8.848 0-16 7.152-16 16v32c0 8.848 7.152 16 16 16h32c8.848 0 16-7.152 16-16v-32zM287.968 176c0-8.848-7.152-16-16-16h-32c-8.848 0-16 7.152-16 16v160c0 8.832 7.152 16 16 16h32c8.848 0 16-7.168 16-16v-160z" />
<glyph unicode="&#xe601;" d="M512 144c0-61.856-50.144-112-112-112h-288v0.4c-62.528 4.128-112 56.032-112 119.6 0 39.568 19.232 74.544 48.768 96.4-0.24 2.544-0.768 5.008-0.768 7.6 0 44.192 35.824 80 80 80 15.376 0 29.616-4.56 41.808-12.080 20.848 53.84 73.008 92.080 134.192 92.080 79.536 0 144-64.464 144-144 0-8.816-0.912-17.376-2.432-25.744 39.12-17.472 66.432-56.64 66.432-102.256z" />
<glyph unicode="&#xe602;" d="M464-32h-416c-8.832 0-16 7.152-16 16v256c0 8.848 7.168 16 16 16h48v64c0 88.368 71.632 160 160 160s160-71.632 160-160v-64h48c8.848 0 16-7.152 16-16v-256c0-8.848-7.152-16-16-16zM352 328c0 48.608-42.992 88-96 88s-96-39.392-96-88v-72h192v72z" />
<glyph unicode="&#xe603;" d="M416 464c0 8.832-7.152 16-16 16h-288c-8.832 0-16-7.168-16-16l-96-240v-224c0-17.664 14.336-32 32-32h448c17.664 0 32 14.336 32 32v224l-96 240zM368 224l-48-80c0-8.848-7.152-16-16-16h-96c-8.848 0-16 7.152-16 16l-48 80h-80l82.288 192h219.44l82.272-192h-80z" />
<glyph unicode="&#xe604;" d="M256 32.496c-10.384 0-25.584 11.68-35.664 12.752-28.752-24.112-58.704-53.136-99.424-68.224-17.776-7.536-33.040-11.904-37.008-7.152-5.328 6.192-13.376 14.784-14.8 17.088 0.080 3.424 4.224 0.72 8.736 5.584 24.576 10.336 40.448 37.008 51.12 69.616-76.976 38.576-128.96 110.944-128.96 194.048 0 123.536 114.624 223.696 256 223.696s256-100.144 256-223.696-114.624-223.712-256-223.712z" />
<glyph unicode="&#xe605;" d="M448 240h-0.784c-7.872-84.4-76.144-176-159.216-176v-64h96c8.848 0 16-7.152 16-16s-7.152-16-16-16h-256c-8.848 0-16 7.152-16 16s7.152 16 16 16h96v64c-83.072 0-151.328 91.6-159.216 176h-0.784v96c0 17.664 14.336 32 32 32s32-14.336 32-32v-80c0-70.688 57.312-128 128-128s128 57.312 128 128v80c0 17.664 14.336 32 32 32s32-14.336 32-32v-96zM256 192c-44.192 0-64 35.808-64 80v128c0 44.176 19.808 80 64 80s64-35.824 64-80v-128c0-44.192-19.808-80-64-80zM280 256c4.416 0 8 3.584 8 8 0 4.4-3.584 8-8 8s-8-3.6-8-8c0-4.416 3.584-8 8-8zM232 352c-4.416 0-8-3.6-8-8 0-4.416 3.584-8 8-8s8 3.584 8 8c0 4.4-3.584 8-8 8zM240 376c0 4.416-3.584 8-8 8s-8-3.584-8-8c0-4.416 3.584-8 8-8s8 3.584 8 8zM248 304c-4.416 0-8-3.6-8-8 0-4.416 3.584-8 8-8s8 3.584 8 8c0 4.4-3.584 8-8 8zM264 304c4.416 0 8 3.584 8 8 0 4.4-3.584 8-8 8s-8-3.6-8-8c0-4.416 3.584-8 8-8zM248 320c4.416 0 8 3.584 8 8 0 4.4-3.584 8-8 8s-8-3.6-8-8c0-4.416 3.584-8 8-8zM232 320c-4.416 0-8-3.6-8-8 0-4.416 3.584-8 8-8s8 3.584 8 8c0 4.4-3.584 8-8 8zM248 352c4.416 0 8 3.584 8 8s-3.584 8-8 8-8-3.584-8-8c0-4.416 3.584-8 8-8zM264 368c4.416 0 8 3.584 8 8s-3.584 8-8 8-8-3.584-8-8c0-4.416 3.584-8 8-8zM264 352c-4.416 0-8-3.6-8-8 0-4.416 3.584-8 8-8s8 3.584 8 8c0 4.4-3.584 8-8 8zM280 352c4.416 0 8 3.584 8 8s-3.584 8-8 8-8-3.584-8-8c0-4.416 3.584-8 8-8zM280 336c-4.416 0-8-3.6-8-8 0-4.416 3.584-8 8-8s8 3.584 8 8c0 4.4-3.584 8-8 8zM280 304c-4.416 0-8-3.6-8-8 0-4.416 3.584-8 8-8s8 3.584 8 8c0 4.4-3.584 8-8 8zM264 272c4.416 0 8 3.584 8 8 0 4.4-3.584 8-8 8s-8-3.6-8-8c0-4.416 3.584-8 8-8zM248 256c4.416 0 8 3.584 8 8 0 4.4-3.584 8-8 8s-8-3.6-8-8c0-4.416 3.584-8 8-8zM232 272c4.416 0 8 3.584 8 8 0 4.4-3.584 8-8 8s-8-3.6-8-8c0-4.416 3.584-8 8-8zM232 416c-4.416 0-8-3.584-8-8s3.584-8 8-8 8 3.584 8 8c0 4.416-3.584 8-8 8zM248 400c-4.416 0-8-3.584-8-8s3.584-8 8-8 8 3.584 8 8c0 4.416-3.584 8-8 8zM264 416c-4.416 0-8-3.584-8-8s3.584-8 8-8 8 3.584 8 8c0 4.416-3.584 8-8 8zM280 400c-4.416 0-8-3.584-8-8s3.584-8 8-8 8 3.584 8 8c0 4.416-3.584 8-8 8z" />
<glyph unicode="&#xe606;" d="M464 416h-416c-26.512 0-48-21.488-48-48v-288c0-26.496 21.488-48 48-48h416c26.512 0 48 21.504 48 48v288c0 26.512-21.488 48-48 48zM43.856 64.16l-11.696 11.712 131.984 131.968 11.696-11.712-131.984-131.968zM468.144 64.16l-131.984 131.968 11.696 11.712 131.984-131.968-11.696-11.712zM272 170.8v-10.8h-32v10.8l-207.952 192.8 20.352 20.352 203.6-188.768 203.6 188.768 20.352-20.352-207.952-192.8z" />
<glyph unicode="&#xe607;" d="M464-32h-16v160h64v-112c0-26.496-21.488-48-48-48zM448 320h16c26.512 0 48-21.504 48-48v-128h-64v176zM96 128h128v-32c0-8.848 7.168-16 16-16h32c8.848 0 16 7.152 16 16v32h128v-160h-320v160zM288 144v48c0 8.848-7.152 16-16 16h-32c-8.832 0-16-7.152-16-16v-48h-128v176h32v40c0 66.272 57.312 120 128 120s128-53.728 128-120v-40h32v-176h-128zM320 352c0 35.344-28.656 64-64 64s-64-28.656-64-64v-32h128v32zM0 16v112h64v-160h-16c-26.512 0-48 21.504-48 48zM0 272c0 26.496 21.488 48 48 48h16v-176h-64v128z" />
<glyph unicode="&#xe608;" d="M510.624 393.6l-46.624-185.6c0-2.224-0.448-4.32-1.248-6.224-1.632-3.84-4.688-6.912-8.512-8.528-1.92-0.816-4.032-1.248-6.24-1.248h-304l12.8-64h275.2c8.848 0 16-7.152 16-16s-7.152-16-16-16h-288c-8.848 0-16 7.152-16 16l-60.8 304h-51.2c-8.832 0-16 7.168-16 16s7.168 16 16 16h64c8.848 0 16-7.168 16-16l3.2-16h396.8c8.848 0 16-7.168 16-16 0-2.288-0.512-4.432-1.376-6.4zM137.6 224h54.4v160h-86.4l32-160zM288 384h-80v-160h80v160zM384 384h-80v-160h80v160zM400 384v-160h36.048l40.528 160h-76.576zM176 64c26.512 0 48-21.504 48-48s-21.488-48-48-48-48 21.504-48 48 21.488 48 48 48zM176 0c8.848 0 16 7.152 16 16s-7.152 16-16 16-16-7.152-16-16 7.152-16 16-16zM400 64c26.512 0 48-21.504 48-48s-21.488-48-48-48-48 21.504-48 48 21.488 48 48 48zM400 0c8.848 0 16 7.152 16 16s-7.152 16-16 16-16-7.152-16-16 7.152-16 16-16z" />
<glyph unicode="&#xe609;" d="M74.992 42.992c-99.984 99.968-99.984 262.064 0 362.032 99.968 99.984 262.064 99.984 362.032 0 99.984-99.968 99.984-262.064 0-362.032-99.984-99.984-262.064-99.984-362.032 0zM391.76 359.76l-271.52-271.52c74.992-74.992 196.544-74.992 271.536 0s74.976 196.544-0.016 271.52z" />
<glyph unicode="&#xe60a;" d="M256 480c-141.392 0-256-114.624-256-256s114.608-256 256-256 256 114.624 256 256c0 141.376-114.608 256-256 256zM256 32c-106.032 0-192 85.968-192 192s85.968 192 192 192 192-85.968 192-192-85.968-192-192-192zM368 256h-80v112c0 8.832-7.152 16-16 16h-32c-8.848 0-16-7.168-16-16v-160c0-8.848 7.152-16 16-16h128c8.848 0 16 7.152 16 16v32c0 8.848-7.152 16-16 16z" />
<glyph unicode="&#xe60b;" d="M0-32v48c0 71.744 90.384 98.864 209.584 109.792-26.176 16.224-46.72 61.824-57.424 98.24-0.048 0-0.096-0.032-0.16-0.032-1.088 0-24 28.656-24 64 0 31.008-2.208 56.864 16.112 62.72-0.016 0.432-0.112 0.848-0.112 1.28 0 39.312 20.336 73.76 50.992 93.744 7.92 19.76 32.064 34.256 61.008 34.256s53.088-14.496 61.008-34.256c30.656-19.984 50.992-54.432 50.992-93.744 0-0.432-0.096-0.848-0.112-1.28 18.32-5.856 16.112-31.712 16.112-62.72 0-35.344-25.408-64-24-64-0.064 0-0.112 0.032-0.16 0.032-10.704-36.4-31.248-82.016-57.424-98.24 119.2-10.928 209.584-37.040 209.584-109.792v-48h-512z" />
<glyph unicode="&#xe60c;" d="M431.84 182.16c34.496-25.712 64.064-49.248 64.064-49.248l-42.096-73.824-76.080 33.584-70.496-41.232c-4.768-43.472-9.136-83.44-9.136-83.44h-84.192l-9.344 83.696-69.472 41.328-76.912-33.952-42.080 73.824c0 0 29.072 23.424 63.488 49.056v84.144l-63.488 48.96 42.080 73.84 75.072-33.408 74.528 40.432 6.128 84.080h84.192l6.096-83.728 73.504-41.248 76.128 33.888 42.096-73.84-64.064-49.136v-83.776zM256 288c-35.344 0-64-28.656-64-64s28.656-64 64-64 64 28.656 64 64-28.656 64-64 64z" />
<glyph unicode="&#xe60d;" d="M416 32c-53.008 0-96 35.808-96 80s42.992 80 96 80c11.28 0 21.936-1.92 32-4.912v148.912l-256-64v-240h-1.936c-8.896-36.512-47.632-64-94.064-64-53.008 0-96 35.808-96 80s42.992 80 96 80c11.28 0 21.936-1.92 32-4.912v276.912l320 80h64v-368c0-44.192-42.992-80-96-80z" />
<glyph unicode="&#xe60e;" d="M384 224h-192v-64c0-35.344 28.656-64 64-64h128c35.344 0 64-28.656 64-64s-28.656-64-64-64h-128c-106.032 0-192 85.968-192 192v256c0 35.344 28.656 64 64 64s64-28.656 64-64v-64h192c35.344 0 64-28.656 64-64s-28.656-64-64-64z" />
<glyph unicode="&#xe60f;" d="M482.768 359.328l-5.024-5.024-91.616 91.664 5.008 5.008c0 0 21.936 29.008 53.136 29.008 13.744 0 29.312-5.648 45.584-21.92 53.664-53.664-7.088-98.736-7.088-98.736zM447.664 324.208l-311.984-312.096-135.68-44.112 44.096 135.76v0.048h0.032l311.936 312.080 4.032-4.048zM44.16 12.176l67.792 19.504-46.304 49.312-21.488-68.816z" />
<glyph unicode="&#xe610;" d="M512 128c0-17.664-14.336-32-32-32v-34.944c18.592-6.624 32-24.192 32-45.056 0-26.496-21.504-48-48-48-20.88 0-38.448 13.408-45.056 32h-34.944c0-17.664-14.336-32-32-32s-32 14.336-32 32h-32c0-17.664-14.336-32-32-32s-32 14.336-32 32h-32c0-17.664-14.336-32-32-32s-32 14.336-32 32h-34.944c-6.608-18.592-24.192-32-45.056-32-26.512 0-48 21.504-48 48 0 20.88 13.392 38.432 32 45.056v34.944c-17.664 0-32 14.336-32 32s14.336 32 32 32v32c-17.664 0-32 14.336-32 32s14.336 32 32 32v32c-17.664 0-32 14.336-32 32s14.336 32 32 32v34.944c-18.608 6.608-32 24.192-32 45.056 0 26.512 21.488 48 48 48 20.864 0 38.448-13.392 45.056-32h34.944c0 17.664 14.336 32 32 32s32-14.336 32-32h32c0 17.664 14.336 32 32 32s32-14.336 32-32h32c0 17.664 14.336 32 32 32s32-14.336 32-32h34.944c6.608 18.608 24.176 32 45.056 32 26.496 0 48-21.488 48-48 0-20.864-13.408-38.448-32-45.056v-34.944c17.664 0 32-14.336 32-32s-14.336-32-32-32v-32c17.664 0 32-14.336 32-32s-14.336-32-32-32v-32c17.664 0 32-14.336 32-32zM416 368c0 8.832-7.152 16-16 16h-288c-8.832 0-16-7.168-16-16v-288c0-8.848 7.168-16 16-16h288c8.848 0 16 7.152 16 16v288z" />
<glyph unicode="&#xe611;" d="M480 224c0-123.712-100.288-224-224-224s-224 100.288-224 224c0 54.528 19.616 104.368 52 143.2 2.464 4.544 5.888 8.496 10.16 11.36 0.72 0.752 1.36 1.6 2.096 2.336 0.016-0.368 0.176-0.72 0.208-1.088 4.624 2.592 9.872 4.192 15.536 4.192 17.664 0 32-14.336 32-32 0-11.136-5.68-20.928-14.32-26.656 0.56-0.416 0.96-0.928 1.536-1.344-22-27.392-35.216-62.128-35.216-100 0-88.368 71.632-160 160-160s160 71.632 160 160c0 37.872-13.216 72.608-35.216 100 0.576 0.416 0.992 0.928 1.536 1.344-8.64 5.728-14.32 15.52-14.32 26.656 0 17.664 14.336 32 32 32 5.664 0 10.912-1.6 15.536-4.192 0.032 0.368 0.192 0.72 0.224 1.088 0.72-0.736 1.36-1.584 2.096-2.336 4.272-2.864 7.68-6.816 10.16-11.36 32.352-38.832 51.984-88.672 51.984-143.2zM272 192h-32c-8.848 0-16 7.152-16 16v224c0 8.832 7.152 16 16 16h32c8.848 0 16-7.168 16-16v-224c0-8.848-7.152-16-16-16z" />
<glyph unicode="&#xe612;" d="M362.016 160.944l-0.16 0.096-1.056-0.848 1.504-0.224c0 0 64.832-163.264 51.248-186.928-26.704-20.24-141.472 89.52-156.384 104.016l0.096-0.56c0 0-128.944-128.768-158.8-105.744-17.888 12.992 47.152 192.48 47.152 192.48l0.304 0.048c-23.888 13.648-155.088 106.336-145.392 139.696 0.288 20.080 182.624 18.688 188.432 17.904 0.704 4.080 31.952 159.12 67.056 159.12 35.28 0 65.6-158.688 65.968-160.896h0.096l0.032-0.16 0.4 0.848c0 0 188.688 2.896 188.976-16.816 10.688-36.688-149.472-142.032-149.472-142.032z" />
<glyph unicode="&#xe613;" d="M224 160h-48v0.976c-5.28-0.544-10.576-0.976-16-0.976-88.352 0-160 71.632-160 160 0 88.368 71.648 160 160 160s160-71.632 160-160v-64h16v-16h16v-16h16v-16h16v-16h16v-16h16v-16h16v-16h16v-16h16v-16h16v-16h16v-16h16v-96c0-8.848-7.152-16-16-16h-64c-8.848 0-16 7.152-16 16v64h-80c-8.832 0-16 7.152-16 16v64h-80zM128 416c-35.344 0-64-28.656-64-64s28.656-64 64-64 64 28.656 64 64-28.656 64-64 64z" />
<glyph unicode="&#xe614;" d="M288 256v224c132.544 0 224-91.456 224-224h-224zM240-32c-132.544 0-240 107.456-240 240 0 144.544 105.456 240 256 240v-224h224c0-132.544-107.456-256-240-256z" />
<glyph unicode="&#xe615;" d="M406.16 207.936c0.752-77.456 72.944-103.184 73.776-103.568-0.656-1.744-11.568-36.72-38.096-72.832-22.944-31.184-46.688-62.24-84.16-62.864-36.848-0.656-48.688 20.336-90.816 20.336-42.112 0-55.264-19.712-90.112-20.992-36.144-1.28-63.696 33.664-86.832 64.768-47.264 63.584-83.36 179.664-34.848 258 24.048 38.912 67.072 63.552 113.792 64.208 35.52 0.592 69.072-22.304 90.752-22.304 21.744 0 62.496 27.504 105.312 23.472 17.936-0.688 68.288-6.72 100.592-50.704-2.544-1.552-60.080-32.656-59.36-97.52zM255.296 362c-4.176 29.424 11.392 60.016 29.184 79.232 19.856 21.648 53.36 37.744 81.024 38.768 3.536-29.984-9.44-60.080-28.624-81.744-19.216-21.632-50.72-38.48-81.584-36.256z" />
<glyph unicode="&#xe616;" d="M432-32h-352c-8.848 0-16 7.152-16 16v336h144c8.848 0 16 7.168 16 16v144h208c8.848 0 16-7.168 16-16v-480c0-8.848-7.152-16-16-16zM192 480v-128h-128l128 128z" />
<glyph unicode="&#xe617;" d="M496 288h-176v176c0 8.832-7.152 16-16 16h-96c-8.848 0-16-7.168-16-16v-176h-176c-8.848 0-16-7.168-16-16v-96c0-8.848 7.152-16 16-16h176v-176c0-8.848 7.152-16 16-16h96c8.848 0 16 7.152 16 16v176h176c8.848 0 16 7.152 16 16v96c0 8.832-7.152 16-16 16z" />
<glyph unicode="&#xe618;" d="M16 288h480c8.848 0 16-7.168 16-16v-96c0-8.848-7.152-16-16-16h-480c-8.832 0-16 7.152-16 16v96c0 8.832 7.168 16 16 16z" />
<glyph unicode="&#xe619;" d="M320 288l-96-160-63.52 46.336-0.48 1.664-3.776 1.456 2.944-2.16-95.168-79.296v-32h384v32l-48 144-80 48zM144 272c26.496 0 48 21.488 48 48s-21.504 48-48 48-48-21.488-48-48 21.504-48 48-48zM496 448h-480c-8.832 0-16-7.168-16-16v-416c0-8.848 7.168-16 16-16h480c8.848 0 16 7.152 16 16v416c0 8.832-7.152 16-16 16zM480 48c0-8.848-7.152-16-16-16h-416c-8.832 0-16 7.152-16 16v352c0 8.832 7.168 16 16 16h416c8.848 0 16-7.168 16-16v-352z" />
<glyph unicode="&#xe61a;" d="M496 288h-480c-8.832 0-16-7.168-16-16l16-256c0-8.848 7.168-16 16-16h448c8.848 0 16 7.152 16 16l16 256c0 8.832-7.152 16-16 16zM496 384h-176l-32 48c0 8.832-7.152 16-16 16h-192c-8.832 0-16-7.168-16-16v-48h-48c-8.832 0-16-7.168-16-16v-32c0-8.832 7.168-16 16-16h480c8.848 0 16 7.168 16 16v32c0 8.832-7.152 16-16 16z" />
<glyph unicode="&#xe61b;" d="M496 384h-88l-24 48c0 8.832-7.152 16-16 16h-224c-8.848 0-16-7.168-16-16l-24-48h-88c-8.832 0-16-7.168-16-16v-352c0-8.848 7.168-16 16-16h480c8.848 0 16 7.152 16 16v352c0 8.832-7.152 16-16 16zM256 64c-70.688 0-128 57.312-128 128s57.312 128 128 128 128-57.312 128-128c0-70.688-57.312-128-128-128zM256 256c-35.344 0-64-28.656-64-64s28.656-64 64-64 64 28.656 64 64-28.656 64-64 64z" />
<glyph unicode="&#xe61c;" d="M507.44 16.752c6.096-6.096 6.096-15.984 0-22.096l-22.096-22.096c-6.112-6.096-16-6.096-22.096 0l-154.688 154.688c-1.68 1.68-2.8 3.664-3.552 5.776-31.728-23.184-70.688-37.024-113.008-37.024-106.032 0-192 85.968-192 192 0 106.032 85.968 192 192 192 106.032 0 192-85.968 192-192 0-42.32-13.84-81.28-37.024-113.008 2.112-0.752 4.096-1.856 5.776-3.552l154.688-154.688zM192 416c-70.688 0-128-57.312-128-128s57.312-128 128-128 128 57.312 128 128c0 70.688-57.312 128-128 128z" />
<glyph unicode="&#xe61d;" d="M506.816 275.536c-3.376 16.432-8.4 32.64-14.944 48.112-6.4 15.184-14.352 29.808-23.616 43.488-9.152 13.552-19.664 26.288-31.232 37.856-11.6 11.6-24.336 22.112-37.872 31.248-13.68 9.264-28.336 17.2-43.504 23.616-15.472 6.512-31.664 11.584-48.112 14.928-16.848 3.456-34.192 5.216-51.536 5.216s-34.688-1.76-51.568-5.216c-16.432-3.344-32.624-8.4-48.096-14.928-15.168-6.416-29.808-14.352-43.488-23.616-13.552-9.136-26.304-19.648-37.872-31.248-11.584-11.568-22.080-24.304-31.232-37.856-9.264-13.664-17.2-28.288-23.616-43.472-6.544-15.472-11.568-31.68-14.944-48.112-3.44-16.848-5.184-34.208-5.184-51.52 0-17.392 1.744-34.752 5.184-51.6 3.376-16.416 8.384-32.624 14.944-48.080 6.416-15.168 14.352-29.84 23.616-43.52 9.152-13.552 19.664-26.272 31.232-37.856 11.584-11.568 24.336-22.064 37.872-31.216 13.68-9.248 28.336-17.2 43.504-23.616 15.472-6.56 31.664-11.552 48.096-14.944 16.864-3.456 34.208-5.2 51.552-5.2s34.688 1.744 51.552 5.216c16.448 3.392 32.64 8.368 48.112 14.944 15.168 6.4 29.808 14.352 43.504 23.616 13.552 9.152 26.288 19.664 37.872 31.216 11.568 11.6 22.080 24.32 31.232 37.856 9.248 13.664 17.2 28.336 23.616 43.52 6.528 15.456 11.568 31.664 14.944 48.080 3.424 16.832 5.168 34.192 5.168 51.584 0 17.312-1.744 34.672-5.184 51.504zM474.56 226.192c-3.152 0.688-77.152 16.592-152.288 7.152-1.536 3.744-3.088 7.504-4.72 11.28-4.528 10.72-9.44 21.312-14.528 31.728 86.336 35.232 121.408 85.92 121.808 86.528 30.688-37.248 49.232-84.816 49.728-136.688zM400.4 388.064c-0.528-0.864-31.68-48.24-114.208-79.152-37.376 68.672-78.432 123.2-81.728 127.536 16.528 4.016 33.792 6.176 51.536 6.176 55.36 0 105.872-20.624 144.4-54.56zM203.648 436.272c-0.016-0.032-0.048-0.048-0.048-0.048s-0.256-0.064-0.656-0.144c0.208 0.064 0.464 0.112 0.704 0.192zM162.72 421.728c2.912-3.904 43.344-58.704 81.184-125.968-104.976-27.888-196.080-26.8-201.856-26.688 14.208 67.712 59.696 123.84 120.672 152.656zM37.376 224.032c0 2.32 0.096 4.592 0.192 6.896 3.84-0.080 111.872-2.528 224.432 31.152 6.288-12.256 12.272-24.72 17.744-37.168-2.912-0.816-5.744-1.664-8.624-2.608-117.984-38.128-177.824-144.288-177.824-144.288s0.080-0.064 0.096-0.096c-34.816 38.72-56.016 89.92-56.016 146.112zM256 5.392c-52.912 0-101.44 18.816-139.264 50.096 2.896-2.336 4.896-3.824 4.896-3.824s41.904 91.408 171.6 136.56c0.464 0.192 0.96 0.32 1.44 0.464 30.768-79.92 43.472-146.896 46.704-165.984-26.256-11.136-55.088-17.312-85.376-17.312zM378.176 42.672c-2.24 13.216-13.872 77.376-42.544 156.176 70.576 11.28 131.728-8.080 136.256-9.568-9.744-60.896-44.624-113.456-93.712-146.608z" />
<glyph unicode="&#xe61e;" d="M478.944-15.552l-211.824 488.496c-1.856 4.288-6.096 7.056-10.768 7.056s-8.912-2.768-10.752-7.040l-212.544-488.496c-1.584-3.664-1.216-7.84 0.96-11.152 2.176-3.296 5.856-5.312 9.808-5.312h180.176v106.688l-63.984 21.328c-8.848 0-16 7.152-16 16s7.152 16 16 16l63.984-21.328v101.312c0 8.848 7.152 16 16 16h32c8.848 0 16-7.152 16-16v-24l47.984 24c8.848 0 16-7.152 16-16s-7.152-16-16-16l-47.984-23.984v-56l79.984 48c8.848 0 16-7.152 16-16s-7.152-16-16-16l-79.984-48v-96.016h180.176c3.968 0 7.648 2 9.808 5.312 2.176 3.296 2.512 7.504 0.96 11.136z" />
<glyph unicode="&#xe61f;" d="M421.344-32c-0.4 229.616-200.752 417.264-421.344 417.696v94.304c270.656 0 512-230.304 512-512h-90.656zM343.6-31.968h-90.608c0.304 56.384-28.336 119.488-73.664 166.736-45.072 47.632-124.96 77.648-179.104 77.36v94.272c169.040-3.648 339.936-163.312 343.376-338.368zM64.256 96.048c35.312 0 63.936-28.656 63.936-64 0-35.328-28.624-63.984-63.936-63.984s-63.936 28.656-63.936 63.984c0 35.344 28.624 64 63.936 64z" />
<glyph unicode="&#xe620;" d="M437.008 42.992c-99.968-99.984-262.064-99.984-362.032 0-99.984 99.968-99.984 262.064 0 362.032 99.968 99.984 262.064 99.984 362.032 0 99.984-99.984 99.984-262.064 0-362.032zM120.24 88.24c67.248-67.248 171.888-73.984 246.864-20.592l-267.456 267.456c-53.392-74.976-46.656-179.6 20.592-246.864zM391.76 359.76c-67.248 67.248-171.888 73.984-246.848 20.592l267.456-267.44c53.376 74.96 46.64 179.6-20.608 246.848z" />
<glyph unicode="&#xe621;" d="M256 480c-141.392 0-256-114.624-256-256s114.608-256 256-256 256 114.624 256 256c0 141.376-114.608 256-256 256zM288 34.88v61.12c0 8.848-7.152 16-16 16h-32c-8.848 0-16-7.152-16-16v-61.12c-80.336 13.504-143.712 76.8-157.232 157.12h61.232c8.848 0 16 7.152 16 16v32c0 8.848-7.152 16-16 16h-61.12c13.504 80.352 76.8 143.712 157.12 157.232v-61.232c0-8.832 7.152-16 16-16h32c8.848 0 16 7.168 16 16v61.232c80.32-13.52 143.616-76.88 157.12-157.232h-61.12c-8.848 0-16-7.152-16-16v-32c0-8.848 7.152-16 16-16h61.232c-13.52-80.32-76.896-143.616-157.232-157.12z" />
<glyph unicode="&#xe622;" d="M96 480v-512l320 255.632-320 256.368z" />
<glyph unicode="&#xe623;" d="M176 480h-96c-8.848 0-16-7.168-16-16v-480c0-8.848 7.152-16 16-16h96c8.848 0 16 7.152 16 16v480c0 8.832-7.152 16-16 16zM432 480h-96c-8.848 0-16-7.168-16-16v-480c0-8.848 7.152-16 16-16h96c8.848 0 16 7.152 16 16v480c0 8.832-7.152 16-16 16z" />
<glyph unicode="&#xe624;" d="M496 240h-82.368c-2.912 21.712-8.816 42.096-16.944 60.688l51.312 51.312c8.848 0 16 7.168 16 16v80c0 8.832-7.152 16-16 16s-16-7.168-16-16v-80l-52.896-35.264c-8.144 12.016-17.328 22.912-27.6 32.080-4.816 64.672-45.728 115.184-95.504 115.184s-90.688-50.512-95.52-115.184c-10.256-9.152-19.456-20.048-27.584-32.080l-52.896 35.264v80c0 8.832-7.168 16-16 16s-16-7.168-16-16v-80c0-8.832 7.168-16 16-16l51.312-51.312c-8.128-18.592-14.032-38.976-16.944-60.688h-82.368c-8.832 0-16-7.152-16-16s7.168-16 16-16h82.288c1.776-13.344 4.752-58.16 8.592-70.4l-46.672-58.368c-6.96-1.76-12.208-7.744-12.208-15.232v-80c0-8.848 7.168-16 16-16s16 7.152 16 16v80l40.336 40.336c27.008-53.056 74-88.336 127.664-88.336 2.704 0 5.328 0.48 8 0.672 2.672-0.192 5.296-0.672 8-0.672 53.664 0 100.656 35.28 127.664 88.336l40.336-40.336v-80c0-8.848 7.152-16 16-16s16 7.152 16 16v80c0 7.488-5.248 13.472-12.192 15.216l-46.688 58.384c3.84 12.256 6.816 57.056 8.592 70.4h82.288c8.848 0 16 7.152 16 16s-7.152 16-16 16z" />
<glyph unicode="&#xe625;" d="M496 416h-480c-8.832 0-16-7.168-16-16v-352c0-8.848 7.168-16 16-16h480c8.848 0 16 7.152 16 16v352c0 8.832-7.152 16-16 16zM480 80c0-8.848-7.152-16-16-16h-416c-8.832 0-16 7.152-16 16v288c0 8.832 7.168 16 16 16h416c8.848 0 16-7.168 16-16v-288zM151.968 285.744l-61.68 61.696c-6 6-15.728 6-21.728 0s-6-15.728 0-21.728l53.728-53.712-53.728-53.728c-6-6-6-15.712 0-21.712s15.728-6 21.728 0l61.68 61.68c1.216 0.672 2.448 1.28 3.472 2.304 3.152 3.152 4.56 7.328 4.384 11.456 0.16 4.128-1.232 8.304-4.384 11.44-1.024 1.024-2.256 1.632-3.472 2.304zM304 224h-96c-8.832 0-16-7.168-16-16 0-8.848 7.168-16 16-16h96c8.848 0 16 7.152 16 16 0 8.832-7.152 16-16 16z" />
<glyph unicode="&#xe626;" d="M464 480h-416c-8.832 0-16-7.168-16-16v-480c0-8.848 7.168-16 16-16h416c8.848 0 16 7.152 16 16v480c0 8.832-7.152 16-16 16zM80 32c-8.832 0-16 7.152-16 16s7.168 16 16 16 16-7.152 16-16-7.168-16-16-16zM80 96c-8.832 0-16 7.152-16 16s7.168 16 16 16 16-7.152 16-16-7.168-16-16-16zM80 160c-8.832 0-16 7.152-16 16s7.168 16 16 16 16-7.152 16-16-7.168-16-16-16zM80 224c-8.832 0-16 7.168-16 16s7.168 16 16 16 16-7.168 16-16-7.168-16-16-16zM80 288c-8.832 0-16 7.168-16 16s7.168 16 16 16 16-7.168 16-16-7.168-16-16-16zM80 352c-8.832 0-16 7.168-16 16s7.168 16 16 16 16-7.168 16-16-7.168-16-16-16zM80 416c-8.832 0-16 7.168-16 16s7.168 16 16 16 16-7.168 16-16-7.168-16-16-16zM384 16c0-8.848-7.152-16-16-16h-224c-8.832 0-16 7.152-16 16v160c0 8.848 7.168 16 16 16h224c8.848 0 16-7.152 16-16v-160zM384 240c0-8.832-7.152-16-16-16h-224c-8.832 0-16 7.168-16 16v192c0 8.832 7.168 16 16 16h224c8.848 0 16-7.168 16-16v-192zM432 32c-8.848 0-16 7.152-16 16s7.152 16 16 16 16-7.152 16-16-7.152-16-16-16zM432 96c-8.848 0-16 7.152-16 16s7.152 16 16 16 16-7.152 16-16-7.152-16-16-16zM432 160c-8.848 0-16 7.152-16 16s7.152 16 16 16 16-7.152 16-16-7.152-16-16-16zM432 224c-8.848 0-16 7.168-16 16s7.152 16 16 16 16-7.168 16-16-7.152-16-16-16zM432 288c-8.848 0-16 7.168-16 16s7.152 16 16 16 16-7.168 16-16-7.152-16-16-16zM432 352c-8.848 0-16 7.168-16 16s7.152 16 16 16 16-7.168 16-16-7.152-16-16-16zM432 416c-8.848 0-16 7.168-16 16s7.152 16 16 16 16-7.168 16-16-7.152-16-16-16z" />
<glyph unicode="&#xe627;" d="M448 480h-384c-8.832 0-16-7.168-16-16v-96c0-8.832 7.168-16 16-16h16c8.832 0 16 7.168 16 16l32 48h96v-384l-80-32c-8.832 0-16-7.152-16-16s7.168-16 16-16h224c8.848 0 16 7.152 16 16s-7.152 16-16 16l-80 32v384h96l32-48c0-8.832 7.152-16 16-16h16c8.848 0 16 7.168 16 16v96c0 8.832-7.152 16-16 16z" />
<glyph unicode="&#xe628;" d="M461.296 175.696l-45.44 45.456v-237.152c0-8.848-7.136-16-15.984-16h-63.936c-8.848 0-15.984 7.152-15.984 16v191.904c0 8.848-7.152 16-16 16h-95.92c-8.832 0-15.984-7.152-15.984-16v-191.904c0-8.848-7.168-16-15.984-16h-63.936c-8.832 0-16 7.152-16 16v237.152l-45.44-45.456-50.688 50.72 253.472 253.584 2.528-2.528 2.528 2.528 125.36-125.424v93.216h63.952v-157.2l64.16-64.176-50.704-50.72z" />
<glyph unicode="&#xe629;" d="M256-32c-141.376 0-256 114.624-256 256s114.624 256 256 256c141.376 0 256-114.624 256-256 0-141.376-114.624-256-256-256zM463.488 245.456c0.416 0.208 0.64 0.56 0.8 1.12 0.336-1.776 1.152-3.344 2.464-4.496 0.032-0.16-0.048-0.128 0.032-0.352 0.128 0 0.224 0.096 0.336 0.096 1.344-1.088 3.008-1.824 4.88-1.824 2.88 0 5.28 1.6 6.688 3.856 0.096-0.112 0.256-0.256 0.336-0.384-0.016 0.256-0.048 0.512-0.080 0.768 0.624 1.136 1.056 2.384 1.056 3.76 0 4.416-3.6 8-8 8-2.816 0-5.152-1.536-6.592-3.712-0.064 0.048 0 0.24-0.176 0.176 0.208 0.608-0.352 2.16-1.232 3.824v-8.288c0-0.912-0.256-1.728-0.512-2.544zM95.872 247.856c0 2.416-5.504 6.528-6.928 6.528 0 0.432-2.24 5.36-3.088 5.36 0 1.664-5.84 9.136-6.768 5.872-0.608-2.112 4.464-4.96 4.464-7.408 0.944 0 4.912-7.52 5.696-8.832 8.672-14.656-6.48-4.64-6.48 1.568-1.936 0.96-4.992 8.336-4.992 10.352-1.136 0.912-4.496 8.032-4.224 8.032 0 4.672-2.576 6.912-7.696 6.912-0.24 0.464-4.544 6.512-4.624 6.512 0 1.92-3.456 7.872-5.376 8.816 0 3.984-2.048 8.896-1.136 13.024 0 4.336-0.224 9.248-1.696 13.696-13.36-28.688-21.024-60.56-21.024-94.288 0-96.656 61.344-178.784 147.136-210.192 0.096 7.936 0.688 17.44 2.496 17.44 0 1.184 1.008 6.144 1.92 6.144 0 3.040 0.368 6.704 0 10.352-1.136 2.288 1.504 5.216 2.304 8.816 4.432 2.224 1.296 24.528 4.64 24.528 0 11.152 2.496 17.648 0.752 27.984 0.848 0-5.040 6.256-4.992 6.144-5.648 0-9.6 9.056-9.6 13.024-0.544 1.744-1.936 4.352-1.936 6.512 1.296 0-8.080 13.696-8.080 13.424-4.96 2.752 0.272 6.592 0.768 11.104-4.304 1.424 0.048 13.040 1.92 13.040 0.192 1.472 0.96 2.48 2.32 3.056 0.96-3.824 5.424 1.904 1.92 1.904 0 2.528-0.288 7.936 0 9.2 0 3.904-3.456 11.552-6.144 3.456-2.88 1.424-10.144 1.168-10.768 5.744 0.448 2.256-4.144 6.864-5.76 7.664 1.504 3.936-7.792 9.2-11.152 9.2 0 0.848-1.776 0.464-2.304 1.536-3.424 0-4.208 4.608-8.080 4.608-4.464 0-8.96 3.056-13.072 3.056-1.376 2.736-7.76 1.664-9.232 4.608-3.344 0-4.656 6.336-4.752 8.672-0.144 2.88-2.432 12.832-6.432 12.832zM419.968 376.256c-0.032-0.096 0.032-0.032-0.128-0.352 0.24 0 0.528-0.272 0.8-0.384-0.24 0.24-0.448 0.48-0.672 0.736zM424.784 370.96c0.56-1.088 0.976-2.096 0.848-2.72 0.56-0.016 0.832 0.288 1.28 0.4-0.688 0.784-1.44 1.52-2.128 2.32zM438.688 298.064c0.256 6.912-5.76 5.76-7.664 9.6-1.984 0-2.704 1.536-5.392 1.536-1.744 0.592-3.12 0.176-4.128-1.248-4.112-1.568-1.632 2-4.72 2 0.144 3.952-1.424 5.040-5.776 4.608-2.496-5.632-6.336-9.008-5.76-15.344 1.84-0.416 1.52-0.832 1.152-2.672 2.448-0.128 17.296 0.768 17.296 2.304 0.512 0 3.088-5.296 3.088-0.768 2.064 0 3.152-4.848 8.080-3.44 0-0.992 8.224 3.424 3.824 3.424zM439.472 216.416c0.288 1.408-0.704 2.032-1.536 3.456 2.192 0-6.928 16.912-6.928 19.552-1.392 0.688-3.168 5.52-3.488 7.28-1.872 1.248-3.808 5.344-4.608 7.664-1.904 1.264-6.544 6.928-7.296 9.584 2.752-0.304 6.912-0.864 6.912 2.688-1.856 0-2.128 2.288-0.368 2.288-0.576 2.352 1.248 4.048 1.648 5.888 0.48 2.224 1.424 5.648 1.424 8.304-2.64 0-3.28-0.448-5.376-1.152 0-1.552-4.688 0.384-5.376 0.384-1.008 2.016-8.32-2.624-10.368 1.536-3.312 2.992-2.416 5.296-3.488 9.52-0.544 2.144-3.472 2.272-5.248 2.624-5.008 0.976-1.392-5.968-1.664-7.552 3.072 0-1.936-3.808-1.936-5.744-5.184 1.12-3.456 6.896-6.512 8.432-0.912 1.536-0.192 2.688-2.32 2.688 0 2.048 1.088 5.76-1.152 6.512 0 0.992-4.352 1.392-4.992 2.688-2.752 0-9.152 10.4-11.12 6.896-1.232-2.24 1.040-2.784 1.504-4.608 3.984 0.784 3.6-6.56 8.464-5.744 0-1.024 0.128-2.064 0.368-3.072 3.6 0.848 3.184-2.672 4.992-2.672-1.312-1.744-5.472 2.784-4.336-1.024 0.656-2.208 0.288-4.096-2.576-6.256 0 2.384-0.192 8.816-2.688 8.816-1.696 3.392-6.736 2.576-8.864 5.744-1.728 0-2.4 5.376-5.376 5.744-0.56-0.784-2.656-1.536-3.472-1.536-1.616-3.248-10.752-0.336-10.752-0.768-0.144-0.032-5.12-12.192-5.408-13.792-0.56-3.44-3.328-3.504-4.16-6.768-0.416-1.632-10.448-0.864-10.448-2.064-4.336 1.44-8.080 4.48-8.080 9.2-0.352 0 0.816 12.048 1.552 13.808 0.88-0.24 1.056-0.544 1.552-1.536 2.656 0.992 8.848-0.656 8.848 2.304 2.576-0.064 3.344-1.088 2.304-3.072 2.4-0.448 6.544-1.056 6.544 2.304-1.408 0-1.552 0.128-1.552 1.536 4.608 4.784-3.456 9.104-3.456 11.488-1.632 0.544-4.96 4.080-2.592 2.752 2-1.104 9.312-3.392 6.432 1.472 0.192 0.064 0.32 0.192 0.368 0.368 0.816-0.576 4.256-4.112 4.256-0.768 0.944 0 4.592 2.304 1.536 2.304 0.288 1.728 0.224 3.168 0.368 4.224 4.88-2.624 2.16 1.792 4.624 3.44 0-3.184 2.624 1.536 4.224 1.536 1.904 2.832 6.256 0.64 7.312 3.84-2.352 0.768-1.92 6.656-1.92 8.8 2.832-0.464 5.984 3.824 6.416 0.88 0.16-1.136 0.304-4.272 0.88-4.704 4.208-2.208 3.088 1.264 3.088 3.44-1.408 0-3.28 4.928-3.472 7.296-1.152-0.16-3.008-0.64-3.472-1.52-4.192 0-7.040 1.52-10.368 1.52-0.256 0.512-4.256 4.992-3.84 4.992-2.336 4.016 2.336 2.848 3.072 3.040 0 3.808 15.856 3.136 16.544 9.216-5.216 0 5.376 8.832 5.376 8.8 3.536 3.024 5.408 5.632 9.808 5.968 1.856 0.128 22.496 5.824 22.496 3.248 0.832-0.032 3.584-0.064 6.432-0.16-39.952 37.152-93.344 60.032-152.208 60.032-57.008 0-108.896-21.472-148.432-56.56 0.352-0.8 0.624-1.568 0.608-2.112 2.096 0.144 5.104 1.488 5.776-1.168-1.040 0.016-2.080 0.144-3.072 0.4 0.736-5.936-2.592-2.304-5.376-2.304 0 0.144-1.232 0.64-2.544 0.992-0.848-0.8-1.744-1.552-2.592-2.352 0.096-0.256-0.048-0.272 0.112-0.56 0.896 0 0.432-1.392 2.992-2.24 2.96-1.008 6.208-1.568 9.328-2.064 2.528-0.4 3.984 0.464 6.144 0.464 0 0.32 5.28 2.672 1.552 2.672 0.512 2.112-0.432 2.64-2.704 2.672 0.192 2.24 5.52 0.768 7.696 0.768 1.664 2.8 0.048 2.464 1.52 5.008 1.76 3.12 3.856 0.416 5.008 3.408 1.744-0.64 3.296-1.584 3.856-3.792 1.392-1.152 8.464-11.584 8.464-4.208 2.528-0.848 3.792-5.584 3.84-8.064 4.592 0.672 4.992 4.112 4.992 7.68 1.056 0-0.384 1.712-0.384 2.304 1.712 0.624 3.856-1.632 3.856 0.752 0.736 0 0.768-0.736 0.768-1.536 2.384-0.464 3.92 0.272 5.376-0.24 1.008-0.352 0.496-5.584 0.032-7.424-0.576-2.336-5.040-2.368-5.040-3.456-5.056-3.776 5.968-5.744 7.696-8.048-1.040 0-4.992 0.512-4.992 0.752-2.496 0-8.544-2.64-10.768-0.752 3.104 0 4.144 3.728 4.624 7.28-2.864 1.072-6.24-0.688-7.040-3.536-1.344-4.704-4.464 0.192-6.032-2.976-0.608-0.192-6.16-2.768-6.16-1.904-6.24-0.88-4.608-6.176-4.608-11.888 2.48-1.488 7.52-5.728 7.296-8.048 5.6-0.992 7.648-1.584 12.688-2.304 0.416-0.816 2.080-1.584 3.088-1.904 0-3.296 2.992-2.704 5.76-2.704 0 4.208 4.896-3.504 5.376-4.976-0.672 0 1.152-4.304 1.536-5.76-0.768 0.272-1.008 0-0.768-0.768 2.432-0.896 6.288-0.64 6.928 1.92-2.336 0-1.552 2.672-1.552 4.224-2.4 1.6-2.032 4.688 0.384 5.36 0-2.176 7.92 1.36 3.456 3.056 1.088 2.448 1.824 6.208 0.048 8.336-1.136 1.344-2.56 0-3.12 2.016 3.024 0.752 0.8 6.512 0.768 9.2 0.96 0.368 3.456-0.608 3.456 0 2.96 0 7.888-3.744 9.616 0.784 4.944-2.256 1.008-4.4 6.16-2.688 0-1.216 5.808-6.896 6.544-6.896 0-0.272-0.144-1.92 1.136-1.92 0-1.232-0.768 0.704-0.768-1.52 0.72-0.080 4.624-0.784 4.624 0.752 2.48 0 4.224 3.040 4.224 5.36 1.552 1.008 4.272-8.432 6.144-8.432 1.376-2.144 5.776-5.264 5.776-7.28 0.928-0.944 1.904-0.688 1.904-3.456 1.168 0 3.472 4.592 3.472 0.384 1.088 0 4.256-2.336 4.624-4.208-2.768 0-0.144-2.688-1.568-2.688 0-2.656-5.936-0.544-7.28-0.384-1.84-8.24-12.944-2.32-19.664-4.448-3.536-1.12-10.368-8.912-10.736-12.8 4.288-0.048 6.176 3.712 10 4.992 3.12 0 3.728 1.888 6.544 2.672 0-0.784 0.768-0.368 0.768-1.152-5.472 0-2.144-3.536-0.544-6.112 0.992-1.6 2.128-2.368 3.392-2.864-0.528-0.928-0.96-1.856-1.296-2.896 0-0.016-0.016 0-0.016-0.016-1.040-0.352-3.072-1.104-3.472-1.92-6.192-0.688-3.136-0.272-2.72 1.216 0.224-0.528 2.448-0.048 2.352-0.064-0.368 1.856-0.928 1.6-0.384 2.672-3.36 0-4.992-1.536-7.696-1.536-0.448-0.912-2.8-3.072-3.84-3.072-0.784-2.368-2.56-6.672-4.624-8.048 0 0.624-5.472-3.44-4.992-3.44-1.216-1.968-2.544-1.904-3.088-4.976-0.368-0.192-1.92-5.328-1.92-6.128-2.384-1.584-3.264-8.048-7.312-8.048-2.48-4.928-6.928-4.272-6.928-10.736 1.504-1.536 2.080-8.336 2.544-10.512 0.576-2.704 1.472-5.52-2.144-5.584-0.256 0.4-2.784 4.224-2.32 4.224 0 1.584-1.936 6.656-3.072 8.24-1.52 2.128-4.336-0.336-6.544 0.592-0.944 1.888-7.328 2.304-9.6 2.304 0.368-1.424 1.408-1.872 1.536-3.456-1.888-0.768-2.976-1.632-4.928-1.36-3.344 0.464-2.944 3.072-6.624 2.704-5.888-0.592-10-5.472-10-11.312-0.656 0-0.656-11.504 0-11.504 0-3.248 2.688-5.6 2.688-8.048 2.608 0 5.536-5.744 8.080-5.744 0.288-2.032-1.28-2.352 3.072-2.32 0 0.224 2.368 1.488 2.688 3.072-3.008 0.736-0.016 4.608 1.92 5.36 0-2.736 3.84 0.912 3.84 1.152 0.432 0.176 4.24 1.536 4.24 1.536 0 3.104 2.896-0.304 0.768-1.536-2.080 0-1.92-3.456-3.072-3.456-0.496-2.464-1.472-4.608-2.048-7.008-0.736-2.96 1.664-3.264 0.896-6.032 3.056-0.576 6.144-0.016 9.232 0 0.016 0.544-0.096 1.072-0.384 1.536 4.464 0 0.384-8.432 3.088-8.432 0-3.184 1.536-5.664 1.536-7.664 2.080-1.376 3.328-3.216 2.688-5.744 2.56-0.336 8.064-0.992 8.064 2.304 3.888 0 4.16-2.64 3.872-5.36 7.744 0 2.896 7.664 6.128 7.664 0.304 1.264 0.832 1.488 1.584 0.656 1.584-0.848 2.784 1.584 4.048 2.352 0.4 0.272 1.808 1.088 2.064 1.088 1.088-0.656 1.184-0.464 1.664-1.2 2.112 0.016 4.24 1.2 6.048 2.448 2.768-0.336 1.872-6.288 7.056-6.656 2.080-0.144 6.896-0.72 8.688 0.512 0.448 0.304 2.096-1.040 2.272-1.616 1.728 0 1.6-1.504 2.336-1.472 0.176-0.336 0.432-0.464 0.784-0.368 0.224-0.656 1.6-0.848 2.32-2.672 0-1.664 3.456-1.952 3.456-3.056 2.48-1.248-0.848-1.584 2.96-2.736 2.096-0.656 4.032-1.712 6.288-1.872 0.72 2.736 3.056-0.368 4.24-0.368 0.608-1.248 0.928-0.304 1.52-1.536 3.568-2.976 1.216-1.824 2.688-4.992 1.712-1.12 2.256-5.024 2.72-7.28-1.376 0-0.4-5.264-0.4-5.76-1.664 0 4.256-3.152 4.256 0.784 2.432-0.4 4.032-3.056 5.76-3.056-1.008-2.32 2.688-4.064 2.688-0.4 3.648-0.368 2.672-5.808 2.32-7.664 2.704 0 3.488 1.504 5.792 1.792 2.496 1.584 5.28 2.736 8.432 2.736 8.848 0 16-7.152 16-16 0-7.968-5.936-14.288-13.568-15.504-1.024-1.168-1.952-2.176-2.016-2.176 0-0.768-0.176-8.416-0.4-8.416 0-1.536-1.168-9.968-2.304-9.968 0-4.336-2.832-5.12-3.84-9.2-2.336-1.728-8.656-4.608-9.632-6.512-1.808 0-3.152-1.536-4.992-1.536-0.256-0.528-4.176-4.224-3.472-4.224-0.288-2.72 0.208-9.12-1.264-10.912-0.992-1.184-2.416-1.056-1.792-2.912-2.16 0 0.128-1.536-3.28-1.536-2.144 0-5.968-3.056-6.080-5.648-0.144-3.168-0.992-5.456-3.712-7.392 0-1.088-4.992-1.408-4.992-4.224 0.464 0 0-5.216 0-5.744-1.488 0.048-5.136-1.44-5.76-2.672-5.024 0-4.416-0.512-7.68-2.688 0-0.672-0.464-3.056-1.152-3.056 0-3.888-2.768-0.352-5.008-2.32 0.88 0 2-3.824 1.536-3.824 0-3.376-2.096-3.664-4.224-6.144-1.008-0.672-1.968-3.456-2.688-3.456 0-2.272-1.136-4.336-1.136-6.512 0.48 0 0.032-0.976 0.368-1.888 1.072 0.304 1.104 1.52 1.536 1.52 0 1.92 3.056-1.136 1.152-1.136-1.584-2.4-3.296-2.448-4.24-5.76-0.96 0-1.792-0.928-2.496-2.016 18.848-5.136 38.624-8.144 59.136-8.144 78.784 0 147.936 40.768 187.872 102.288 0.24 5.664 1.12 11.072 1.744 12.944 1.568-1.152 2.736-3.312 3.84 0-2.768 0.544-2.096 1.504-1.152 3.824 1.056-0.64 3.184-1.424 4.912-1.312 0.528 0.992 0.944 2.048 1.472 3.040-1.568 1.216 0.592 4.368 1.344 2.832 0.4 0.768 0.752 1.568 1.12 2.336-0.176 0.048-0.128-0.064-0.384 0.016 0 1.392 0.256 1.216 1.168 1.92 0.016-0.144 0-0.144 0.032-0.272 13.968 29.232 22.032 61.824 22.032 96.384 0 1.136-0.16 2.224-0.176 3.36-0.416-1.568-1.2-3.264-2.304-3.648 0-1.008-11.44-5.984-10.752-8.048-2.016 0-9.088-2.016-10.384-4.592-1.424 0-7.168-2.032-7.696-3.072-7.136-0.016-5.776 8.416-9.216 8.416zM472 304h-8.496c-0.064 0.080-0.128 0.096-0.192 0.208-0.432 0-2.24 4.064-1.536 4.992 0.688 0 1.008-0.064 1.376-0.096-0.72 1.76-1.504 3.488-2.288 5.232-1.728-1.184-3.248-2.688-5.632-2.832 0-0.656-3.408-7.28 0-7.28 0-0.128 0.064-0.224 0.096-0.336-4.080-0.384-7.328-3.712-7.328-7.888 0-4.416 3.584-8 8-8h3.152c0.192-1.456 0.976-2.72 3.776-3.344 0.88-3.696 7.472-5.008 8.464-1.136-2.784 0-1.872 2.672-1.632 4.48h2.24c4.4 0 8 3.584 8 8s-3.6 8-8 8zM448.688 199.968c0.56-0.032 4.256 0.064 4.256 0.72 3.344 0 7.872 0.464 11.152 1.552 0-4.96-4.176-7.728-3.472-12.656-2.768 0-1.552-2.848-1.552-3.824-1.792-1.104-2.064-3.12-4.224-4.224 0-2.224-4.992-5.904-6.464-7.808-1.664-2.128-6.672-5.824-7.328-8.528 0.176 0.64-9.152-9.712-6.976-9.712 0-1.936-2.624-17.248 0.768-17.248 0-1.344 2.896-14.192 1.136-14.192 0-4.128-2.688-6.656-2.688-9.952-1.312-0.896-3.184-1.392-3.84-2.704-2.352 0-3.488-4.992-4.608-4.992 0-5.328-1.552-9.28-1.552-15.328 0.432 0-3.072-8.624-3.072-9.184-2.832-1.904-10-8.736-10-12.288 0 0-4.992-7.008-5.76-8.048-1.504 0-13.088-2.176-13.088-3.072-2.464 0-8.832-1.936-10.368 0.384 0 2.432-1.328 5.52-1.536 8.832-1.184 0-1.376 4.976-2.688 4.976 0 1.056-7.344 15.728-6.16 15.728 0 1.52-1.312 6.512-1.536 6.512 0 5.28-3.856 9.68-3.856 14.56-1.136 0-3.488 10.72-2.304 10.72 0 5.632 1.968 9.312 2.784 15.568 0.912 6.864-0.432 11.040-1.632 15.888-0.656 0-2.864 3.664-3.088 4.592-3.088 2.048-4.224 6.112-4.224 9.952 2.016 2.304 2.816 10.96 2.32 13.808-3.888 1.84-5.44 1.152-9.632 1.152-2.48 4.976-19.136 1.904-23.856 1.904 0-2.72-11.6 0.528-12.688 2.688-2.832 0-8.448 6.016-8.448 8.816-3.104 2.064-8.064 12.336-8.064 15.712-2.688 1.344-1.872 6.528-0.4 6.528 0.368 1.44-0.944 5.984-1.568 8.144-0.464 1.616 1.568 3.36 1.568 5.28 0 5.344 0.128 7.808 3.12 13.52 0.944 1.792 2.144 3.472 3.024 5.712 1.6 4.016 2.080 0.192 4.24 3.776 2.064 1.024 3.264 4.448 5.392 6.128 0.928 1.232 0.96 1.744 0 2.688 0.416 0 2.688 5.904 2.688 7.264 3.008 4.176 0.88 2.272 3.84 1.92 1.088 1.184 2.896 4.224 4.608 4.224 0.752 1.488 2.64 2.304 4.24 2.304 0-2.304 6.272 0.752 6.928 0.752 1.072 2.16 7.984 4.608 9.616 4.608 0 2.624 13.632-0.736 15.776-0.384 0 0.384 0 0.768 0 1.152 2.912-0.688 8.224-12.368 7.68-14.96 2.24 0 4.32 0.368 5.776 0 0-2.48 4.672-3.088 6.8-3.2 2.96-0.144 11.648 0.304 11.648 4.352 2.288 0 4.32-1.6 3.872-4.208 2.592-0.288 18-0.592 16.912-3.824 2.256 0 2.832-3.856 4.992-3.856-0.432-2.656 2.688-9.584 4.992-9.584 0-2.304 1.44-6.544 3.472-8.032 1.088-3.296 4.688-10.24 8.064-12.272-1.44-2.72 2.192-4.96 3.088-7.664-0.208 0 0.784-4.016 1.904-4.608 0-2.72 5.728-13.808 8.864-13.808 0.208-1.344-2.944-1.952 1.152-2.256zM365.632 285.808c0.592 2.288 1.936 0.512 3.184 0.096 2.96-0.96 1.936 0.048 4.128 1.040 0-6.24-3.584-1.504-7.312-1.136zM357.536 297.312c1.568 0 2-7.040-2.304-5.744 0 1.744-1.104 4.976 1.168 4.976 0.656-2.72 1.136-1.616 1.136 0.768zM355.632 301.904c1.776-0.768 2.56-0.512 2.304 0.768 2.336-0.768-0.304-2.432-0.768-4.224-1.2 1.184-0.832 1.6-1.536 3.456zM314.464 336.032c-3.776 0.976 3.888 2.096 4.224 3.056-1.28 0-2.16 1.328-1.664 2.448 0.576 1.328 1.52-1.584 2.832-0.928 1.552 0.16 4.608 2.48 3.040-2-1.6-4.544-3.056-7.872-8.816-7.952-2.064 2.080-0.080 3.168 0.384 5.376zM328.704 351.744c3.104 0 0.384-2.304-0.304-2.304 0.528-0.208-0.096-2.064-0.096-2.672 2.88 0.032 2.928 1.792 4.992 2.304-0.432-2.576-3.312-3.072-0.496-5.28 1.488-1.168 3.008-2.544 2.416-4.32 3.664 0 4.208-3.52 3.456-7.664 2.032 0 1.936-0.096 1.936 1.936 1.968-0.544 1.824-2.32 0-2.32-1.824-3.6-6.608-3.44-10-3.44-0.032 2.784-0.56 2.96-3.136 2.176-3.52-1.072-0.768 2.8-0.704 4.72 0.384 0 7.984-0.352 3.456 1.152-0.24 4.128-1.168 5.36-4.992 5.36 0 2.816-0.992 2.608-1.456 5.696-0.656 4.56 3.568-0.32 4.928 4.656zM327.536 326.832c0-0.944-1.92-1.696-2.304-0.368 0.368-0.128 0.512 0 0.368 0.368 0.656 0 1.312 0 1.936 0zM296 368h-16c-4.416 0-8 3.584-8 8s3.584 8 8 8h16c4.416 0 8-3.584 8-8s-3.584-8-8-8zM202.784 226.4c0.896 0 1.936-0.352 1.936-1.152-1.168 0-2.672-1.104-1.936 1.152zM188.192 225.616c-0.64-1.216-5.824-1.008-6.544 0.4 1.92 0 3.408-0.784 5.376 0 0 1.056-0.88 1.904-1.536 3.056 2.096 0 4.448-1.6 7.312-1.536 0 1.776-0.784-0.384 0 1.92 1.2-0.304 4.096-3.056 4.224-4.208-4.208 0.448-4.4 0.368-8.832 0.368zM171.264 234.816c-1.968 0-5.76 1.712-6.928 3.456 1.904-0.080 3.792-0.864 4.992 1.152 4.88-0.496 5.312-3.856 9.232-3.856 0.736-1.296 4.928-4.272 0.88-4.656-3.056-0.288-6.896 1.376-8.176 3.904zM174.336 224.080c-1.424 0-3.776-0.624-2.688 2.32 1.888-0.256 2.784-1.040 2.688-2.32zM177.024 224.464c-0.768-0.128-1.536-0.256-2.304-0.384 0.224 1.776 1.904 3.76 2.304 0.384zM191.248 207.616c-0.304-1.072-0.256-1.136-1.52-1.136 0.128 0.496 0.24 0.992 0.368 1.52 0.4-0.128 0.768-0.256 1.152-0.384zM156.64 239.424c0.368-0.128 0.768-0.272 1.152-0.384 0.496-1.904 1.536-0.96 2.688-0.384 0-2.224-5.152-2.864-3.84 0.768z" />
<glyph unicode="&#xe62a;" d="M255.008-32c0 0-159.008 224.992-159.008 320.992 0 189.008 159.008 191.008 159.008 191.008s160.992-2 160.992-190c0-98.992-160.992-322-160.992-322zM256 384c-35.344 0-64-28.656-64-64s28.656-64 64-64 64 28.656 64 64-28.656 64-64 64z" />
<glyph unicode="&#xe62b;" d="M256 480c-141.392 0-256-114.624-256-256s114.608-256 256-256 256 114.624 256 256c0 141.376-114.608 256-256 256zM256 384c17.664 0 32-14.336 32-32s-14.336-32-32-32-32 14.336-32 32 14.336 32 32 32zM176 96l48 32h32v128h-32l-16 32h80v-160h32l48-32h-192z" />
<glyph unicode="&#xe62c;" d="M256 384c-141.392 0-256-160-256-160s114.608-160 256-160 256 160 256 160-114.608 160-256 160zM256 128c-53.008 0-96 42.992-96 96s42.992 96 96 96 96-42.992 96-96-42.992-96-96-96zM256 288c-35.344 0-64-28.656-64-64s28.656-64 64-64 64 28.656 64 64-28.656 64-64 64z" />
<glyph unicode="&#xe62d;" d="M368 448c-38.464 0-69.296-13.808-96.48-41.008-0.016-0.016-0.032-0.032-0.048-0.048h-0.016l-15.456-19.472-15.456 18.288c-0.016 0.016-0.032 0.032-0.048 0.048h-0.016c-27.2 27.216-58.016 42.192-96.48 42.192s-74.624-14.976-101.824-42.176c-27.184-27.2-42.176-63.36-42.176-101.824 0-38.432 14.96-74.592 42.128-101.776l191.152-192.752c6-6.064 14.192-9.472 22.72-9.472s16.72 3.408 22.72 9.472l191.136 192.752c27.168 27.184 42.144 63.328 42.144 101.776 0 38.464-14.992 74.624-42.176 101.824-27.2 27.2-63.36 42.176-101.824 42.176v0z" />
<glyph unicode="&#xe62e;" d="M464-32h-336v512h160v-288l48 64h32l48-64v288h48c8.848 0 16-7.168 16-16v-480c0-8.848-7.152-16-16-16zM32-16v480c0 8.832 7.152 16 16 16h48v-512h-48c-8.848 0-16 7.152-16 16z" />
<glyph unicode="&#xe62f;" d="M399.712 324.512c5.968-5.968 15.648-5.968 21.6 0l84.528 66.544c14.064-44.224 4.128-94.432-30.96-129.52-33.472-33.488-80.736-44.032-123.424-32.768l-100.256-100.256c11.264-42.704 0.704-89.952-32.752-123.424-35.088-35.088-85.312-45.024-129.536-30.96l66.576 84.512c5.968 5.984 5.968 15.648 0 21.616l-43.2 43.184c-5.968 5.968-15.648 5.968-21.6 0l-84.528-66.544c-14.064 44.224-4.128 94.416 30.944 129.504 33.488 33.488 80.736 44.048 123.44 32.768l100.272 100.272c-11.28 42.688-0.72 89.952 32.736 123.424 35.088 35.088 85.312 45.024 129.552 30.976l-66.576-84.544c-5.952-5.952-5.952-15.632 0-21.584l43.184-43.2z" />
<glyph unicode="&#xe630;" d="M192.768 208.624c-2.848-4.112-6.32-14.416-10.432-16.944-4.112-2.512-8.752-4.272-13.904-5.248-5.168-0.992-10.512-1.424-16.032-1.264v-24.432h39.472v-96.736h31.856v159.936h-25.344c-0.896-6.096-2.768-11.2-5.616-15.312zM368 352h32c8.848 0 16 7.168 16 16v96c0 8.832-7.152 16-16 16h-32c-8.848 0-16-7.168-16-16v-96c0-8.832 7.152-16 16-16zM112 352h32c8.832 0 16 7.168 16 16v96c0 8.832-7.168 16-16 16h-32c-8.832 0-16-7.168-16-16v-96c0-8.832 7.168-16 16-16zM480 416h-32v-80c0-8.832-7.152-16-16-16h-96c-8.848 0-16 7.168-16 16v80h-128v-80c0-8.832-7.168-16-16-16h-96c-8.832 0-16 7.168-16 16v80h-32c-17.664 0-32-14.336-32-32v-384c0-17.664 14.336-32 32-32h448c17.664 0 32 14.336 32 32v384c0 17.664-14.336 32-32 32zM480 16c0-8.848-7.152-16-16-16h-416c-8.832 0-16 7.152-16 16v256c0 8.832 7.168 16 16 16h416c8.848 0 16-7.168 16-16v-256zM255.76 192.288h79.488c-14.976-18.432-27.024-37.2-36.24-59.28-9.2-22.096-10.208-45.088-11.984-68.992h34.096c0.144 10.656-3.12 22.16-0.816 34.496 2.336 12.336 5.632 24.512 9.872 36.56 4.272 12.032 9.568 23.376 15.936 34.032 6.336 10.672 13.648 19.664 21.872 26.976v27.872h-112.24v-31.664z" />
<glyph unicode="&#xe631;" d="M64 352h32v32h-32v-32zM448 448h-384c-35.344 0-64-28.656-64-64v-384h512v384c0 35.344-28.656 64-64 64zM480 32h-448v256h448v-256zM480 320h-448v64c0 17.664 14.336 32 32 32h384c17.664 0 32-14.336 32-32v-64zM432 384h-224c-8.832 0-16-7.168-16-16s7.168-16 16-16h224c8.848 0 16 7.168 16 16s-7.152 16-16 16zM128 352h32v32h-32v-32z" />
<glyph unicode="&#xe632;" d="M480 96c0 0-132 0-160 0s32-96 32-96c0-17.664-14.336-32-32-32h-128c-17.664 0-32 14.336-32 32 0 0 60.992 96 32 96s-160 0-160 0c-17.664 0-32 14.336-32 32v320c0 17.664 14.336 32 32 32h448c17.664 0 32-14.336 32-32v-320c0-17.664-14.336-32-32-32zM256 112c17.664 0 32 14.336 32 32s-14.336 32-32 32-32-14.336-32-32 14.336-32 32-32zM480 416c0 17.664-14.336 32-32 32h-384c-17.664 0-32-14.336-32-32v-192c0-17.664 14.336-32 32-32h384c17.664 0 32 14.336 32 32v192z" />
<glyph unicode="&#xe633;" d="M352 480h-192c-35.344 0-64-28.656-64-64v-384c0-35.344 28.656-64 64-64h192c35.344 0 64 28.656 64 64v384c0 35.344-28.656 64-64 64zM264 432h48c4.4 0 8-3.584 8-8s-3.6-8-8-8h-48c-4.416 0-8 3.584-8 8s3.584 8 8 8zM208 448c8.832 0 16-7.168 16-16s-7.168-16-16-16-16 7.168-16 16 7.168 16 16 16zM288 16c0-8.848-7.152-16-16-16h-32c-8.832 0-16 7.152-16 16v32c0 8.848 7.168 16 16 16h32c8.848 0 16-7.152 16-16v-32zM384 112c0-8.848-7.152-16-16-16h-224c-8.832 0-16 7.152-16 16v256c0 8.832 7.168 16 16 16h224c8.848 0 16-7.168 16-16v-256z" />
<glyph unicode="&#xe634;" d="M256.608 480c0 0-160.608-190.736-160.608-352.368 0-161.648 159.392-159.632 159.392-159.632s160.608 2 160.608 160.624-159.392 351.376-159.392 351.376zM256 32c-53.008 0-96 42.992-96 96 0 33.936 17.824 63.408 44.432 80.416-7.632-10.192-12.432-24.48-12.432-40.416 0-3.312 0.304-6.512 0.688-9.664-0.144-2.144-0.688-4.16-0.688-6.336 0-4.112 0.672-8.048 1.216-12-0.752-3.888-1.216-7.888-1.216-12 0-35.344 28.656-64 64-64 4.112 0 8.112 0.464 12 1.2 3.968-0.544 7.888-1.2 12-1.2 2.176 0 4.192 0.528 6.32 0.704 3.152-0.4 6.368-0.704 9.68-0.704 15.936 0 30.224 4.8 40.416 12.416-17.008-26.592-46.48-44.416-80.416-44.416z" />
<glyph unicode="&#xe635;" d="M248 224c-35.344 0-64 28.656-64 64h-96v-160c0-88.352 71.632-160 160-160s160 71.648 160 160v160h-96c0-35.344-28.656-64-64-64zM184 352c0 35.344 28.656 64 64 64s64-28.656 64-64v-32h96c0 88.368-71.632 160-160 160s-160-71.632-160-160h96v32zM232 368v-96c0-8.832 7.168-16 16-16s16 7.168 16 16v96c0 8.832-7.168 16-16 16s-16-7.168-16-16z" />
<glyph unicode="&#xe636;" d="M376 192c0-70.688-57.312-128-128-128s-128 57.312-128 128c0 65.36 62.672 105.52 128 111.216v-79.216l160 112v16l-160 128v-80.672c-117.552-6.912-224-88.976-224-207.328 0-123.712 100.288-224 224-224s224 100.288 224 224h-96z" />
<glyph unicode="&#xe637;" d="M256.208-32v256.272h-256.208l512 255.728-255.792-512z" />
<glyph unicode="&#xe638;" d="M464.208 479.056v0.8h-155.936c-2.752 0.352-5.552 0.256-8.144-0.832-4.736-1.264-8.672-4.4-10.592-8.832l-285.072-285.056c-6.224-6.24-6.224-16.336 0-22.56l189.952-189.952c6.24-6.224 16.336-6.224 22.56 0l284.24 284.256c6.336 2.128 10.992 7.936 10.992 14.992v152c0 28.176-20.896 51.264-48 55.184zM416.208 351.856c-17.664 0-32 14.336-32 32s14.336 32 32 32 32-14.336 32-32-14.336-32-32-32z" />
<glyph unicode="&#xe639;" d="M34.016 460.992c20.448 20.496 82.256 23.92 82.72 13.072 0.464-10.832 55.664-131.056 56.144-141.904 0.48-10.832-36.384-47.792-47.168-58.608-10.688-10.704 72.128-104.528 73.696-106.304 1.76-1.584 95.36-84.592 106.048-73.872 10.784 10.816 47.664 47.76 58.448 47.28 10.816-0.464 130.768-55.792 141.584-56.288 10.816-0.464 7.408-62.4-13.040-82.912-17.488-17.52-108.032-81.136-265.472 32.464-17.264 9.952-44.608 32.784-86.080 74.336-0.016 0.016-0.048 0.048-0.080 0.064-0.032 0.048-0.064 0.064-0.096 0.096s-0.064 0.064-0.096 0.096c-0.016 0.032-0.048 0.064-0.064 0.080-41.44 41.568-64.224 68.992-74.16 86.288-113.328 157.824-49.856 248.592-32.384 266.112z" />
<glyph unicode="&#xe63a;" d="M203.376 64.56c-105.248-83.84-133.632-63.568-85.136 60.912-135.2-6.976-146.048 25.904-32.528 98.528-113.52 72.64-102.672 105.488 32.528 98.544-48.48 124.464-20.096 144.768 85.136 60.896 35.072 128.736 70.16 128.736 105.248 0 105.232 83.872 133.632 63.568 85.12-60.896 135.216 6.944 146.048-25.904 32.528-98.544 113.52-72.624 102.688-105.504-32.528-98.528 48.496-124.464 20.112-144.752-85.12-60.912-35.072-128.752-70.176-128.752-105.248 0z" />
<glyph unicode="&#xe63b;" d="M267.024 197.52l84.976-197.52-64-32-74.336 202.848-117.664-106.848v416l320-256-148.976-26.48z" />
<glyph unicode="&#xe63c;" d="M122.352 270.896c1.84 8.704-9.808 16.24-22.336 16.544-15.008 0.368-26.576 0.496-36.992 0.544-8.56 0.032-14.976-7.152-15.024-15.984v-240c0.048-8.832 6.448-16.016 15.072-15.984 10.48 0.048 22.288 0.176 38.032 0.544 13.152 0.32 25.504 7.84 23.392 16.544-16.352 78.96-16.48 158.832-2.144 237.792zM432 224h-144v32h144c17.664 0 32 14.336 32 32s-14.336 32-32 32h-140l2 24.032 10 79.968c0 30.928-25.056 56-56 56-30.928 0-56 6.928-56-24l-9.152-56-6.832-47.856-16.016-104.144c0-1.648 0.24-2.944 0.56-4.128l-0.56-3.872-14.624-9.616c0 0-1.376-4.096-1.376-6.384v-176c0-8.848 7.168-16 16-16h1.616c7.408-36.512 39.68-64 78.384-64h128c38.704 0 70.976 27.488 78.384 64h-126.384c-17.664 0-32 14.336-32 32h128c17.664 0 32 14.336 32 32s-14.336 32-32 32h-128v32h144c17.664 0 32 14.336 32 32s-14.336 32-32 32z" />
<glyph unicode="&#xe63d;" d="M448.928 432.032c-10.48-0.048-22.288-0.176-38.016-0.544-13.168-0.32-25.52-7.84-23.408-16.528 16.352-78.88 16.48-158.672 2.144-237.552-1.824-8.688 9.792-16.224 22.336-16.528 15.008-0.368 26.576-0.496 36.992-0.544 8.56-0.032 14.992 7.136 15.024 15.968v239.76c-0.064 8.832-6.432 16-15.072 15.968zM352 416.064h-1.616c-7.408 36.48-39.68 63.936-78.384 63.936h-128c-38.704 0-70.976-27.456-78.384-63.936h126.384c17.664 0 32-14.32 32-31.968h-128c-17.664 0-32-14.32-32-31.968s14.336-31.968 32-31.968h128v-31.968h-144c-17.664 0-32-14.32-32-31.968s14.336-31.968 32-31.968h144v-31.968h-144c-17.664 0-32-14.32-32-31.968s14.336-31.968 32-31.968h140l-2-23.984-10-79.936c0-30.896 25.072-55.936 56-55.936 30.944 0 56-6.928 56 23.984l9.136 55.936 6.848 47.808 16.016 104.048c0 1.664-0.24 2.944-0.56 4.128l0.56 3.872 14.624 9.6c0 0 1.376 4.112 1.376 6.384v175.824c0 8.832-7.152 15.984-16 15.984z" />
<glyph unicode="&#xe63e;" d="M480 64c-17.664 0-32 14.336-32 32v128c0 106.032-85.968 192-192 192s-192-85.968-192-192v-128c0-17.664-14.336-32-32-32s-32 14.336-32 32v128c0 141.392 114.624 256 256 256s256-114.608 256-256v-128c0-17.664-14.336-32-32-32zM112 192h32c8.832 0 16-7.152 16-16v-160c0-8.848-7.168-16-16-16h-32c-8.832 0-16 7.152-16 16v160c0 8.848 7.168 16 16 16zM368 192h32c8.848 0 16-7.152 16-16v-160c0-8.848-7.152-16-16-16h-32c-8.848 0-16 7.152-16 16v160c0 8.848 7.152 16 16 16z" />
<glyph unicode="&#xe63f;" d="M287.744 385.264v-129.008h128v64l96.256-96.256-96.256-96.24v65.488h-128v-129.008h64.496l-96.24-96.24-96.256 96.24h64v129.008h-128v-64.992l-95.744 95.744 95.744 95.744v-63.488h128v129.008h-62.496l94.752 94.736 94.752-94.736h-63.008z" />
<glyph unicode="&#xe640;" d="M507.296 365.872l-45.424 45.424c-6.288 6.288-16.416 6.288-22.704 0l-232.24-245.184-133.12 133.184c-6.352 6.352-16.656 6.352-23.008 0l-46.016-46.048c-6.352-6.336-6.352-16.64 0-23.008l189.328-193.728c3.664-3.68 8.64-4.944 13.424-4.32 4.944-0.736 10.096 0.512 13.888 4.32l285.872 306.64c6.272 6.272 6.272 16.448 0 22.72z" />
<glyph unicode="&#xe641;" d="M491.536 371.616l-147.152-148.048 147.152-147.168c6.16-6.144 6.16-16.112 0-22.272l-66.816-66.8c-6.128-6.16-16.096-6.16-22.256 0l-146.912 146.912-146.032-146.912c-6.144-6.16-16.112-6.16-22.272 0l-66.8 66.8c-6.144 6.16-6.144 16.128 0 22.272l146.032 146.912-146.016 146.016c-6.144 6.144-6.144 16.112 0 22.272l66.8 66.8c6.144 6.16 16.112 6.16 22.272 0l145.76-145.76 147.184 148.048c6.16 6.16 16.128 6.16 22.256 0l66.816-66.8c6.128-6.16 6.128-16.128-0.016-22.272z" />
<glyph unicode="&#xe642;" d="M476.32 184.528c2.272 12.832 3.68 25.968 3.68 39.472 0 123.712-100.288 224-224 224-13.504 0-26.64-1.408-39.472-3.68-22.992 22.048-54.16 35.68-88.528 35.68-70.688 0-128-57.312-128-128 0-34.368 13.632-65.536 35.68-88.528-2.272-12.832-3.68-25.968-3.68-39.472 0-123.712 100.288-224 224-224 13.504 0 26.64 1.392 39.472 3.68 22.992-22.048 54.16-35.68 88.528-35.68 70.688 0 128 57.312 128 128 0 34.368-13.632 65.536-35.68 88.528zM354.64 134.336c-8.864-12.064-21.92-21.632-38.864-28.384-16.784-6.704-36.88-10.112-59.728-10.112-27.472 0-50.496 4.656-68.464 13.808-12.848 6.688-23.44 15.696-31.488 26.928-8.128 11.264-12.24 22.448-12.24 33.264 0 6.736 2.672 12.56 7.968 17.36 5.232 4.768 11.952 7.136 19.952 7.136 6.576 0 12.256-1.872 16.848-5.632 4.4-3.632 8.176-8.944 11.216-15.776 3.392-7.488 7.072-13.776 10.976-18.72 3.76-4.816 9.152-8.832 16.048-11.968 6.928-3.152 16.288-4.768 27.776-4.768 15.792 0 28.768 3.248 38.512 9.664 9.52 6.256 14.144 13.776 14.144 22.992 0 7.264-2.416 12.992-7.376 17.456-5.216 4.688-12.080 8.336-20.384 10.848-8.704 2.592-20.512 5.456-35.104 8.368-19.84 4.096-36.688 8.944-50.112 14.416-13.712 5.632-24.768 13.424-32.848 23.136-8.208 9.92-12.368 22.304-12.368 36.912 0 13.904 4.368 26.448 12.992 37.248 8.544 10.752 21.040 19.104 37.12 24.816 15.856 5.664 34.736 8.512 56.096 8.512 17.056 0 32.096-1.904 44.624-5.664 12.608-3.76 23.216-8.88 31.6-15.152 8.384-6.336 14.656-13.072 18.576-20.128 3.952-7.072 5.984-14.16 5.984-20.992 0-6.592-2.64-12.56-7.84-17.776-5.248-5.232-11.84-7.888-19.648-7.888-7.072 0-12.624 1.664-16.464 4.928-3.584 3.056-7.296 7.808-11.408 14.64-4.784 8.72-10.544 15.6-17.168 20.448-6.4 4.72-17.152 7.072-31.92 7.072-13.696 0-24.864-2.64-33.12-7.872-7.984-5.024-11.856-10.8-11.856-17.648 0-4.208 1.248-7.696 3.824-10.704 2.704-3.232 6.544-6 11.392-8.352 5.008-2.416 10.208-4.352 15.392-5.728 5.312-1.424 14.224-3.52 26.448-6.24 15.472-3.216 29.696-6.8 42.272-10.672 12.752-3.936 23.712-8.752 32.72-14.384 9.152-5.728 16.4-13.088 21.568-21.904 5.152-8.848 7.76-19.744 7.76-32.416-0.032-15.12-4.512-29.008-13.408-41.072z" />
<glyph unicode="&#xe643;" d="M464 319.92h-416c-8.848 0-16-7.152-16-16v-144c0-8.848 7.152-16 16-16h16v-160c0-8.848 7.152-16 16-16h352c8.848 0 16 7.152 16 16v160h16c8.848 0 16 7.152 16 16v144c0 8.848-7.152 16-16 16zM224 15.92c0-8.848-7.152-16-16-16h-96c-8.848 0-16 7.152-16 16v128c0 8.848 7.152 16 16 16h96c8.848 0 16-7.152 16-16v-128zM224 207.92c0-8.848-7.152-16-16-16h-128c-8.848 0-16 7.152-16 16v64c0 8.848 7.152 16 16 16h128c8.848 0 16-7.152 16-16v-64zM416 15.92c0-8.848-7.152-16-16-16h-96c-8.848 0-16 7.152-16 16v128c0 8.848 7.152 16 16 16h96c8.848 0 16-7.152 16-16v-128zM448 207.92c0-8.848-7.152-16-16-16h-128c-8.848 0-16 7.152-16 16v64c0 8.848 7.152 16 16 16h128c8.848 0 16-7.152 16-16v-64zM184.944 319.936h147.2c25.232 18.096 49.088 41.648 51.92 67.312 1.376 12.528-1.312 30.88-22 47.216-11.472 9.072-23.12 13.664-34.576 13.664-36.512 0-57.168-44.768-68.336-84.768-13.344 50.992-39.104 116.56-83.344 116.56-12.912 0-25.76-5.584-38.256-16.608-24.64-21.792-27.056-44.448-24.752-59.616 5.168-33.904 39.28-63.040 72.144-83.76zM327.488 409.728c3.536 0 8.096-2.112 13.168-6.144 8.256-6.496 7.792-10.528 7.664-11.856-1.536-14-27.792-36-58.416-54.16 9.008 38.736 23.728 72.16 37.584 72.16zM160.544 433.76c4.016 3.552 9.936 7.776 15.264 7.776 19.808 0 40.176-52 52.048-102.56-37.408 19.936-76.080 48.208-79.536 70.896-0.464 3.136-1.744 11.536 12.224 23.888z" />
<glyph unicode="&#xe644;" d="M493.664 31.776h-475.344c-10.096 0-18.304-7.936-18.304-17.744v-28.336c0-9.808 8.208-17.744 18.304-17.744h475.36c10.128 0 18.32 7.936 18.32 17.744v28.336c-0.016 9.808-8.208 17.744-18.336 17.744zM341.312 288.24h-170.976l-42.544-95.808h256.080zM283.888 462.864c0 0-3.36 17.184-26.544 17.184s-26.816-17.776-26.816-17.776l-46.432-141.936h146.464l-46.672 142.528zM401.632 160.368h-288.592l-44.432-112.368h377.472z" />
<glyph unicode="&#xe645;" d="M432 112h-352l-48-48v-16l16-16h144c0-35.344 28.656-64 64-64s64 28.656 64 64h144l16 16v16l-48 48zM416 240c0 65.6-39.52 121.888-96 146.592v29.408c0 35.344-28.656 64-64 64s-64-28.656-64-64v-29.408c-56.48-24.704-96-80.992-96-146.592v-112h320v112zM224 416c0 17.664 14.336 32 32 32s32-14.336 32-32h-64z" />
<glyph unicode="&#xe646;" d="M384 272.032v32c0 8.848-7.152 16-16 16h-352c-8.848 0-16-7.152-16-16v-224.016c0-2.88 0.976-5.424 2.288-7.76 11.152-59.328 63.152-104.256 125.712-104.256h128c40.336 0 76.096 18.832 99.536 48h28.464c70.688 0 128 57.328 128 128.016 0 70.704-57.312 128.016-128 128.016zM384 80.016v128.016c35.344 0 64-28.656 64-64.016 0-35.344-28.656-64-64-64zM83.168 343.936c-2.384-4.32-2.112-7.888 2.432-7.888 4.512 0 10.704 3.584 12.256 7.856 15.888 41.424-67.552 75.104-17.136 126.192 5.168 5.296 7.264 9.872 2.688 9.904-4.592 0.048-14.016-4.32-18.976-9.472-48.576-49.904 41.328-84.976 18.736-126.592zM143.6 343.744c-0.592-4.128 1.936-7.696 6.432-7.696 4.464 0 8.8 3.568 9.248 7.664 3.536 29.664-20.176 56.88-5.936 82.544 0.224 4.64-5.232 9.248-12.304 9.872-7.056 0.64-13.344-2.864-13.584-7.472-1.712-33.472 20.32-54.832 16.144-84.912zM214.432 336.048c4.464 0 8 3.568 8.848 7.52 8.112 38.336 74.368 50.144 24.416 118.608-5.344 7.072-14.832 13.568-19.424 13.632-4.608 0.080-5.008-6.24-1.952-13.232 49.712-46.912 1.984-80.576-19.152-119.008-0.704-3.952 2.816-7.52 7.264-7.52zM278.864 336.048c4.48 0 7.488 3.6 8.784 7.808 12.16 40.688 149.424 66.992 34 122.992-12.032 5.696-27.648 10.464-31.056 10.272-3.472-0.24 4.704-6.144 14.976-12.592 94.352-61.84 6.432-43.184-33.904-120.8-1.312-4.080 2.736-7.68 7.2-7.68z" />
<glyph unicode="&#xe647;" d="M464 256h-416c-8.848 0-16 7.152-16 16s7.152 16 16 16h32l96 176c0 8.848 7.152 16 16 16h32c8.848 0 16-7.152 16-16l-96-176h224l-96 176c0 8.848 7.152 16 16 16h48c8.848 0 16-7.152 16-16l80-176h32c8.848 0 16-7.152 16-16s-7.152-16-16-16zM48 224h416c8.848 0 16-7.152 16-16l-32-224c0-8.848-7.152-16-16-16h-352c-8.848 0-16 7.152-16 16l-32 224c0 8.848 7.152 16 16 16zM352 32h32c8.848 0 16 7.152 16 16l16 96c0 8.848-7.152 16-16 16h-32c-8.848 0-16-7.152-16-16l-16-96c0-8.848 7.152-16 16-16zM224 48c0-8.848 7.152-16 16-16h32c8.848 0 16 7.152 16 16v96c0 8.848-7.152 16-16 16h-32c-8.848 0-16-7.152-16-16v-96zM112 48c0-8.848 7.152-16 16-16h32c8.848 0 16 7.152 16 16l-16 96c0 8.848-7.152 16-16 16h-32c-8.848 0-16-7.152-16-16l16-96z" />
<glyph unicode="&#xe648;" d="M78.816 480h-32c-8.832 0-16-7.152-16-16v-480c0-8.848 7.168-16 16-16h32c8.832 0 16 7.152 16 16v480c0 8.848-7.152 16-16 16zM478.816 176v224c0 8.848-1.968 16-16 16-71.152-32-320 64-320 64-8.832 0-16-7.152-16-16v-240c0-8.848 7.168-16 16-16 0 0 176-57.136 320-48 27.44-9.136 16 7.152 16 16z" />
<glyph unicode="&#xe649;" d="M384 480h-256c-17.664 0-32-14.336-32-32v-448c0-17.664 14.336-32 32-32h256c17.664 0 32 14.336 32 32v448c0 17.664-14.336 32-32 32zM256 0c-53.008 0-96 42.992-96 96s42.992 96 96 96 96-42.992 96-96-42.992-96-96-96zM384 240c0-8.848-7.152-16-16-16h-224c-8.832 0-16 7.152-16 16v192c0 8.848 7.168 16 16 16h224c8.848 0 16-7.152 16-16v-192zM256 128c-17.664 0-32-14.336-32-32s14.336-32 32-32 32 14.336 32 32-14.336 32-32 32z" />
<glyph unicode="&#xe64a;" d="M336 32c8.848 0 16 7.152 16 16v224c0 8.848-7.152 16-16 16s-16-7.152-16-16v-224c0-8.848 7.152-16 16-16zM176 32c8.832 0 16 7.152 16 16v224c0 8.848-7.168 16-16 16s-16-7.152-16-16v-224c0-8.848 7.168-16 16-16zM464 384h-64v32c0 35.344-28.656 64-64 64h-160c-35.344 0-64-28.656-64-64v-32h-64l-48-48c0-8.848 7.168-16 16-16h48v-320c0-17.664 14.336-32 32-32h320c17.664 0 32 14.336 32 32v320h48c8.848 0 16 7.152 16 16l-48 48zM160 416c0 17.664 14.336 32 32 32h128c17.664 0 32-14.336 32-32v-32h-192v32zM416 16c0-8.848-7.152-16-16-16h-288c-8.832 0-16 7.152-16 16v304h320v-304zM256 32c8.848 0 16 7.152 16 16v224c0 8.848-7.152 16-16 16s-16-7.152-16-16v-224c0-8.848 7.152-16 16-16z" />
<glyph unicode="&#xe64b;" d="M511.936 479.888l-437.456-272.576 165.856 0.128-240.272-239.328 479.408 305.12-164.96-0.112 197.424 206.768z" />
<glyph unicode="&#xe64c;" d="M217.296-0.112c113.632 0 213.936 62.976 213.936 167.92 0 38.288-17.904 61.744-25.408 74.096-6.256 7.408-6.256 13.584 8.752 14.816 58.672 8.64 97.376 40.752 97.376 102.48 0 33.344-27.472 73.44-77.408 73.44-23.712 0-52.688-22.816-52.688-47.504 0-13.6 13.984-29.824 33.952-29.824 22.48 0 35.216 23.648 31.472 33.536-1.232 6.176-5.232 13.584 3.488 13.584 16.256 0 34.976-20.992 34.976-40.752 0-34.576-32.464-58.336-83.664-58.336-27.472 0-51.184 16.944-77.408 16.944-66.176 0-104.88-52.448-104.88-98.144 0-51.856 39.952-76.544 69.92-76.544 33.696 0 43.696 19.744 43.696 35.808 0 18.512-11.248 30.864-34.976 30.864-18.72 0-27.472-19.744-26.224-29.632 1.248-4.944-2.496-8.64-6.256-8.64-4.992 0-19.968 16.048-19.968 37.024 0 14.832 10 63.568 62.432 63.568 56.176 0 95.312-51.2 95.312-93.184 0-59.264-66.608-122.256-180.224-122.256-113.632 0-178.544 51.856-178.544 127.184 0 34.576 14.992 66.672 33.696 80.256 7.504 4.944 11.248 3.696 14.992-2.464 8.752-6.176 28.72-22.816 41.2-22.816 16.24 0 24.976 20.336 24.976 37.648 0 14.816-17.472 24.992-32.448 24.992s-24.976-8.944-31.216-11.408c-8.736 13.584-13.728 30.864-13.728 44.448 0 39.504 28.72 64.304 56.192 64.304 23.712 0 43.696-18.608 39.952-42.080-1.248-6.176-1.248-11.104 1.248-11.104 9.984 0 32.448 14.816 32.448 41.984 0 38.272-28.704 58.032-66.176 58.032-61.168 0-98.624-43.216-98.624-88.912 0-27.152 9.984-51.856 26.224-72.848-24.976-11.104-73.664-53.088-73.664-127.184 0.016-62.976 43.712-159.296 217.264-159.296z" />
<glyph unicode="&#xe64d;" d="M146.304 112.208l157.44 64.512 64.512 158.96-158.944-63.024-63.008-160.448zM256.464 255.536c17.664 0 32-14.336 32-32s-14.336-32-32-32-32 14.336-32 32 14.336 32 32 32zM256 480c-141.392 0-256-114.608-256-256s114.608-256 256-256 256 114.608 256 256-114.608 256-256 256zM257.792 31.664c-106.352 0-192.56 86.208-192.56 192.544s86.208 192.56 192.56 192.56c106.336 0 192.544-86.224 192.544-192.576s-86.192-192.528-192.544-192.528z" />
<glyph unicode="&#xe64e;" d="M112 96h-96c-8.848 0-16-7.152-16-16v-96c0-8.848 7.152-16 16-16h96c8.848 0 16 7.152 16 16v96c0 8.848-7.152 16-16 16zM96 16c0-8.848-7.152-16-16-16h-32c-8.848 0-16 7.152-16 16v32c0 8.848 7.152 16 16 16h32c8.848 0 16-7.152 16-16v-32zM496 64h-288c-8.848 0-16-7.152-16-16v-32c0-8.848 7.152-16 16-16h288c8.848 0 16 7.152 16 16v32c0 8.848-7.152 16-16 16zM496 256h-288c-8.848 0-16-7.152-16-16v-32c0-8.848 7.152-16 16-16h288c8.848 0 16 7.152 16 16v32c0 8.848-7.152 16-16 16zM112 480h-96c-8.848 0-16-7.152-16-16v-96c0-8.848 7.152-16 16-16h96c8.848 0 16 23.152 16 32v80c0 8.848-7.152 16-16 16zM96 400c0-8.848-7.152-16-16-16h-32c-8.848 0-16 7.152-16 16v32c0 8.848 7.152 16 16 16h32c8.848 0 16-7.152 16-16v-32zM112 288h-96c-8.848 0-16-7.152-16-16v-96c0-8.848 7.152-16 16-16h96c8.848 0 16 7.152 16 16v96c0 8.848-7.152 16-16 16zM96 208c0-8.848-7.152-16-16-16h-32c-8.848 0-16 7.152-16 16v32c0 8.848 7.152 16 16 16h32c8.848 0 16-7.152 16-16v-32zM496 448h-288c-8.848 0-16-7.152-16-16v-32c0-8.848 7.152-16 16-16h288c8.848 0 16 7.152 16 16v32c0 8.848-7.152 16-16 16z" />
<glyph unicode="&#xe64f;" d="M112 288h-96c-8.848 0-16-7.152-16-16v-96c0-8.848 7.152-16 16-16h96c8.848 0 16 7.152 16 16v96c0 8.848-7.152 16-16 16zM96 208c0-8.848-7.152-16-16-16h-32c-8.848 0-16 7.152-16 16v32c0 8.848 7.152 16 16 16h32c8.848 0 16-7.152 16-16v-32zM112 480h-96c-8.848 0-16-7.152-16-16v-96c0-8.848 7.152-16 16-16h96c8.848 0 16 23.152 16 32v80c0 8.848-7.152 16-16 16zM96 400c0-8.848-7.152-16-16-16h-32c-8.848 0-16 7.152-16 16v32c0 8.848 7.152 16 16 16h32c8.848 0 16-7.152 16-16v-32zM112 96h-96c-8.848 0-16-7.152-16-16v-96c0-8.848 7.152-16 16-16h96c8.848 0 16 7.152 16 16v96c0 8.848-7.152 16-16 16zM96 16c0-8.848-7.152-16-16-16h-32c-8.848 0-16 7.152-16 16v32c0 8.848 7.152 16 16 16h32c8.848 0 16-7.152 16-16v-32zM304 288h-96c-8.848 0-16-7.152-16-16v-96c0-8.848 7.152-16 16-16h96c8.848 0 16 7.152 16 16v96c0 8.848-7.152 16-16 16zM288 208c0-8.848-7.152-16-16-16h-32c-8.848 0-16 7.152-16 16v32c0 8.848 7.152 16 16 16h32c8.848 0 16-7.152 16-16v-32zM304 96h-96c-8.848 0-16-7.152-16-16v-96c0-8.848 7.152-16 16-16h96c8.848 0 16 7.152 16 16v96c0 8.848-7.152 16-16 16zM288 16c0-8.848-7.152-16-16-16h-32c-8.848 0-16 7.152-16 16v32c0 8.848 7.152 16 16 16h32c8.848 0 16-7.152 16-16v-32zM496 288h-96c-8.848 0-16-7.152-16-16v-96c0-8.848 7.152-16 16-16h96c8.848 0 16 7.152 16 16v96c0 8.848-7.152 16-16 16zM480 208c0-8.848-7.152-16-16-16h-32c-8.848 0-16 7.152-16 16v32c0 8.848 7.152 16 16 16h32c8.848 0 16-7.152 16-16v-32zM496 480h-96c-8.848 0-16-7.152-16-16v-96c0-8.848 7.152-16 16-16h96c8.848 0 16 23.152 16 32v80c0 8.848-7.152 16-16 16zM480 400c0-8.848-7.152-16-16-16h-32c-8.848 0-16 7.152-16 16v32c0 8.848 7.152 16 16 16h32c8.848 0 16-7.152 16-16v-32zM304 480h-96c-8.848 0-16-7.152-16-16v-96c0-8.848 7.152-16 16-16h96c8.848 0 16 23.152 16 32v80c0 8.848-7.152 16-16 16zM288 400c0-8.848-7.152-16-16-16h-32c-8.848 0-16 7.152-16 16v32c0 8.848 7.152 16 16 16h32c8.848 0 16-7.152 16-16v-32zM496 96h-96c-8.848 0-16-7.152-16-16v-96c0-8.848 7.152-16 16-16h96c8.848 0 16 7.152 16 16v96c0 8.848-7.152 16-16 16zM480 16c0-8.848-7.152-16-16-16h-32c-8.848 0-16 7.152-16 16v32c0 8.848 7.152 16 16 16h32c8.848 0 16-7.152 16-16v-32z" />
<glyph unicode="&#xe650;" d="M384-32v0c-8.848 0-16 7.152-16 16l-160 144h-80c-8.832 0-16 7.152-16 16v128c0 8.848 7.168 16 16 16h80l160 176c0 8.848 7.152 16 16 16v0c8.848 0 16-7.152 16-16v-480c0-8.848-7.152-16-16-16z" />
<glyph unicode="&#xe651;" d="M361.040 415.776c-3.008 0-5.936-0.336-8.88-0.56v-27.84c68.656 0 124.32-73.136 124.32-163.376s-55.664-163.376-124.32-163.376v-27.84c2.944-0.224 5.872-0.56 8.88-0.56 83.392 0 150.96 85.856 150.96 191.776s-67.568 191.776-150.96 191.776zM432.080 224c0 55.776-33.888 102.32-79.904 116.88v-38.4c23.552-14.032 39.952-43.744 39.952-78.464s-16.4-64.432-39.952-78.464v-38.4c46.016 14.528 79.904 61.072 79.904 116.848zM272.128 480c-8.848 0-16-7.152-16-16l-160.096-176h-80.032c-8.848 0-16-7.152-16-16v-128c0-8.848 7.168-16 16-16h80.032l160.080-144c0-8.848 7.152-16 16-16 8.864 0 16.016 7.152 16.016 16v480c0.016 8.848-7.136 16-16 16z" />
<glyph unicode="&#xe652;" d="M480 480h-448c-17.664 0-32-14.336-32-32v-320c0-17.664 14.336-32 32-32h128l-64-128h16l115.2 128h57.6l115.2-128h16l-64 128h128c17.664 0 32 14.336 32 32v320c0 17.664-14.336 32-32 32zM480 144c0-8.848-7.152-16-16-16h-416c-8.848 0-16 7.152-16 16v288c0 8.848 7.152 16 16 16h416c8.848 0 16-7.152 16-16v-288zM334.048 229.904l-72.336 186.064-79.008-148.64-44.096 45.36-74.608-46.496 21.056-12.128 47.808 29.792 57.68-59.392 66.8 125.648 73.856-190.064 62.992 132.608 25.664-54.624 28.144 4.72-53.664 114.112-60.288-126.96z" />
<glyph unicode="&#xe653;" d="M256 352c-70.688 0-128-57.312-128-128s57.312-128 128-128 128 57.312 128 128-57.312 128-128 128zM256 128c-53.008 0-96 42.992-96 96s42.992 96 96 96 96-42.992 96-96-42.992-96-96-96zM256 480c-141.392 0-256-114.608-256-256s114.608-256 256-256 256 114.608 256 256-114.608 256-256 256zM256 32c-106.032 0-192 85.968-192 192s85.968 192 192 192 192-85.968 192-192-85.968-192-192-192zM256 272c-26.512 0-48-21.488-48-48s21.488-48 48-48 48 21.488 48 48-21.488 48-48 48z" />
<glyph unicode="&#xe654;" d="M287.376 288.736v159.264l224.624-224-224.624-224v160.672c-114.16 0-226.832-19.872-287.376-114.176 6.304 171.856 134.88 212.768 287.376 242.24z" />
<glyph unicode="&#xe655;" d="M207.216 32.368c-0.4-0.4-0.816-0.816-1.2-1.216-40.128-38.384-103.952-39.136-142.656-1.536-41.056 38.64-41.872 94.608 0.704 137.664 0.336 0.336 0.608 0.688 0.944 1.024 0.4 0.368 0.784 0.768 1.168 1.136l266.48 259.008c24.416 23.232 63.136 23.648 86.624 0.816 14.128-20.128 23.024-60.624-0.784-84.176l-2.192-2.144-25.008-24.272-22.944-22.32-216.016-209.68-0.608 0.752-0.56-0.624-1.104-1.216c-0.096-0.064-0.208-0.128-0.288-0.224-8.928-8.064-22.704-8.128-31.136 0.064-8.352 8.128-8.336 20.032-0.016 28.896 0.272 0.256 0.432 0.56 0.704 0.816l201.584 195.888-24.272 23.536-177.36-172.368-21.536-23.504v-0.032c-0.064-0.064-0.128-0.096-0.208-0.192-0.192-0.192-0.352-0.368-0.544-0.576-22.128-22.096-25.184-54.208-3.36-75.44 21.84-21.2 57.632-19.52 80.352 2l0.032-0.032 0.448 0.464c0.048 0.032 0.096 0.064 0.128 0.096 0.048 0.032 0.080 0.096 0.112 0.128l240.832 230.016 24.976 24.304 2.224 2.128-0.032 0.032c37.696 37.168 19.792 106.784 1.568 131.968-37.088 36.032-98.144 35.152-136.368-2.016-0.56-0.528-1.024-1.12-1.568-1.68l-0.064 0.048-264.32-256.928c-0.208-0.224-0.432-0.368-0.656-0.592-0.368-0.336-0.704-0.784-1.072-1.152l-0.384-0.368 0.016-0.032c-52.432-52.512-53.296-135.088-1.472-185.504 52.336-50.864 138.528-49.584 192.48 2.848 0.224 0.224 0.384 0.432 0.608 0.656l0.064-0.064 280.464 272.56-24.256 23.568-280.528-272.528z" />
<glyph unicode="&#xe656;" d="M208 192c8.832 0 16 7.152 16 16s-7.168 16-16 16-16-7.152-16-16 7.168-16 16-16zM256 256c8.848 0 16 7.152 16 16s-7.152 16-16 16-16-7.152-16-16 7.152-16 16-16zM208 320c8.832 0 16 7.152 16 16s-7.168 16-16 16-16-7.152-16-16 7.168-16 16-16zM304 320c8.848 0 16 7.152 16 16s-7.152 16-16 16-16-7.152-16-16 7.152-16 16-16zM160 256c8.832 0 16 7.152 16 16s-7.168 16-16 16-16-7.152-16-16 7.168-16 16-16zM400 320c8.848 0 16 7.152 16 16s-7.152 16-16 16-16-7.152-16-16 7.152-16 16-16zM352 256c8.848 0 16 7.152 16 16s-7.152 16-16 16-16-7.152-16-16 7.152-16 16-16zM304 192c8.848 0 16 7.152 16 16s-7.152 16-16 16-16-7.152-16-16 7.152-16 16-16zM432 288c-8.848 0-16-7.152-16-16s7.152-16 16-16 16 7.152 16 16-7.152 16-16 16zM480 416h-448c-17.664 0-32-14.336-32-32v-320c0-17.664 14.336-32 32-32h448c17.664 0 32 14.336 32 32v320c0 17.664-14.336 32-32 32zM480 80c0-8.848-7.152-16-16-16h-416c-8.832 0-16 7.152-16 16v288c0 8.848 7.168 16 16 16h416c8.848 0 16-7.152 16-16v-288zM368 128h-224c-8.832 0-16-7.152-16-16s7.168-16 16-16h224c8.848 0 16 7.152 16 16s-7.152 16-16 16zM80 288c-8.832 0-16-7.152-16-16s7.168-16 16-16 16 7.152 16 16-7.168 16-16 16zM112 224c-8.832 0-16-7.152-16-16s7.168-16 16-16 16 7.152 16 16-7.168 16-16 16zM112 320c8.832 0 16 7.152 16 16s-7.168 16-16 16-16-7.152-16-16 7.168-16 16-16zM400 224c-8.848 0-16-7.152-16-16s7.152-16 16-16 16 7.152 16 16-7.152 16-16 16z" />
<glyph unicode="&#xe657;" d="M383.968 329.744l91.472 91.472c6.144 6.128 6.144 16.080 0 22.224-6.128 6.128-16.064 6.128-22.208 0l-91.488-91.488h-233.776v48c0 8.848-7.168 16-16 16h-32c-8.832 0-16-7.152-16-16v-48h-48c-8.832 0-16-7.152-16-16v-32c0-8.848 7.168-16 16-16h48v-240c0-8.848 7.168-16 16-16h240v-48c0-8.848 7.152-16 16-16h32c8.848 0 16 7.152 16 16v48h48c8.848 0 16 7.152 16 16v32c0 8.848-7.152 16-16 16h-48v233.792zM297.744 287.968l-169.776-169.792v169.792h169.776zM150.208 95.968l169.76 169.776v-169.776h-169.76z" />
<glyph unicode="&#xe658;" d="M480-32h-448c-17.664 0-32 14.336-32 32v448c0 17.664 14.336 32 32 32h384l96-96v-384c0-17.664-14.336-32-32-32zM128 48c0-8.848 7.168-16 16-16h224c8.848 0 16 7.152 16 16v128c0 8.848-7.152 16-16 16h-224c-8.832 0-16-7.152-16-16v-128zM352 400c0 8.848-7.152 16-16 16s-16-7.152-16-16v-48c0-8.848 7.152-16 16-16s16 7.152 16 16v48zM448 368l-48 48h-16v-112c0-8.848-7.152-16-16-16h-224c-8.832 0-16 7.152-16 16v112h-48c-8.832 0-16-7.152-16-16v-352c0-8.848 7.168-16 16-16h16v176c0 8.848 7.168 16 16 16h288c8.848 0 16-7.152 16-16v-176h16c8.848 0 16 7.152 16 16v320z" />
<glyph unicode="&#xe659;" d="M512 401.504c0-60.24-161.616-201.296-191.792-261.552v-124.624c0-0.336-0.192-0.576-0.224-0.912v-14.416c0-17.664-14.336-32-31.984-32h-64c-17.664 0-32 14.336-32 32v14.384c-0.032 0.336-0.24 0.576-0.24 0.944v124.624c-30.128 60.256-191.76 201.312-191.76 261.552h0.464c-0.096 0.672-0.464 1.248-0.464 1.888 0 34.256 114.672 76.608 256 76.608s256-42.352 256-76.608c0-0.64-0.368-1.216-0.48-1.888h0.48zM258.72 448.256c-124.016 0-226.944-19.92-226.944-56.448 0-36.512 102.928-72.080 226.944-72.080 124.032 0 220.96 35.568 220.96 72.080-0.016 36.528-96.928 56.448-220.96 56.448z" />
<glyph unicode="&#xe65a;" d="M392 480h-272c-66.288 0-120-53.712-120-120s53.712-120 120-120h21.824c25.536-26.016 59.84-43.36 98.176-47.168v-160.832h-48l-64-64h256l-64 64h-48v160.832c38.336 3.808 72.64 21.152 98.176 47.168h21.824c66.288 0 120 53.712 120 120s-53.712 120-120 120zM32 360c0 40.224 27.136 73.76 64 84.272v-92.272c0-29.056 7.872-56.256 21.424-79.728-47.376 1.392-85.424 40.016-85.424 87.728zM394.576 272.272c13.552 23.472 21.424 50.672 21.424 79.728v92.272c36.864-10.496 64-44.048 64-84.272 0-47.712-38.048-86.336-85.424-87.728z" />
<glyph unicode="&#xe65b;" d="M448 128h-32c-35.344 0-64 28.656-64 64s28.656 64 64 64h32c35.344 0 64-28.656 64-64s-28.656-64-64-64zM448 224h-32c-17.664 0-32-14.336-32-32s14.336-32 32-32h32c17.664 0 32 14.336 32 32s-14.336 32-32 32zM320 192c0-1.376 0.336-2.64 0.4-4-0.064-1.344-0.4-2.624-0.4-4 0-16.832 6.016-32.096 15.68-44.352 17.136-26.24 46.656-43.648 80.32-43.648h64v-64c0-17.664-14.336-32-32-32h-416c-17.664 0-32 14.336-32 32v360c0 25.168 16.72 46.224 39.6 53.264 2.464 1.584 5.248 2.736 8.4 2.736h416c8.848 0 16-7.152 16-16s-7.152-16-16-16h-416c-8.848 0-16-7.152-16-16v-16h416c17.664 0 32-14.336 32-32v-64h-64c-53.008 0-96-42.992-96-96zM40 32h400c4.416 0 8 3.584 8 8s-3.584 8-8 8h-400c-4.416 0-8-3.584-8-8s3.584-8 8-8zM448 344c0 4.416-3.584 8-8 8h-400c-4.416 0-8-3.584-8-8s3.584-8 8-8h400c4.416 0 8 3.584 8 8z" />
<glyph unicode="&#xe65c;" d="M464-32h-352c-8.832 0-16 7.152-16 16v16h-48c-8.848 0-16 7.152-16 16v32c0 8.848 7.152 16 16 16h48v32h-48c-8.848 0-16 7.152-16 16v32c0 8.848 7.152 16 16 16h48v32h-48c-8.848 0-16 7.152-16 16v32c0 8.848 7.152 16 16 16h48v32h-48c-8.848 0-16 7.152-16 16v32c0 8.848 7.152 16 16 16h48v32h-48c-8.848 0-16 7.152-16 16v32c0 8.848 7.152 16 16 16h48v16c0 8.848 7.168 16 16 16h352c8.848 0 16-7.152 16-16v-480c0-8.848-7.152-16-16-16zM96 432h-32c-8.848 0-16-7.152-16-16s7.152-16 16-16h32c8.848 0 16 7.152 16 16s-7.152 16-16 16zM96 336h-32c-8.848 0-16-7.152-16-16s7.152-16 16-16h32c8.848 0 16 7.152 16 16s-7.152 16-16 16zM96 240h-32c-8.848 0-16-7.152-16-16s7.152-16 16-16h32c8.848 0 16 7.152 16 16s-7.152 16-16 16zM96 144h-32c-8.848 0-16-7.152-16-16s7.152-16 16-16h32c8.848 0 16 7.152 16 16s-7.152 16-16 16zM96 48h-32c-8.848 0-16-7.152-16-16s7.152-16 16-16h32c8.848 0 16 7.152 16 16s-7.152 16-16 16zM384 146c0 27.28-33.888 37.072-78.592 41.168 1.856 1.136 3.552 3.008 5.232 4.832h-6.64c8.848 0 16 7.152 16 16v96c0 8.848-7.152 16-16 16h-32c-8.848 0-16-7.152-16-16v-96c0-8.848 7.152-16 16-16h-6.64c1.68-1.824 3.392-3.68 5.232-4.832-44.704-4.096-78.592-14.256-78.592-41.168v-18h192v18z" />
<glyph unicode="&#xe65d;" d="M256 480c-141.392 0-256-114.608-256-256s114.608-256 256-256 256 114.608 256 256-114.608 256-256 256zM352 160c0-17.664-14.336-32-32-32h-128c-17.664 0-32 14.336-32 32v128c0 17.664 14.336 32 32 32h128c17.664 0 32-14.336 32-32v-128z" />
<glyph unicode="&#xe65e;" d="M352 320c-17.664 0-32-14.336-32-32s14.336-32 32-32 32 14.336 32 32-14.336 32-32 32zM160 256c17.664 0 32 14.336 32 32s-14.336 32-32 32-32-14.336-32-32 14.336-32 32-32zM256 480c-141.392 0-256-114.608-256-256s114.608-256 256-256c141.392 0 256 114.608 256 256 0 141.392-114.608 256-256 256zM160 352c35.344 0 64-28.656 64-64s-28.656-64-64-64-64 28.656-64 64 28.656 64 64 64zM256 32c-65.6 0-121.904 39.52-146.592 96h293.184c-24.688-56.48-80.992-96-146.592-96zM352 224c-35.344 0-64 28.656-64 64s28.656 64 64 64 64-28.656 64-64-28.656-64-64-64z" />
<glyph unicode="&#xe65f;" d="M309.072 367.92h16.496c31.984 44.032-21.952 64.048 0 112.080h-16.496c-19.184-47.232 25.936-65.648 0-112.080zM244.704 351.904h16.768c-22.304 48.032 32.496 84.064 0 128.096h-16.768c26.352-46.432-19.504-80.864 0-128.096zM487.472 73.328c-3.2 12.336-7.024 18.64-24.496 20.016-6.64 0.432-12.992 0.816-19.584 1.248 0.176 0.32 0.288 0.784 0.432 1.12h-51.040c-4.448 0-8.064 3.584-8.064 8 0 4.432 3.616 8.016 8.064 8.016h54.496c1.12 13.6-0.496 30.288-5.328 38.992-7.152 13.776-13.808 24.976-20.272 33.824-11.152 13.92-31.824 23.248-47.104 28.272-1.792 0.464-3.968 0.88-6.32 1.264-0.816-3.568-3.872-6.288-7.696-6.288h-48.336c-4.448 0-8.064 3.584-8.064 8.016 0 1.872 6.544 3.584 14.336 4.96-9.696 22.928 1.776 51.072 1.776 51.072 0 17.68-32.24 53.36-32.24 32.016s-76.688 0-76.688 0c-10.416 11.664-19.984 32.016-19.984 32.016s-28.096-15.872-31.552-36.096c-9.968-5.44-16.8-15.84-16.8-27.952v-16c0-7.472 1.328-20 4.672-32.016h35.616c4.448 0 8.064-3.584 8.064-8 0-4.432-3.616-8.016-8.064-8.016h-48.304c-3.616 0-6.544 2.368-7.584 5.632-10.656 2.32-21.44 5.344-32.384 9.488-17.952-0.368-32.528-14.448-32.528-31.968v-31.664c0.016-5.904 1.696-11.488 4.656-16.336 1.024 0.48 2.176 0.8 3.392 0.8h64.448c4.448 0 8.048-3.584 8.048-8s-3.6-8.016-8.048-8.016h-49.328c1.408-0.544 2.832-1.088 4.336-1.488-8.992 0.096-18 0.4-26.976 0.4-15.712-0.080-37.184-13.584-44.464-25.824-10.864-19.008-16.528-34.272-18.496-64.272-1.056-20.032 12.56-68.544 27.664-68.544s435.44 0.352 435.44 0.352 47.92 29.776 48.72 48.112c1.888 27.488-20.48 38.24-24.416 56.864zM185.728 383.936h16.768c-26.352 46.432 19.504 48.832 0 96.064h-16.768c22.288-48.032-32.48-52.032 0-96.064z" />
<glyph unicode="&#xe660;" d="M384-32l-128 176-128-176c-17.664 0-32 14.336-32 32v448c0 17.664 14.336 32 32 32h256c17.664 0 32-14.336 32-32v-448c0-17.664-14.336-32-32-32zM376 448h-240c-4.416 0-8-3.584-8-8s3.584-8 8-8h240c4.416 0 8 3.584 8 8s-3.584 8-8 8z" />
<glyph unicode="&#xe661;" d="M480 48l-96 80v-80c0-17.664-14.336-32-32-32h-320c-17.664 0-32 14.336-32 32v272c0 17.664 14.336 32 32 32h123.168l-47.328 64h-91.84c-8.832 0-16 7.152-16 16s7.168 16 16 16h96c8.832 0 16-7.152 16-16l65.152-80h158.848c17.664 0 32-14.336 32-32v-80l96 96c17.664 0 32-14.336 32-32v-224c0-17.664-12.336-32-32-32zM336 320h-96c-8.848 0-16-7.152-16-16s7.152-16 16-16h96c8.848 0 16 7.152 16 16s-7.152 16-16 16z" />
<glyph unicode="&#xe662;" d="M416 240c-8.848 0-16-7.152-16-16v-112c0-8.848 7.152-16 16-16s16 7.152 16 16v112c0 8.848-7.152 16-16 16zM368 0h-224c-8.832 0-16-7.152-16-16s7.168-16 16-16h224c8.848 0 16 7.152 16 16s-7.152 16-16 16zM320 464c0 8.848-7.152 16-16 16h-80c0 0-16-7.152-16-16l-208-192c0-8.848 7.168-16 16-16h192c-8.848 0-16-23.152-16-32v-192c0-8.848 7.152-16 16-16h96c8.848 0 16 7.152 16 16v192c0 8.848-7.152 32-16 32h192c8.848 0 16 7.152 16 16l-192 192z" />
<glyph unicode="&#xe663;" d="M188.112 291.872c-37.488-37.488-37.488-98.272 0-135.76s98.272-37.488 135.76 0c37.504 37.504 37.504 98.288 0 135.76-37.488 37.504-98.256 37.504-135.76 0zM278.624 201.376c-12.496-12.496-32.752-12.496-45.248 0s-12.496 32.752 0 45.248 32.752 12.496 45.248 0 12.496-32.752 0-45.248zM437.008 405.008c-99.968 99.984-262.064 99.984-362.032 0-99.984-99.968-99.984-262.064 0-362.032 99.968-99.984 262.064-99.984 362.032 0 99.984 99.984 99.984 262.064 0 362.032zM346.496 133.488c-49.968-49.984-131.024-49.984-181.008 0-50 50-50 131.024 0 181.024 49.984 49.984 131.040 49.984 181.008 0 50-50 50-131.024 0-181.024zM357.808 325.824l56.576 79.184 22.624-22.624-79.2-56.56z" />
<glyph unicode="&#xe664;" d="M256 480c-141.376 0-256-114.608-256-256s114.624-256 256-256c141.376 0 256 114.608 256 256s-114.624 256-256 256zM256 32c-106.032 0-192 85.968-192 192s85.968 192 192 192c106.032 0 192-85.968 192-192s-85.968-192-192-192zM256 384c-88.368 0-160-71.648-160-160s71.632-160 160-160c88.368 0 160 71.648 160 160s-71.632 160-160 160zM192 128c-17.664 0-32 14.336-32 32s14.336 32 32 32 32-14.336 32-32-14.336-32-32-32zM192 256c-17.664 0-32 14.336-32 32s14.336 32 32 32 32-14.336 32-32-14.336-32-32-32zM320 128c-17.664 0-32 14.336-32 32s14.336 32 32 32 32-14.336 32-32-14.336-32-32-32zM320 256c-17.664 0-32 14.336-32 32s14.336 32 32 32 32-14.336 32-32-14.336-32-32-32z" />
<glyph unicode="&#xe665;" d="M256.224 126.688c-0.592 0-1.184 0-1.776 0-140.512 0-254.16 34.128-254.192 60.336l-0.256 102.928c0 0.16 0.064 0.304 0.064 0.432 23.136-10.976 50.32-16.032 66.576-19.056 50.512-9.392 117.232-14.576 187.808-14.576h1.776c71.024 0.080 138.128 5.392 189.008 14.944 16.272 3.056 43.36 8.144 66.512 19.056 0-0.048 0-0.144 0-0.144l0.272-102.928c0.032-26.32-114.448-60.8-255.792-60.992zM256.224 287.744c-0.592 0-1.184 0-1.776 0-140.512 0-254.16 31.136-254.192 57.344l-0.256 86.944c-0.048 26.304 114.496 47.792 255.84 47.968 0.624 0 1.216 0 1.84 0 140.464 0 254.032-21.12 254.064-47.328l0.272-86.944c0.032-26.304-114.448-57.792-255.792-57.984zM254.432 95.68h1.776c71.024 0.096 138.144 8.384 189.008 17.936 16.272 3.056 43.36 8.144 66.528 19.072l0.256-116.736c0.032-26.32-114.448-47.792-255.792-47.968-0.608 0-1.184 0-1.808 0-140.48 0-254.128 21.12-254.16 47.312l-0.24 117.040c23.136-10.992 50.336-16.048 66.624-19.072 50.512-9.408 117.216-17.584 187.808-17.584z" />
<glyph unicode="&#xe666;" d="M480 416h-448c-17.664 0-32-14.336-32-32v-320c0-17.664 14.336-32 32-32h448c17.664 0 32 14.336 32 32v320c0 17.664-14.336 32-32 32zM48 384h416c8.848 0 16-7.152 16-16v-48h-448v48c0 8.848 7.152 16 16 16zM464 64h-416c-8.848 0-16 7.152-16 16v144h448v-144c0-8.848-7.152-16-16-16z" />
<glyph unicode="&#xe667;" d="M446.208 223.84c20.032 22.224 34.384 44.112 42.752 65.136 9.664 24.4 9.312 45.584-1.024 62.944-10.384 17.392-29.408 28.288-56.496 32.368-23.248 3.52-50.224 2.608-80.464-2.72-10.016 27.76-22.608 50.608-37.456 67.984-17.296 20.224-36.704 30.464-57.632 30.464-20.992 0-40.384-10.304-57.664-30.64-14.864-17.472-27.344-40.336-37.168-68.032-30.256 5.504-57.216 6.464-80.464 2.96-27.088-4.096-46.096-14.992-56.512-32.4-10.336-17.36-10.688-38.528-1.024-62.928 8.32-20.976 22.752-42.848 42.96-65.104-20.192-22.304-34.576-44.144-42.8-65.024-9.6-24.32-9.184-45.44 1.184-62.752 10.352-17.392 29.312-28.336 56.304-32.512 23.168-3.616 50.128-2.688 80.368 2.8 9.984-27.664 22.496-50.496 37.28-67.92 17.184-20.24 36.528-30.48 57.536-30.48 20.944 0 40.336 10.256 57.632 30.464 14.832 17.36 27.408 40.256 37.424 68.128 30.24-5.76 57.12-6.864 80.224-3.264 26.864 4.176 45.856 15.072 56.496 32.512 10.352 17.36 10.704 38.528 1.008 62.944-8.32 20.912-22.576 42.784-42.464 65.072zM221.504 19.136c-10.8 13.776-20.112 32.208-27.728 54.8 20.992 5.712 41.92 12.976 62.352 21.664 20.512-8.8 41.408-16.064 62.336-21.664-7.744-22.544-17.168-40.944-28.080-54.752-22.288-28.272-46.752-28.272-68.88-0.048zM290.368 428.72c10.896-13.904 20.336-32.352 28.080-54.912-19.504-5.264-40.384-12.448-62.32-21.472-21.296 8.672-42.304 16-62.608 21.792 7.744 22.336 17.136 40.688 27.984 54.592 22.16 28.4 46.576 28.4 68.864 0zM375.76 243.136c8.528-6.688 16.32-13.168 23.28-19.392-4.736-4.368-9.68-8.704-14.784-12.896-2.8-2.288-5.632-4.592-8.496-6.928 0.272 7.040 0.384 13.792 0.384 20.192 0.016 5.84-0.112 12.208-0.384 19.024zM372.304 287.696c-2.512 21.968-6.496 43.040-11.856 62.832 24.288 4.784 45.68 6.192 63.664 4.16 18.352-2.064 30.656-8.064 36.528-17.728 6-10.064 5.344-22.928-2.032-39.312-7.12-15.904-19.104-32.896-35.68-50.592-15.664 14.336-32.624 27.968-50.624 40.64zM256.144 132.224c-14.416 6.4-28.752 13.632-42.608 21.472-15.808 9.056-29.328 17.344-40.256 24.64-1.2 13.328-1.808 28.72-1.808 45.792 0 17.056 0.608 32.336 1.792 45.504 11.84 7.728 25.536 16.032 40.64 24.576 13.6 7.392 27.776 14.512 42.224 21.2 14.4-6.752 28.592-13.856 42.064-21.072 14.176-8.144 27.872-16.368 40.816-24.544 1.2-13.44 1.792-28.768 1.792-45.664 0-17.072-0.592-32.544-1.792-46.032-12-7.872-25.584-16.064-40.512-24.416-13.392-7.68-27.6-14.896-42.352-21.456zM315.776 323.232c-5.312 2.992-11.232 6.16-17.696 9.52 10.24 3.728 20.128 7.008 29.552 9.792 2.32-9.728 4.32-19.6 5.968-29.504-5.696 3.408-11.648 6.816-17.824 10.192zM184.592 342.464c9.6-2.912 19.328-6.176 29.136-9.76-6.080-3.072-11.904-6.24-17.44-9.424-6.192-3.408-12.144-6.8-17.792-10.192 1.728 10 3.76 19.84 6.096 29.376zM136.528 204.176c-8.608 6.608-16.48 13.184-23.584 19.664 7.232 6.512 15.072 12.992 23.488 19.392-0.208-6.24-0.304-12.576-0.304-19.088 0.016-6.896 0.144-13.568 0.4-19.968zM151.648 351.008c-5.36-20.384-9.28-41.456-11.664-62.784-18.56-13.216-35.632-27.024-50.896-41.136-16.576 17.664-28.608 34.656-35.84 50.608-7.408 16.336-8.032 29.152-1.872 39.2 6 9.872 17.952 15.728 36.56 17.92 5.632 0.656 11.648 0.992 17.872 0.992 13.744 0 29.136-1.616 45.84-4.8zM53.408 150.096c7.152 15.952 19.056 32.928 35.424 50.528 15.424-14.288 32.576-28.176 51.136-41.376 2.384-21.28 6.304-42.096 11.648-62.048-24.256-4.768-45.632-6.176-63.584-4.176-18.464 2.096-30.368 7.984-36.432 18.144-6.128 9.84-5.536 22.56 1.808 38.928zM195.76 124.88c5.568-3.312 11.616-6.608 18.096-9.904-10.128-3.728-19.968-6.96-29.424-9.648-2.32 9.696-4.272 19.44-5.856 29.136 5.728-3.408 11.488-6.624 17.184-9.584zM327.648 105.296c-9.536 2.688-19.392 5.904-29.52 9.648 5.76 2.96 11.84 6.224 18.176 9.792 5.888 3.264 11.664 6.544 17.232 9.792-1.776-10.432-3.744-20.192-5.888-29.232zM360.32 97.152c5.232 20.016 9.152 40.912 11.68 62.336 18.464 13.104 35.536 26.912 50.88 41.104 16.384-17.792 28.304-34.864 35.456-50.768 7.344-16.384 8-29.136 2.032-39.008-5.904-9.76-18.16-15.776-36.416-17.92-5.36-0.624-11.088-0.96-17.024-0.96-13.936 0.016-29.568 1.76-46.608 5.216z" />
<glyph unicode="&#xe668;" d="M464.768 222.736c-0.112-0.048-0.224-0.112-0.288-0.112 0-0.080 0-0.192 0-0.256-33.152-17.12-63.504-23.92-90.784-23.92-41.296 0-75.552 15.6-101.872 34.864-0.16 0.112-0.368 0.256-0.496 0.4l47.872 181.376c15.136-12.912 49.376-37.072 101.264-37.072 26.128 0 56.656 6.112 91.52 22.784l-47.216-178.064zM150.128 293.28c-0.432 0-0.848 0-1.296 0-24.768 0-54.24-7.184-90.592-23.424l46.688 179.456c35.376 15.792 64.16 22.16 88.16 22.672 0.176 0 0.352 0 0.544 0 14.112 0 26.864-1.84 38.144-4.768 23.616-6.592 57.568-28.848 57.568-28.848v-0.128c-9.728-36.48-38.528-144.576-48.24-180.576-25.344 18.384-52.576 35.184-90.976 35.616zM132.080 249.552c3.072 0.288 6.128 0.384 9.184 0.384 26.944 0 51.536-10.32 69.184-20.224 7.552-4.448 14.688-9.296 21.776-14.112-6.272-23.536-39.328-147.056-49.056-183.168-26.224 19.104-54.016 36.064-94.096 36.064-24.336 0-53.264-6.32-89.056-22.128l47.392 179.872c5.392 2.4 10.656 4.608 15.76 6.624 17.28 6.656 41.888 14.208 68.912 16.688zM363.008 156.4c25.152 0 54.928 5.088 89.472 18.64l-45.536-174.24c-39.264-17.728-70.656-24.784-96.912-24.784-41.488 0-96.784 37.328-96.72 37.28l47.248 179.584c14.384-12.56 47.68-36.48 102.448-36.48z" />
<glyph unicode="&#xe669;" d="M496 256h-50.768c-13.52 80.32-76.896 143.6-157.232 157.12v50.88c0 8.848-7.152 16-16 16h-32c-8.848 0-16-7.152-16-16v-50.88c-80.336-13.52-143.712-76.8-157.232-157.12h-50.768c-8.848 0-16-7.152-16-16v-32c0-8.848 7.152-16 16-16h50.768c13.52-80.32 76.896-143.616 157.232-157.12v-50.88c0-8.848 7.152-16 16-16h32c8.848 0 16 7.152 16 16v50.88c80.336 13.52 143.712 76.816 157.232 157.12h50.768c8.848 0 16 7.152 16 16v32c0 8.848-7.152 16-16 16zM379.936 256h-91.936v91.808c44.944-11.6 80.336-46.896 91.936-91.808zM224 347.808v-91.808h-91.952c11.6 44.912 47.008 80.208 91.952 91.808zM132.048 192h91.952v-91.792c-44.944 11.568-80.352 46.864-91.952 91.792zM288 100.208v91.792h91.936c-11.6-44.928-46.992-80.224-91.936-91.792z" />
<glyph unicode="&#xe66a;" d="M208 320h-128c-8.848 0-16-7.152-16-16v-160c0-8.848 7.152-16 16-16h224c8.848 0 16 7.152 16 16l-96 160c0 8.848-7.152 16-16 16zM496 320h-48v48c0 8.848-7.152 16-16 16h-416c-8.848 0-16-7.152-16-16v-288c0-8.848 7.152-16 16-16h416c8.848 0 16 7.152 16 16v48h48c8.848 0 16 7.152 16 16v160c0 8.848-7.152 16-16 16zM416 112c0-8.848-7.152-16-16-16h-352c-8.848 0-16 7.152-16 16v224c0 8.848 7.152 16 16 16h352c8.848 0 16-7.152 16-16v-224z" />
<glyph unicode="&#xe66b;" d="M0 171.904l160.672-103.312v74.576l-95.664 59.072 95.664 59.072v75.088l-160.672-103.84v-60.656zM194.656 32h55.296l81.024 384h-55.664l-80.656-384zM351.344 336.4v-75.088l95.632-59.072-95.632-59.056v-74.576l160.656 103.296v60.656l-160.656 103.84z" />
<glyph unicode="&#xe66c;" d="M512 184.778l-256 198.713-256-198.714v81.019l256 198.713 256-198.714zM448 192v-192h-128v128h-128v-128h-128v192l192 144z" />
<glyph unicode="&#xe66d;" d="M512 176l-96 96v144h-64v-80l-96 96-256-256v-16h64v-160h160v96h64v-96h160v160h64z" />
<glyph unicode="&#xe66e;" d="M256 448l-256-256 48-48 48 48 32-192h96v96h64v-96h96l32 192 48-48 48 48-256 256zM256 242.746c-24.994 0-45.256 20.26-45.256 45.254s20.262 45.255 45.256 45.255c24.992 0 45.255-20.262 45.255-45.255 0-24.994-20.263-45.254-45.255-45.254z" />
<glyph unicode="&#xe66f;" d="M64 16c0 26.51 21.49 48 48 48s48-21.49 48-48c0-26.51-21.49-48-48-48-26.51 0-48 21.49-48 48zM384 16c0 26.51 21.49 48 48 48s48-21.49 48-48c0-26.51-21.49-48-48-48-26.51 0-48 21.49-48 48zM480 224v192h-416c0 35.346-28.653 64-64 64v-32c17.645 0 32-14.355 32-32l24.037-206.027c-14.647-11.729-24.037-29.75-24.037-49.973 0-35.347 28.654-64 64-64h384v32h-384c-17.673 0-32 14.327-32 32 0 0.11 0.007 0.218 0.008 0.328l415.992 63.672z" />
<glyph unicode="&#xe670;" d="M423.609 192c17.6 0 35.956 13.846 40.791 30.769l46.418 162.463c4.835 16.922-5.609 30.768-23.209 30.768h-327.609c0 35.346-28.654 64-64 64h-96v-64h96v-272c0-26.51 21.49-48 48-48h304c17.673 0 32 14.327 32 32s-14.327 32-32 32h-288v32h263.609zM160 352h289.403l-27.429-96h-261.974v96zM192 8c0-22-18-40-40-40h-16c-22 0-40 18-40 40v16c0 22 18 40 40 40h16c22 0 40-18 40-40v-16zM480 8c0-22-18-40-40-40h-16c-22 0-40 18-40 40v16c0 22 18 40 40 40h16c22 0 40-18 40-40v-16z" />
<glyph unicode="&#xe671;" d="M488.791 382.769c-16.992 4.854-34.705-4.985-39.56-21.978l-2.511-8.791h-298.471l-4.496 35.969c-2.002 16.014-15.615 28.031-31.753 28.031h-80c-17.673 0-32-14.327-32-32s14.327-32 32-32h51.751l28.496-227.969c2.002-16.013 15.615-28.031 31.753-28.031h272c14.287 0 26.844 9.472 30.769 23.209l64 224c4.855 16.993-4.985 34.705-21.978 39.56zM256 224v32h63.998v-32h-63.998zM319.998 192v-32h-63.998v32h63.998zM256 288v32h63.998v-32h-63.998zM152.249 320h71.751v-32h-67.751l-4 32zM160.249 256h63.751v-32h-59.751l-4 32zM168.249 192h55.751v-32h-51.751l-4 32zM391.862 160h-39.864v32h49.007l-9.143-32zM410.148 224h-58.15v32h67.293l-9.143-32zM428.434 288h-76.436v32h85.579l-9.143-32zM128 16c0 26.51 21.49 48 48 48s48-21.49 48-48c0-26.51-21.49-48-48-48-26.51 0-48 21.49-48 48zM320 16c0 26.51 21.49 48 48 48s48-21.49 48-48c0-26.51-21.49-48-48-48-26.51 0-48 21.49-48 48z" />
<glyph unicode="&#xe672;" d="M352 160c-32-32-32-64-64-64s-64 32-96 64-64 64-64 96 32 32 64 64-64 128-96 128-96-96-96-96c0-64 65.75-193.75 128-256s192-128 256-128c0 0 96 64 96 96s-96 128-128 96z" />
<glyph unicode="&#xe673;" d="M464 416h-416c-26.4 0-48-21.6-48-48v-320c0-26.4 21.6-48 48-48h416c26.4 0 48 21.6 48 48v320c0 26.4-21.6 48-48 48zM199.37 204.814l-135.37-105.446v250.821l135.37-145.375zM88.19 352h335.62l-167.81-126-167.81 126zM204.644 199.151l51.356-55.151 51.355 55.151 105.277-135.151h-313.264l105.276 135.151zM312.63 204.814l135.37 145.375v-250.821l-135.37 105.446z" />
<glyph unicode="&#xe674;" d="M512 64v384h-512v-384h224v-32h-96v-32h256v32h-96v32h224zM64 384h384v-256h-384v256z" />
<glyph unicode="&#xe675;" d="M448 128v256c0 17.6-14.4 32-32 32h-320c-17.6 0-32-14.4-32-32v-256h-64v-96h512v96h-64zM320 64h-128v32h128v-32zM416 128h-320v255.943c0.017 0.020 0.038 0.041 0.057 0.057h319.885c0.020-0.017 0.041-0.038 0.058-0.058v-255.942z" />
<glyph unicode="&#xe676;" d="M368 480h-224c-26.4 0-48-21.6-48-48v-416c0-26.4 21.6-48 48-48h224c26.4 0 48 21.6 48 48v416c0 26.4-21.6 48-48 48zM192 456h128v-16h-128v16zM256 0c-17.673 0-32 14.327-32 32s14.327 32 32 32 32-14.327 32-32-14.327-32-32-32zM384 96h-256v320h256v-320z" />
<glyph unicode="&#xe677;" d="M384 480h-288c-17.6 0-32-14.399-32-32v-448c0-17.6 14.399-32 32-32h288c17.6 0 32 14.4 32 32v448c0 17.601-14.4 32-32 32zM240-8.891c-13.746 0-24.891 11.145-24.891 24.891s11.145 24.891 24.891 24.891 24.891-11.145 24.891-24.891-11.145-24.891-24.891-24.891zM384 64h-288v352h288v-352z" />
<glyph unicode="&#xe678;" d="M400 480h-320c-26.4 0-48-21.6-48-48v-416c0-26.4 21.6-48 48-48h320c26.4 0 48 21.6 48 48v416c0 26.4-21.6 48-48 48zM240-16c-8.836 0-16 7.163-16 16s7.164 16 16 16 16-7.163 16-16-7.164-16-16-16zM384 32h-288v384h288v-384z" />
<glyph unicode="&#xe679;" d="M380.931-32c56.863 103.016 66.444 260.153-156.931 254.912v-126.912l-192 192 192 192v-124.186c267.481 6.971 297.285-236.107 156.931-387.814z" />
<glyph unicode="&#xe67a;" d="M288 355.814v124.186l192-192-192-192v126.912c-223.375 5.241-213.794-151.896-156.93-254.912-140.356 151.707-110.55 394.785 156.93 387.814z" />
<glyph unicode="&#xe67b;" d="M131.070 480c-56.864-103.016-66.445-260.152 156.93-254.912v126.912l192-192-192-192v124.186c-267.48-6.971-297.286 236.107-156.93 387.814z" />
<glyph unicode="&#xe67c;" d="M112.5 256c61.856 0 112-50.145 112-112 0-61.856-50.144-112-112-112-61.856 0-112 50.144-112 112l-0.5 16c0 123.712 100.288 224 224 224v-64c-42.737 0-82.917-16.643-113.137-46.863-5.817-5.818-11.126-12.008-15.915-18.51 5.719 0.9 11.58 1.373 17.552 1.373zM400.5 256c61.855 0 112-50.145 112-112 0-61.856-50.145-112-112-112-61.855 0-112 50.144-112 112l-0.5 16c0 123.712 100.288 224 224 224v-64c-42.737 0-82.917-16.643-113.137-46.863-5.818-5.818-11.127-12.008-15.916-18.51 5.72 0.9 11.58 1.373 17.553 1.373z" />
<glyph unicode="&#xe67d;" d="M496.131 44.302l-121.276 103.147c-12.537 11.283-25.945 16.463-36.776 15.963 28.628 33.534 45.921 77.039 45.921 124.588 0 106.039-85.961 192-192 192-106.038 0-192-85.961-192-192 0-106.039 85.961-192 192-192 47.549 0 91.054 17.293 124.588 45.922-0.5-10.831 4.68-24.239 15.963-36.776l103.147-121.276c17.661-19.623 46.511-21.277 64.11-3.678s15.946 46.449-3.677 64.11zM192 160c-70.692 0-128 57.308-128 128s57.308 128 128 128 128-57.308 128-128-57.307-128-128-128zM224 384h-64v-64h-64v-64h64v-64h64v64h64v64h-64z" />
<glyph unicode="&#xe67e;" d="M496.131 44.302l-121.276 103.147c-12.537 11.283-25.945 16.463-36.776 15.963 28.628 33.534 45.921 77.039 45.921 124.588 0 106.039-85.961 192-192 192-106.038 0-192-85.961-192-192 0-106.039 85.961-192 192-192 47.549 0 91.054 17.293 124.588 45.922-0.5-10.831 4.68-24.239 15.963-36.776l103.147-121.276c17.661-19.623 46.511-21.277 64.11-3.678s15.946 46.449-3.677 64.11zM192 160c-70.692 0-128 57.308-128 128s57.308 128 128 128 128-57.308 128-128-57.307-128-128-128zM96 320h192v-64h-192z" />
<glyph unicode="&#xe67f;" d="M32 384h448v-96h-448zM32 256h448v-96h-448zM32 128h448v-96h-448z" />
<glyph unicode="&#xe680;" d="M488 96h-8v104c0 30.878-25.121 56-56 56h-136v64h8c13.2 0 24 10.8 24 24v80c0 13.2-10.8 24-24 24h-80c-13.2 0-24-10.8-24-24v-80c0-13.2 10.8-24 24-24h8v-64h-136c-30.878 0-56-25.122-56-56v-104h-8c-13.2 0-24-10.8-24-24v-80c0-13.2 10.8-24 24-24h80c13.2 0 24 10.8 24 24v80c0 13.2-10.8 24-24 24h-8v96h128v-96h-8c-13.2 0-24-10.8-24-24v-80c0-13.2 10.8-24 24-24h80c13.2 0 24 10.8 24 24v80c0 13.2-10.8 24-24 24h-8v96h128v-96h-8c-13.2 0-24-10.8-24-24v-80c0-13.2 10.8-24 24-24h80c13.2 0 24 10.8 24 24v80c0 13.2-10.8 24-24 24zM96 0h-64v64h64v-64zM288 0h-64v64h64v-64zM224 352v64h64v-64h-64zM480 0h-64v64h64v-64z" />
<glyph unicode="&#xe681;" d="M507.331 68.67c-0.002 0.002-0.004 0.004-0.006 0.005l-155.322 155.325 155.322 155.325c0.002 0.002 0.004 0.003 0.006 0.005 1.672 1.673 2.881 3.627 3.656 5.708 2.123 5.688 0.912 12.341-3.662 16.915l-73.373 73.373c-4.574 4.573-11.225 5.783-16.914 3.66-2.080-0.775-4.035-1.984-5.709-3.655 0-0.002-0.002-0.003-0.004-0.005l-155.324-155.326-155.324 155.325c-0.002 0.002-0.003 0.003-0.005 0.005-1.673 1.671-3.627 2.88-5.707 3.655-5.69 2.124-12.341 0.913-16.915-3.66l-73.374-73.374c-4.574-4.574-5.784-11.226-3.661-16.914 0.776-2.080 1.985-4.036 3.656-5.708 0.002-0.001 0.003-0.003 0.005-0.005l155.325-155.324-155.325-155.326c-0.001-0.002-0.003-0.003-0.004-0.005-1.671-1.673-2.88-3.627-3.657-5.707-2.124-5.688-0.913-12.341 3.661-16.915l73.374-73.373c4.575-4.574 11.226-5.784 16.915-3.661 2.080 0.776 4.035 1.985 5.708 3.656 0.001 0.002 0.003 0.003 0.005 0.005l155.324 155.325 155.324-155.325c0.002-0.001 0.004-0.003 0.006-0.004 1.674-1.672 3.627-2.881 5.707-3.657 5.689-2.123 12.342-0.913 16.914 3.661l73.373 73.374c4.574 4.574 5.785 11.227 3.662 16.915-0.776 2.080-1.985 4.034-3.657 5.707z" />
<glyph unicode="&#xe682;" d="M432 416l-240-240-112 112-80-80 192-192 320 320z" />
<glyph unicode="&#xe683;" d="M198.717 21.152l-198.934 195.8 98.689 97.135 100.245-98.666 214.81 211.426 98.689-97.135-313.499-308.56zM53.956 216.952l144.762-142.481 259.328 255.241-44.518 43.816-214.81-211.426-100.245 98.667-44.517-43.817z" />
<glyph unicode="&#xe684;" d="M445.020 18.98c-6.143 0-12.284 2.343-16.971 7.029-9.372 9.373-9.372 24.568 0 33.941 43.819 43.821 67.952 102.080 67.952 164.050 0 61.969-24.133 120.229-67.952 164.049-9.372 9.373-9.372 24.569 0 33.941 9.372 9.372 24.569 9.372 33.941 0 52.885-52.886 82.011-123.2 82.011-197.99 0-74.791-29.126-145.104-82.011-197.99-4.686-4.687-10.828-7.030-16.97-7.030zM359.765 64.235c-6.143 0-12.284 2.343-16.971 7.029-9.372 9.372-9.372 24.568 0 33.941 65.503 65.503 65.503 172.085 0 237.588-9.372 9.373-9.372 24.569 0 33.941 9.372 9.371 24.569 9.372 33.941 0 40.797-40.796 63.265-95.038 63.265-152.734 0-57.695-22.468-111.938-63.265-152.735-4.686-4.687-10.828-7.030-16.97-7.030zM274.51 109.49c-6.143 0-12.284 2.343-16.971 7.029-9.373 9.373-9.373 24.568 0 33.941 40.55 40.55 40.55 106.529 0 147.078-9.373 9.373-9.373 24.569 0 33.941 9.373 9.372 24.568 9.372 33.941 0 59.265-59.265 59.265-155.696 0-214.961-4.686-4.685-10.828-7.028-16.97-7.028zM200.666 440.666c12.834 12.834 23.334 8.484 23.334-9.666v-414c0-18.15-10.5-22.499-23.334-9.665l-120.666 120.665h-80v192h80l120.666 120.666z" horiz-adv-x="544" />
<glyph unicode="&#xe685;" d="M359.765 64.235c-6.143 0-12.284 2.343-16.971 7.029-9.372 9.372-9.372 24.568 0 33.941 65.503 65.503 65.503 172.085 0 237.588-9.372 9.373-9.372 24.569 0 33.941 9.372 9.371 24.569 9.372 33.941 0 40.797-40.796 63.265-95.038 63.265-152.734 0-57.695-22.468-111.938-63.265-152.735-4.686-4.687-10.828-7.030-16.97-7.030zM274.51 109.49c-6.143 0-12.284 2.343-16.971 7.029-9.373 9.373-9.373 24.568 0 33.941 40.55 40.55 40.55 106.529 0 147.078-9.373 9.373-9.373 24.569 0 33.941 9.373 9.372 24.568 9.372 33.941 0 59.265-59.265 59.265-155.696 0-214.961-4.686-4.685-10.828-7.028-16.97-7.028zM200.666 440.666c12.834 12.834 23.334 8.484 23.334-9.666v-414c0-18.15-10.5-22.499-23.334-9.665l-120.666 120.665h-80v192h80l120.666 120.666z" />
<glyph unicode="&#xe686;" d="M0 96l128 128 256-256 128 128-256 256 127.999 128h-383.999z" />
<glyph unicode="&#xe687;" d="M256.001 480l-256.001-256h160v-255.999l192-0.001v256h160z" />
<glyph unicode="&#xe688;" d="M128 480l128.001-128-256.001-256 128-128 256 256 128-127.999v383.999z" />
<glyph unicode="&#xe689;" d="M512 224l-256 256v-160h-255.999l-0.001-192h256v-160z" />
<glyph unicode="&#xe68a;" d="M512 352l-128-128-256 256-128-128 256.001-256-128-128h383.999z" />
<glyph unicode="&#xe68b;" d="M256-32l256 256h-160v255.999l-192 0.001v-256h-160z" />
<glyph unicode="&#xe68c;" d="M384-32l-128 128 256 256-128 128-256-256.001-128 128v-383.999z" />
<glyph unicode="&#xe68d;" d="M0 224l256-256v160h255.999l0.001 192h-256v160z" />
<glyph unicode="&#xe68e;" d="M64 192c0-17.674 14.327-32 32-32s32 14.326 32 32v114.746l265.373-265.374c12.496-12.496 32.758-12.496 45.254 0 6.249 6.249 9.373 14.439 9.373 22.628s-3.124 16.379-9.373 22.627l-265.373 265.373h114.746c17.673 0 32 14.327 32 32s-14.327 32-32 32h-224v-224z" />
<glyph unicode="&#xe68f;" d="M438.627 278.627l-160 160c-12.496 12.497-32.757 12.497-45.254 0l-160-160c-12.497-12.497-12.497-32.758 0-45.255 12.497-12.498 32.758-12.498 45.255 0l105.372 105.373v-306.745c0-17.673 14.327-32 32-32s32 14.327 32 32v306.745l105.373-105.373c6.248-6.248 14.438-9.372 22.627-9.372s16.379 3.124 22.627 9.373c12.497 12.497 12.497 32.757 0 45.254z" />
<glyph unicode="&#xe690;" d="M416.010 416c-0.006 0-0.014 0-0.020 0h-191.99c-17.673 0-32-14.327-32-32s14.327-32 32-32h114.746l-265.373-265.373c-12.497-12.496-12.497-32.758 0-45.254 6.248-6.249 14.438-9.373 22.627-9.373s16.379 3.124 22.627 9.373l265.373 265.373v-114.746c0-17.673 14.327-32 32-32s32 14.327 32 32v224h-31.99z" />
<glyph unicode="&#xe691;" d="M310.627 41.373l160 160c12.497 12.496 12.497 32.758 0 45.255l-160 160c-12.497 12.496-32.758 12.496-45.255 0-12.497-12.497-12.497-32.758 0-45.255l105.373-105.373h-306.745c-17.673 0-32-14.327-32-32s14.327-32 32-32h306.745l-105.373-105.373c-6.248-6.248-9.372-14.438-9.372-22.627s3.124-16.379 9.372-22.627c12.497-12.497 32.758-12.497 45.255 0z" />
<glyph unicode="&#xe692;" d="M448 256c0 17.674-14.326 32-32 32-17.673 0-32-14.326-32-32v-114.746l-265.373 265.374c-12.496 12.496-32.758 12.496-45.254 0-6.249-6.249-9.373-14.439-9.373-22.628s3.124-16.379 9.373-22.627l265.373-265.373h-114.746c-17.673 0-32-14.327-32-32s14.327-32 32-32h224v224z" />
<glyph unicode="&#xe693;" d="M73.373 169.373l160-160c12.496-12.497 32.758-12.497 45.255 0l160 160c12.496 12.497 12.496 32.758 0 45.255-12.497 12.497-32.758 12.497-45.255 0l-105.373-105.373v306.745c0 17.673-14.327 32-32 32s-32-14.327-32-32v-306.745l-105.373 105.373c-6.248 6.248-14.438 9.372-22.627 9.372s-16.379-3.124-22.627-9.372c-12.497-12.497-12.497-32.758 0-45.255z" />
<glyph unicode="&#xe694;" d="M288 32c17.674 0 32 14.326 32 32 0 17.673-14.326 32-32 32h-114.746l265.374 265.373c12.496 12.496 12.496 32.758 0 45.254-6.249 6.249-14.439 9.373-22.628 9.373s-16.379-3.124-22.627-9.373l-265.373-265.373v114.746c0 17.673-14.327 32-32 32s-32-14.327-32-32v-224h224z" />
<glyph unicode="&#xe695;" d="M201.373 406.627l-160-160c-12.497-12.496-12.497-32.758 0-45.254l160-160c12.497-12.496 32.758-12.496 45.255 0 12.498 12.496 12.498 32.758 0 45.254l-105.374 105.373h306.746c17.673 0 32 14.326 32 32 0 17.673-14.327 32-32 32h-306.746l105.373 105.373c6.248 6.248 9.373 14.438 9.373 22.627s-3.124 16.379-9.372 22.627c-12.498 12.497-32.758 12.497-45.255 0z" />
</font>
</defs>
</svg>
